<?xml version="1.0" standalone="no"?>
<!DOCTYPE svg PUBLIC "-//W3C//DTD SVG 1.1//EN" "http://www.w3.org/Graphics/SVG/1.1/DTD/svg11.dtd" >
<svg xmlns="http://www.w3.org/2000/svg" xmlns:xlink="http://www.w3.org/1999/xlink" version="1.1">
<metadata>
Created by FontForge 20161003 at Fri Jan 18 10:21:32 2019
 By www-data
Copyright (c) 1981 Linotype AG and/or its subsidiaries.
</metadata>
<defs>
<font id="Cochin" horiz-adv-x="500" >
  <font-face 
    font-family="Cochin"
    font-weight="500"
    font-stretch="normal"
    units-per-em="1000"
    panose-1="2 0 6 3 2 0 0 2 0 3"
    ascent="800"
    descent="-200"
    x-height="372"
    cap-height="654"
    bbox="-489 -262 1826 1000"
    underline-thickness="50"
    underline-position="-175"
    unicode-range="U+0008-FE48"
  />
<missing-glyph horiz-adv-x="544" 
d="M37 658h475v-655h-475v655zM485 27v607h-421v-607h421z" />
    <glyph glyph-name=".notdef" horiz-adv-x="544" 
d="M37 658h475v-655h-475v655zM485 27v607h-421v-607h421z" />
    <glyph glyph-name=".null" horiz-adv-x="0" 
 />
    <glyph glyph-name=".null" horiz-adv-x="0" 
 />
    <glyph glyph-name=".null" horiz-adv-x="0" 
 />
    <glyph glyph-name="nonmarkingreturn" unicode="&#x9;" 
 />
    <glyph glyph-name="nonmarkingreturn" unicode="&#xd;" 
 />
    <glyph glyph-name="nonmarkingreturn" unicode="&#xa;" 
 />
    <glyph glyph-name="space" unicode=" " horiz-adv-x="250" 
 />
    <glyph glyph-name="space" unicode="&#xa0;" horiz-adv-x="250" 
 />
    <glyph glyph-name="exclam" unicode="!" horiz-adv-x="389" 
d="M189 154q-1 7 -3 16t-4 20q-10 51 -16 100t-6 100q0 23 3 47t3 47q0 61 -10 94.5t-38 53.5v8l115 20q2 -18 5.5 -36t3.5 -36q0 -47 -6 -92t-13 -85t-13 -74t-6 -60q0 -31 -1 -61.5t-1 -61.5h-13zM196 106q23 0 39.5 -16t16.5 -40t-16.5 -40t-39.5 -16t-39.5 16t-16.5 40
t16.5 40t39.5 16z" />
    <glyph glyph-name="quotedbl" unicode="&#x22;" horiz-adv-x="333" 
d="M250 385q0 -6 -2 -18.5t-13 -12.5t-13 12.5t-2 18.5l-16 204q-1 3 -1 11v14q0 33 8.5 44.5t23.5 11.5t23.5 -11.5t8.5 -44.5v-14q0 -8 -1 -11zM113 385q0 -6 -2 -18.5t-13 -12.5t-13 12.5t-2 18.5l-16 204q-1 3 -1 11v14q0 33 8.5 44.5t23.5 11.5t23.5 -11.5t8.5 -44.5
v-14q0 -8 -1 -11z" />
    <glyph glyph-name="numbersign" unicode="#" 
d="M335 440l30 210h50l-29 -210h94l3 -44h-103l-20 -142h94l3 -44h-103l-30 -210h-50l30 210h-131l-30 -210h-50l29 210h-102l-3 44h111l20 142h-102l-3 44h111l30 210h50l-30 -210h131zM199 396l-21 -142h131l21 142h-131z" />
    <glyph glyph-name="dollar" unicode="$" 
d="M218 742h34v-92q12 0 28.5 -4t34 -9t32.5 -9t24 -4q7 0 14 1t12 5l19 -143l-11 -3q-9 24 -23.5 47t-34 41.5t-43.5 31t-52 16.5v-242q88 -42 134 -84.5t46 -99.5q0 -84 -49 -132t-131 -62v-92h-34v92q-32 0 -62 8t-62 8q-17 0 -33 -10l-38 184l14 4q11 -30 28 -59.5
t40 -52.5t51.5 -37.5t61.5 -14.5v278q-30 17 -61 33.5t-56 38t-41 50.5t-16 70q0 36 15 63.5t40 47t56 29.5t63 10v92zM218 620q-42 0 -72 -27t-30 -72q0 -26 9 -44.5t23 -33.5t32.5 -26.5t37.5 -22.5v226zM252 30q51 4 79.5 39.5t28.5 84.5q0 26 -9 47.5t-24 38.5
t-34.5 30.5t-40.5 24.5v-265z" />
    <glyph glyph-name="percent" unicode="%" horiz-adv-x="833" 
d="M477 193q0 52 14 89.5t35.5 62t47 36t48.5 11.5t48.5 -11.5t47 -36t35.5 -62t14 -89.5t-14 -89.5t-35.5 -62t-47 -36t-48.5 -11.5t-48.5 11.5t-47 36t-35.5 62t-14 89.5zM543 195q0 -50 6.5 -84t17.5 -55t25.5 -30.5t30.5 -9.5q33 0 55.5 40t22.5 139q0 50 -6 83.5
t-16.5 54t-25 29t-30.5 8.5t-30.5 -8.5t-25.5 -29t-17.5 -54t-6.5 -83.5zM605 656l-369 -662h-38l368 662h39zM35 457q0 52 14 89.5t35.5 62t47 36t48.5 11.5t48.5 -11.5t47 -36t35.5 -62t14 -89.5t-14 -89.5t-35.5 -62t-47 -36t-48.5 -11.5t-48.5 11.5t-47 36t-35.5 62
t-14 89.5zM101 459q0 -50 6.5 -84t17.5 -55t25.5 -30.5t30.5 -9.5q33 0 55.5 40t22.5 139q0 50 -6 83.5t-16.5 54t-25 29t-30.5 8.5t-30.5 -8.5t-25.5 -29t-17.5 -54t-6.5 -83.5z" />
    <glyph glyph-name="ampersand" unicode="&#x26;" horiz-adv-x="741" 
d="M507 448q29 -2 59 -3t59 -1q26 0 52 1t52 3v-12q-27 0 -48.5 -10.5t-39 -29t-32 -43t-28.5 -52.5q-20 -40 -40 -83.5t-46 -82.5q31 -60 79 -88.5t114 -38.5v-12q-11 1 -26 2t-31 1.5t-31 0.5h-25q-28 0 -55 -1t-55 -3l-32 68q-40 -36 -87 -60t-102 -24q-39 0 -72.5 14
t-58 38.5t-38.5 58t-14 72.5q0 42 17.5 75.5t45.5 59.5t64 44t72 28q-19 14 -39.5 27.5t-38 30t-29 37.5t-11.5 48q0 30 13.5 53t35 38.5t48 24t53.5 8.5q33 0 63.5 -6.5t53.5 -22.5t36.5 -41.5t13.5 -63.5q0 -30 -10 -50t-26.5 -34.5t-38 -25t-45.5 -21.5q48 -45 80 -100.5
t62 -112.5q11 16 25 45t27 61.5t21.5 64t8.5 52.5q0 25 -16 37t-40 19v10zM149 183q0 -27 10 -53.5t29.5 -47t46.5 -33.5t62 -13q32 0 67 14t58 37q-14 34 -27.5 69.5t-29.5 70t-35.5 66.5t-44.5 60q-61 -17 -98.5 -60.5t-37.5 -109.5zM222 511q0 -29 14 -51.5t31.5 -38
t32 -24t15.5 -8.5q9 6 22 13.5t24.5 18.5t19.5 28t8 43q0 23 -5.5 44.5t-17 37.5t-28.5 25.5t-39 9.5q-19 0 -33.5 -8.5t-24 -22.5t-14.5 -31.5t-5 -35.5z" />
    <glyph glyph-name="quotesingle" unicode="'" horiz-adv-x="222" 
d="M126 385q0 -6 -2 -18.5t-13 -12.5t-13 12.5t-2 18.5l-16 204q-1 3 -1 11v14q0 33 8.5 44.5t23.5 11.5t23.5 -11.5t8.5 -44.5v-14q0 -8 -1 -11z" />
    <glyph glyph-name="parenleft" unicode="(" horiz-adv-x="389" 
d="M369 678q-49 -50 -85.5 -100t-60.5 -102.5t-36 -109.5t-12 -122q0 -68 14.5 -128.5t41 -114.5t62.5 -101.5t79 -89.5l-13 -10q-53 44 -102 91.5t-86.5 101.5t-60.5 116t-23 135q0 69 23 132.5t61 119.5t87 104.5t102 87.5z" />
    <glyph glyph-name="parenright" unicode=")" horiz-adv-x="389" 
d="M3 -190q49 50 85.5 100t60.5 102.5t36 109.5t12 122q0 68 -14.5 128.5t-40.5 114.5t-62 101.5t-80 89.5l13 10q53 -44 102 -91.5t87 -101.5t60.5 -116t22.5 -135q0 -69 -23 -132.5t-61 -120t-87 -104.5t-102 -87z" />
    <glyph glyph-name="asterisk" unicode="*" 
d="M243 547q-6 20 -14 39.5t-11 39.5v7q0 15 8 26t24 11t24 -11t8 -26v-7q-3 -20 -11 -39.5t-14 -39.5h-14zM203 525q-12 6 -28 12.5t-30 15t-23.5 18.5t-9.5 24q0 12 9.5 21.5t21.5 9.5q13 0 23.5 -9.5t18.5 -24t15 -30t13 -27.5zM191 481q-20 -7 -39.5 -14.5t-39.5 -10.5
h-7q-15 0 -26 8t-11 24t11 24t26 8h7q20 -3 39.5 -10.5t39.5 -14.5v-14zM213 441q-6 -12 -13 -28t-15 -30t-18.5 -23.5t-23.5 -9.5q-12 0 -21.5 9.5t-9.5 21.5q0 13 9.5 23.5t23.5 18.5t30 15t28 13zM257 429q7 -20 14.5 -39.5t10.5 -39.5v-7q0 -15 -8 -26t-24 -11t-24 11
t-8 26v7q3 20 10.5 39.5t14.5 39.5h14zM297 451q12 -6 27.5 -13t30 -15t24 -18.5t9.5 -23.5q0 -12 -9.5 -21.5t-21.5 -9.5q-14 0 -24 9.5t-18.5 23.5t-15 30t-12.5 28zM309 495q20 7 39.5 14.5t39.5 10.5h7q15 0 26 -8t11 -24t-11 -24t-26 -8h-7q-20 3 -39.5 10.5
t-39.5 14.5v14zM287 535q6 12 12.5 27.5t15 30t18.5 24t24 9.5q12 0 21.5 -9.5t9.5 -21.5q0 -14 -9.5 -24t-24 -18.5t-30 -15t-27.5 -12.5z" />
    <glyph glyph-name="plus" unicode="+" 
d="M225 368h50v-159h158v-50h-158v-159h-50v159h-158v50h158v159z" />
    <glyph glyph-name="comma" unicode="," horiz-adv-x="250" 
d="M14 -107q11 7 22 18.5t20 25t15 28t6 27.5q0 14 -3 25t-6 21t-6 19t-3 19q0 22 15 35t35 13q26 0 37 -17t11 -49t-11.5 -57.5t-30.5 -46.5t-42.5 -38.5t-47.5 -33.5z" />
    <glyph glyph-name="hyphen" unicode="-" horiz-adv-x="333" 
d="M37 219q32 8 59 8q28 0 55 -4t55 -4q34 0 64 10l-11 -74q-26 -6 -52 -6q-24 0 -47.5 4t-40.5 4q-23 0 -45 -2t-44 -8z" />
    <glyph glyph-name="hyphen" unicode="&#xad;" horiz-adv-x="333" 
d="M37 219q32 8 59 8q28 0 55 -4t55 -4q34 0 64 10l-11 -74q-26 -6 -52 -6q-24 0 -47.5 4t-40.5 4q-23 0 -45 -2t-44 -8z" />
    <glyph glyph-name="period" unicode="." horiz-adv-x="250" 
d="M112 106q23 0 39.5 -16t16.5 -40t-16.5 -40t-39.5 -16t-39.5 16t-16.5 40t16.5 40t39.5 16z" />
    <glyph glyph-name="slash" unicode="/" horiz-adv-x="278" 
d="M-18 -20l263 690h51l-263 -690h-51z" />
    <glyph glyph-name="zero" unicode="0" 
d="M249 666q37 0 74 -18t66 -58.5t47 -105.5t18 -159t-18 -159t-47 -105.5t-66 -58.5t-74 -18q-38 0 -74.5 18t-65 58.5t-46.5 105.5t-18 159t18 159t46.5 105.5t65 58.5t74.5 18zM250 636q-30 0 -52 -21.5t-36.5 -62t-21.5 -98t-7 -128.5t7 -129t21.5 -98.5t36.5 -62.5
t52 -22t51.5 22t36 62.5t21.5 98.5t7 129t-7 128.5t-21.5 98t-36 62t-51.5 21.5z" />
    <glyph glyph-name="one" unicode="1" 
d="M97 8q29 3 49.5 8t34 16.5t19.5 31.5t6 54v377q0 38 -3.5 60.5t-14 34t-31.5 15.5t-55 5v16q39 2 82.5 11t78.5 29h23v-594q0 -17 5 -27.5t17 -17.5t32.5 -11t50.5 -8v-12q-39 2 -78 3t-78 1q-35 0 -69 -1t-69 -3v12z" />
    <glyph glyph-name="two" unicode="2" 
d="M14 12l151 155q31 33 61 69t53 76.5t37 84t14 91.5q0 24 -6 50.5t-19.5 48t-34 35.5t-49.5 14q-21 0 -41 -4.5t-35.5 -14.5t-25 -27t-9.5 -42q0 -12 5.5 -21.5t12.5 -18.5t12.5 -20t5.5 -27q0 -21 -14 -32t-34 -11q-16 0 -27.5 7.5t-18.5 19t-10.5 25.5t-3.5 28
q0 37 14 67.5t38 53t56 35t68 12.5q97 0 150.5 -51.5t53.5 -148.5q0 -57 -34.5 -112t-83.5 -106t-101.5 -96.5t-88.5 -83.5h180q30 0 49 2.5t33.5 11t27.5 23.5t31 40l12 -10l-69 -139q-38 2 -76 3t-76 1q-51 0 -101 -1t-101 -3z" />
    <glyph glyph-name="three" unicode="3" 
d="M461 640l-241 -260l2 -2q25 6 56 6t60 -11.5t50.5 -35.5t34.5 -59.5t13 -83.5q0 -42 -15.5 -80t-45 -67t-73 -46t-99.5 -17q-30 0 -62 7.5t-58.5 23.5t-43.5 41t-17 60q0 24 11.5 41.5t37.5 17.5q29 0 38.5 -18.5t9.5 -43.5q0 -9 -2.5 -18t-2.5 -18q0 -17 10.5 -29
t26 -19.5t32.5 -11t31 -3.5q40 0 66 17t41 44t21 61t6 68q0 23 -6.5 48.5t-20 46.5t-33.5 35t-47 14q-32 0 -50.5 -11t-41.5 -34l-19 15l221 262h-181q-19 0 -31.5 -8.5t-21.5 -21.5t-16 -28.5t-14 -29.5l-14 2l35 160q42 -2 82 -3t82 -1h41.5t50.5 0.5t50.5 1.5t41.5 2z
" />
    <glyph glyph-name="four" unicode="4" 
d="M-11 201l-4 17q100 109 207.5 228t204.5 244h52v-12l-380 -413h243v217l65 64h7v-546h-72v201h-323z" />
    <glyph glyph-name="five" unicode="5" 
d="M64 259l102 391h73q6 -6 16.5 -10.5t22.5 -7.5t24 -4.5t21 -1.5q27 0 53 8.5t49 23.5l14 -16q-48 -33 -93 -55.5t-105 -22.5q-13 0 -26.5 2.5t-26.5 5.5l-63 -210q23 11 51 20.5t62 9.5q43 0 80.5 -11.5t65.5 -35t43.5 -60t15.5 -87.5q0 -52 -19 -92t-51.5 -67t-76 -41
t-92.5 -14q-27 0 -57.5 8.5t-56.5 25t-43.5 40.5t-17.5 55q0 28 10.5 45t36.5 17q21 0 36 -14.5t15 -40.5q0 -20 -4 -29t-4 -23q0 -13 11 -23t27 -17t33.5 -10.5t30.5 -3.5q24 0 47.5 10.5t43 32t31.5 53.5t12 76q0 34 -8 64.5t-25.5 53.5t-43.5 36.5t-62 13.5
q-51 0 -82.5 -28t-47.5 -73z" />
    <glyph glyph-name="six" unicode="6" 
d="M31 240q0 82 32.5 159t87 136.5t127 95t153.5 35.5q12 0 24.5 -6.5t12.5 -18.5q0 -15 -10 -24t-22 -9q-9 0 -17 2l-16 4t-17 4t-22 2q-50 0 -94 -27.5t-77 -70t-53.5 -95t-23.5 -101.5q25 19 60 36.5t67 17.5q39 0 76 -10t65.5 -33.5t45.5 -62t17 -96.5
q0 -35 -12.5 -69.5t-37.5 -62t-62 -45t-86 -17.5q-58 0 -99.5 20.5t-67.5 55t-38.5 81t-12.5 99.5zM119 209q0 -58 14 -96t33.5 -60.5t41.5 -31.5t37 -9q31 0 53 14t35.5 35.5t19.5 49t6 54.5q0 33 -6.5 65t-22 58t-41 42t-62.5 16q-27 0 -47.5 -12.5t-34 -32.5t-20 -44
t-6.5 -48z" />
    <glyph glyph-name="seven" unicode="7" 
d="M56 491l40 163q37 -2 73.5 -3t73.5 -1h130h25t31 0.5t31 1.5t25 2l7 -16q-54 -64 -115 -146.5t-114.5 -169.5t-93.5 -171t-52 -151h-85q15 52 42 106.5t60.5 108t71 104.5t74 96.5t68.5 85t55 69.5v6h-251q-18 0 -30.5 -8.5t-22 -21.5t-16.5 -28t-15 -28z" />
    <glyph glyph-name="eight" unicode="8" 
d="M380 133q0 39 -20.5 68.5t-50 53.5t-62.5 44.5t-59 41.5q-45 -20 -70 -59.5t-25 -87.5q0 -37 10.5 -69.5t30 -57t47.5 -39t64 -14.5q28 0 52.5 7.5t43 22t29 37t10.5 52.5zM354 506q0 58 -34.5 94t-92.5 36q-45 0 -74 -28.5t-29 -73.5q0 -27 17 -50t42 -43t52.5 -36.5
t48.5 -30.5q38 25 54 56t16 76zM452 172q0 -48 -18 -83t-49 -58.5t-71 -35t-83 -11.5q-41 0 -80 12.5t-69 36t-48.5 58t-18.5 78.5q0 35 12 63.5t32.5 51.5t47.5 40.5t57 30.5q-19 12 -39.5 28t-38 35.5t-29 41.5t-11.5 47q0 40 17 70t44 49.5t61.5 29.5t70.5 10
q34 0 67.5 -10t60 -29t43 -48t16.5 -66q0 -29 -9.5 -52.5t-25.5 -42.5t-37.5 -33t-46.5 -25q23 -17 48.5 -36.5t47 -42.5t35.5 -50t14 -59z" />
    <glyph glyph-name="nine" unicode="9" 
d="M25 8q80 0 140 21t101 60.5t63 95.5t26 126q-28 -19 -59.5 -30t-65.5 -11q-94 0 -148.5 54t-54.5 148q0 43 15.5 79t43 61.5t64.5 39.5t80 14q60 0 100.5 -23t65.5 -61t35.5 -86.5t10.5 -100.5q0 -94 -22 -170t-71.5 -129.5t-129 -82.5t-194.5 -29v24zM221 636
q-31 0 -51.5 -14.5t-32.5 -36.5t-17 -49t-5 -52q0 -27 8 -59.5t24.5 -60t40.5 -46t57 -18.5q30 0 51 10t34 28t18.5 42t5.5 52q0 30 -7 65.5t-22.5 66t-41 51.5t-62.5 21z" />
    <glyph glyph-name="colon" unicode=":" horiz-adv-x="250" 
d="M112 106q23 0 39.5 -16t16.5 -40t-16.5 -40t-39.5 -16t-39.5 16t-16.5 40t16.5 40t39.5 16zM112 380q23 0 39.5 -16t16.5 -40t-16.5 -40t-39.5 -16t-39.5 16t-16.5 40t16.5 40t39.5 16z" />
    <glyph glyph-name="semicolon" unicode=";" horiz-adv-x="250" 
d="M14 -107q11 7 22 18.5t20 25t15 28t6 27.5q0 14 -3 25t-6 21t-6 19t-3 19q0 22 15 35t35 13q26 0 37 -17t11 -49t-11.5 -57.5t-30.5 -46.5t-42.5 -38.5t-47.5 -33.5zM112 380q23 0 39.5 -16t16.5 -40t-16.5 -40t-39.5 -16t-39.5 16t-16.5 40t16.5 40t39.5 16z" />
    <glyph glyph-name="semicolon" unicode="&#x37e;" horiz-adv-x="250" 
d="M14 -107q11 7 22 18.5t20 25t15 28t6 27.5q0 14 -3 25t-6 21t-6 19t-3 19q0 22 15 35t35 13q26 0 37 -17t11 -49t-11.5 -57.5t-30.5 -46.5t-42.5 -38.5t-47.5 -33.5zM112 380q23 0 39.5 -16t16.5 -40t-16.5 -40t-39.5 -16t-39.5 16t-16.5 40t16.5 40t39.5 16z" />
    <glyph glyph-name="less" unicode="&#x3c;" 
d="M433 -6l-366 159v50l366 171v-50l-320 -146l320 -135v-49z" />
    <glyph glyph-name="equal" unicode="=" 
d="M433 230h-366v50h366v-50zM433 89h-366v50h366v-50z" />
    <glyph glyph-name="greater" unicode="&#x3e;" 
d="M67 43l320 135l-320 146v50l366 -171v-50l-366 -159v49z" />
    <glyph glyph-name="question" unicode="?" 
d="M213 156q-2 18 -4.5 35.5t-2.5 34.5q0 54 16 93t35 73.5t35 70.5t16 85q0 18 -4 36t-13 32t-24 23t-36 9q-44 0 -61.5 -29.5t-17.5 -68.5q0 -11 2 -23.5t4 -24.5l-71 -19q-4 10 -5.5 21.5t-1.5 22.5q0 36 13.5 63t36 44.5t52 26.5t62.5 9q31 0 58.5 -10.5t48.5 -29
t33 -45t12 -58.5q0 -45 -18 -78t-43 -62.5t-51.5 -61t-42.5 -73.5q-17 -45 -15 -96h-13zM228 104q23 0 39.5 -16t16.5 -40t-16.5 -40t-39.5 -16t-39.5 16t-16.5 40t16.5 40t39.5 16z" />
    <glyph glyph-name="at" unicode="@" horiz-adv-x="800" 
d="M511 396q0 64 -44 64q-18 0 -42.5 -13.5t-46.5 -39t-37.5 -62.5t-15.5 -83t19.5 -65t47.5 -19q15 0 34 14t36 41.5t30.5 68t18.5 94.5zM537 489h67l-65 -258q-1 -5 -2 -15t1.5 -20.5t11 -18.5t26.5 -8q33 0 58 20t42.5 50t26.5 66.5t9 69.5q0 43 -19.5 90.5t-57 87
t-92.5 65.5t-125 26q-60 0 -112.5 -22.5t-91.5 -66.5t-61 -108.5t-22 -147.5q0 -54 20.5 -105t59 -91t93.5 -64.5t123 -24.5q66 0 111 14t87 34l14 -26q-49 -21 -100 -38.5t-111 -17.5q-98 0 -169 32.5t-116.5 82t-67.5 107t-22 108.5q0 81 29 147t79 113.5t116.5 73.5
t140.5 26q69 0 129 -22.5t104 -61.5t69.5 -93t25.5 -117q0 -38 -12 -80t-36 -77.5t-58.5 -58.5t-79.5 -23q-25 0 -42 9.5t-27.5 21.5t-15 23.5t-4.5 16.5h-2q-4 -6 -14.5 -17t-25.5 -22t-34 -20t-41 -11q-10 0 -26.5 3t-32 15.5t-27 37t-11.5 68.5q0 26 12 66.5t36.5 79
t61.5 66t88 27.5q18 0 29 -4.5t18.5 -12t13 -17t10.5 -18.5z" />
    <glyph glyph-name="A" unicode="A" horiz-adv-x="704" 
d="M218 289l-66 -181q-3 -8 -5.5 -14t-2.5 -13q0 -18 10.5 -31t25.5 -21.5t31 -13.5t27 -7v-12q-30 2 -60 3t-61 1q-30 0 -58.5 -1t-60.5 -3v12q31 7 51.5 21.5t34.5 34.5t24.5 44t20.5 50l173 425q3 7 5.5 13t2.5 11t-3.5 15t-8.5 18q26 5 45 13t42 17l208 -572
q14 -39 39 -61.5t74 -28.5v-12q-40 2 -78.5 3t-80.5 1h-47t-36 -0.5t-30.5 -1.5t-31.5 -2v12q42 5 70.5 21.5t28.5 44.5q0 8 -3.5 16t-5.5 15l-65 184h-209zM326 573l-98 -254h188z" />
    <glyph glyph-name="B" unicode="B" horiz-adv-x="685" 
d="M139 492q0 42 -2.5 69.5t-13 44.5t-30.5 25t-56 11v12q31 -2 61 -3t61 -1q40 0 80 4t86 4q42 0 88.5 -9t85.5 -30.5t65 -57.5t26 -90q0 -45 -28.5 -81.5t-70.5 -50.5v-2q69 -22 107.5 -67.5t38.5 -120.5q0 -46 -20 -76.5t-53 -49t-75 -26t-86 -7.5q-69 0 -135.5 5
t-135.5 5q-23 0 -46.5 -1t-46.5 -3v12q35 3 55 11t30 25t12.5 44.5t2.5 69.5v334zM229 54q4 -8 18.5 -14t34 -10.5t41.5 -7t42 -2.5q81 0 126.5 42.5t45.5 123.5q0 44 -27 80.5t-62 60.5q-24 -4 -48 -7.5t-49 -3.5q-31 0 -62 3.5t-60 14.5v-280zM229 366q27 -14 55 -19
t57 -5q64 0 106.5 35.5t42.5 102.5q0 34 -14 61t-37 46.5t-53.5 30t-63.5 10.5q-24 0 -47 -2t-46 -10v-250z" />
    <glyph glyph-name="C" unicode="C" horiz-adv-x="704" 
d="M624 426q-13 45 -34.5 83t-51 66t-68 43.5t-86.5 15.5q-62 0 -105 -24t-70.5 -65t-40 -95t-12.5 -114t16 -114.5t47.5 -95.5t79 -65.5t109.5 -24.5q93 0 160.5 47t119.5 128l25 -20q-34 -51 -68 -90t-74 -66t-87 -41t-106 -14q-67 0 -127 25.5t-105 71t-71.5 109
t-26.5 139.5t26.5 139.5t71.5 109t105 71t127 25.5q37 0 69 -4.5t61.5 -9.5t57 -10t54.5 -6q0 -21 1.5 -49t4.5 -57.5t6 -58t6 -49.5h-14z" />
    <glyph glyph-name="D" unicode="D" horiz-adv-x="833" 
d="M39 8q33 3 52.5 11t30 18.5t13.5 22.5t3 24v462q0 22 -2.5 38.5t-12.5 28.5t-30 19t-54 10v12q26 -2 52 -3t52 -1q70 0 130 7t123 7q81 0 152 -25t124.5 -71.5t84.5 -112.5t31 -148q0 -83 -30 -141.5t-80 -96t-114.5 -54.5t-134.5 -17q-54 0 -92.5 0.5t-67.5 0.5t-52 0.5
t-44 0.5q-34 0 -67 -1t-67 -3v12zM228 76q32 -30 73.5 -42t83.5 -12q154 0 224.5 79t70.5 229q0 65 -23.5 121.5t-65 98.5t-99 66t-125.5 24q-70 0 -133 -28q-4 -52 -5 -103.5t-1 -105.5v-327z" />
    <glyph glyph-name="E" unicode="E" horiz-adv-x="685" 
d="M230 39q9 -2 22 -4t28 -4t31 -3.5t30 -1.5q60 0 107.5 10t87 32t74.5 56t71 82l11 -9l-91 -201q-17 2 -35 3t-35 1h-376q-29 0 -58 -1t-58 -3v12q36 3 56 11t30 25t12.5 44.5t2.5 69.5v334q0 42 -2.5 69.5t-12.5 44.5t-31 25t-57 11v12q34 -1 64.5 -2t63 -1.5t69 -0.5
h82.5q70 0 140 1t142 3q-1 -11 -1.5 -22t-0.5 -21v-40q0 -22 2 -44.5t4 -49.5l-13 -4q-13 48 -34.5 78.5t-50 47.5t-62.5 23t-72 6q-70 0 -140 -6v-250q20 0 38.5 1t38.5 1q69 0 109.5 27.5t49.5 100.5h12q0 -36 -1 -72t-1 -71q0 -36 1 -72t1 -72h-12q-9 42 -22 68.5
t-32.5 40.5t-48.5 19t-69 5h-64v-309z" />
    <glyph glyph-name="F" unicode="F" horiz-adv-x="630" 
d="M232 141q0 -40 4 -62.5t16.5 -35.5t36.5 -20t65 -15v-12q-43 2 -85 3t-85 1q-37 0 -73.5 -1t-73.5 -3v12q36 3 56.5 11t31.5 25t14 44.5t3 69.5v334q0 42 -3 69.5t-14 44.5t-31.5 25t-56.5 11v12q14 -1 37 -2t47.5 -1.5t47 -0.5h36.5h217q51 0 90 1.5t82 2.5
q-2 -21 -3 -41.5t-1 -40.5q0 -26 1 -51.5t3 -51.5h-16q-16 57 -41.5 88.5t-60 46t-78.5 17.5t-96 3q-17 0 -34 -1t-36 -1v-248h80q60 0 93 25t53 82h12q-3 -68 -3 -136q0 -36 0.5 -66.5t2.5 -65.5h-12q-10 37 -21 61.5t-26.5 39.5t-37.5 22t-54 10q-9 1 -19 1.5t-21 0.5h-47
v-207z" />
    <glyph glyph-name="G" unicode="G" horiz-adv-x="778" 
d="M644 440q-19 38 -40.5 74t-49.5 64t-64.5 45t-85.5 17q-57 0 -101.5 -28t-76 -73t-48 -101t-16.5 -112q0 -63 16.5 -119.5t48 -98.5t76 -67t101.5 -25q48 0 94 9.5t86 38.5v129q0 68 -103 71v12q38 -1 70 -2.5t72 -1.5q37 0 74 1t74 3v-12q-21 -1 -39 -5t-30.5 -13
t-20 -24.5t-7.5 -39.5v-140q-69 -23 -136.5 -42.5t-130.5 -19.5q-67 0 -131 22.5t-114.5 66.5t-81 108t-30.5 148q0 73 30.5 136.5t81 109.5t114.5 72.5t131 26.5q41 0 74 -3.5t60 -9t49 -11.5t42 -11q0 -16 2.5 -42.5t6.5 -55t8 -55t7 -42.5h-12z" />
    <glyph glyph-name="H" unicode="H" horiz-adv-x="833" 
d="M602 492q0 42 -2.5 69.5t-13 44.5t-31.5 25t-57 11v12q42 -2 81.5 -3t81.5 -1q33 0 66 1t65 3v-12q-35 -3 -55 -11t-30 -25t-12.5 -44.5t-2.5 -69.5v-334q0 -42 2.5 -69.5t13 -44.5t31.5 -25t58 -11v-12q-38 2 -76 3t-76 1q-37 0 -73 -1t-72 -3v12q36 3 56 11t30.5 25
t13 44.5t2.5 69.5v180h-371v-180q0 -42 2.5 -69.5t13 -44.5t31.5 -25t58 -11v-12q-38 2 -76 3t-76 1q-37 0 -73 -1t-72 -3v12q36 3 56 11t30.5 25t13 44.5t2.5 69.5v334q0 42 -2.5 69.5t-13 44.5t-31.5 25t-57 11v12q42 -2 81.5 -3t81.5 -1q33 0 66 1t65 3v-12
q-35 -3 -55 -11t-30 -25t-12.5 -44.5t-2.5 -69.5v-122h371v122z" />
    <glyph glyph-name="I" unicode="I" horiz-adv-x="389" 
d="M47 8q36 3 56 11t30.5 25t13 44.5t2.5 69.5v334q0 42 -2.5 69.5t-13 44.5t-31.5 25t-57 11v12q42 -2 81.5 -3t81.5 -1q33 0 66 1t65 3v-12q-35 -3 -55 -11t-30 -25t-12.5 -44.5t-2.5 -69.5v-334q0 -42 2.5 -69.5t13 -44.5t31.5 -25t58 -11v-12q-38 2 -76 3t-76 1
q-37 0 -73 -1t-72 -3v12z" />
    <glyph glyph-name="J" unicode="J" horiz-adv-x="630" 
d="M276 654q37 -2 72.5 -3t72.5 -1q42 0 82 1t82 3v-12q-26 -3 -43.5 -8t-28.5 -15t-16 -26t-5 -41v-380q0 -48 -22 -84t-58 -60t-82 -36t-94 -12q-26 0 -61.5 8t-68.5 26t-56 48t-23 74q0 27 16 51t51 24q24 0 42.5 -16.5t18.5 -34.5q0 -14 -3.5 -33t-13.5 -30
q4 -26 15 -42.5t26.5 -26t34 -13t37.5 -3.5q50 0 80 18t45.5 45.5t20.5 61t5 65.5v332q0 33 -7.5 52.5t-23 31t-39.5 16.5t-56 8v12z" />
    <glyph glyph-name="K" unicode="K" horiz-adv-x="741" 
d="M228 158q0 -42 2.5 -69.5t13 -44.5t31.5 -25t58 -11v-12q-38 2 -76 3t-76 1q-37 0 -73 -1t-72 -3v12q36 3 56 11t30.5 25t13 44.5t2.5 69.5v334q0 42 -2.5 69.5t-13 44.5t-31.5 25t-57 11v12q42 -2 81.5 -3t81.5 -1q33 0 66 1t65 3v-12q-35 -3 -55 -11t-30 -25
t-12.5 -44.5t-2.5 -69.5v-169l152 124q21 17 40 35.5t33.5 37.5t23 36t8.5 31q0 15 -6.5 25.5t-17 17t-23.5 9.5t-26 3v12q38 -2 74.5 -3t74.5 -1q40 0 79.5 1t79.5 3v-12q-26 -3 -48.5 -10t-46 -20.5t-50 -34t-61.5 -50.5l-124 -106l202 -297q31 -44 70.5 -78t92.5 -38v-12
q-43 2 -86 3t-86 1q-39 0 -77.5 -1t-77.5 -3v12q36 2 62.5 15t26.5 46q0 14 -11 30t-31 45l-151 222l-96 -75v-133z" />
    <glyph glyph-name="L" unicode="L" horiz-adv-x="648" 
d="M361 642q-48 -7 -75 -16t-39.5 -22.5t-15.5 -34t-3 -50.5v-480q27 -5 52.5 -9t51.5 -4q59 0 103 12t79 36t64.5 60.5t59.5 85.5h15l-77 -224q-36 2 -72.5 3t-72.5 1h-294q-25 0 -50 -1t-50 -3v12q33 3 52.5 10t30.5 17.5t14.5 25.5t3.5 35v396q0 42 -2.5 69.5t-12.5 44.5
t-30 25t-56 11v12q39 -2 77.5 -3t77.5 -1q42 0 84.5 1t84.5 3v-12z" />
    <glyph glyph-name="M" unicode="M" horiz-adv-x="963" 
d="M609 654q36 -2 72 -3t72 -1q32 0 63.5 1t63.5 3v-12q-42 -6 -69 -24t-27 -65q0 -25 7.5 -81.5t19 -123.5t24 -134t23.5 -114q5 -20 11 -35t17 -26.5t31 -19t53 -11.5v-12q-40 2 -79.5 3t-79.5 1q-38 0 -74.5 -1t-74.5 -3v12q21 3 40 7.5t33.5 13.5t22.5 24.5t8 41.5
q0 12 -1 32t-6 46l-69 403h-2q-28 -72 -59 -142.5t-61 -141.5t-58.5 -143.5t-51.5 -148.5h-2q-48 155 -108.5 298.5t-129.5 287.5h-2q-8 -55 -16 -122t-14.5 -130.5t-10.5 -116t-4 -78.5q0 -33 4.5 -57t17.5 -40t35.5 -24t58.5 -10v-12q-42 2 -82 3t-82 1q-31 0 -61.5 -1
t-61.5 -3v12q21 2 41.5 8t37.5 16.5t28.5 25t14.5 34.5q6 35 11 73.5t10 76.5l48 356q-21 17 -50 28t-58 16v12q43 -2 85.5 -3t85.5 -1q31 0 61.5 1t61.5 3v-12q-19 -5 -35 -16.5t-16 -36.5q0 -17 5.5 -33t12.5 -33l141 -346q51 106 97 212.5t84 218.5q-11 13 -26 21t-31 13
v12z" />
    <glyph glyph-name="N" unicode="N" horiz-adv-x="815" 
d="M16 654q35 -2 66.5 -3t73.5 -1q22 0 43 1t43 3q13 -18 43 -54.5t68.5 -83.5t82.5 -100t85 -103.5t75.5 -94t54.5 -71.5h2q0 30 0.5 59.5t0.5 59.5v116q0 64 -4.5 111.5t-18 79.5t-38 49t-64.5 20v12q35 -2 70.5 -3t70.5 -1q32 0 65 1t65 3v-12q-63 -8 -86.5 -36.5
t-23.5 -87.5v-530h-37q-55 86 -116.5 167t-122 154t-117 135.5t-101.5 111.5q-1 -26 -1.5 -51t-0.5 -51v-175q0 -89 3.5 -140.5t17 -79t40 -37t73.5 -14.5v-12q-51 2 -99 3t-99 1q-29 0 -57 -1t-57 -3v12q34 5 59.5 9.5t42 15t25 30t9.5 54.5l12 459q-32 26 -70 41t-78 25
v12z" />
    <glyph glyph-name="O" unicode="O" horiz-adv-x="833" 
d="M47 325q0 81 29.5 145t79.5 108.5t117.5 68t143.5 23.5t143.5 -23.5t117.5 -68t79.5 -108.5t29.5 -145t-29.5 -145t-79.5 -108.5t-117.5 -68t-143.5 -23.5t-143.5 23.5t-117.5 68t-79.5 108.5t-29.5 145zM153 325q0 -61 18 -117t52 -98.5t83 -68t111 -25.5t111 25.5
t83 68t52 98.5t18 117t-18 117t-52 98.5t-83 68t-111 25.5t-111 -25.5t-83 -68t-52 -98.5t-18 -117z" />
    <glyph glyph-name="P" unicode="P" horiz-adv-x="630" 
d="M337 -4q-38 2 -75.5 3t-75.5 1q-37 0 -73.5 -1t-75.5 -3v12q37 3 58.5 11t32 25t13 44.5t2.5 69.5v334q0 42 -2.5 69.5t-13 44.5t-31.5 25t-57 11v12q33 -2 66 -3t66 -1q48 0 94.5 5t94.5 5q37 0 77.5 -13.5t74.5 -39t55.5 -62t21.5 -82.5q0 -48 -22 -81t-55.5 -53.5
t-74.5 -29.5t-80 -9q-30 0 -62 3.5t-62 14.5v-150q0 -42 2.5 -69.5t13 -44.5t31.5 -25t57 -11v-12zM233 344q24 -13 49.5 -17.5t51.5 -4.5q31 0 59.5 9.5t49.5 27t33.5 43.5t12.5 59q0 39 -12.5 71t-34.5 54t-52.5 34t-66.5 12q-18 0 -42.5 -2.5t-47.5 -12.5v-273z" />
    <glyph glyph-name="Q" unicode="Q" horiz-adv-x="833" 
d="M856 -56q-28 -36 -51.5 -65t-50.5 -48.5t-61.5 -30t-83.5 -10.5q-37 0 -70.5 10.5t-65.5 26.5t-63.5 35t-63.5 35t-66.5 26.5t-71.5 10.5q-24 0 -47 -8t-44 -19l-14 16q35 22 67.5 31.5t74.5 9.5q55 0 110.5 -16.5t108.5 -36t102.5 -35.5t92.5 -16q32 0 57 6.5t46 19.5
t39.5 31.5t37.5 42.5zM47 325q0 81 29.5 145t79.5 108.5t117.5 68t143.5 23.5t143.5 -23.5t117.5 -68t79.5 -108.5t29.5 -145t-29.5 -145t-79.5 -108.5t-117.5 -68t-143.5 -23.5t-143.5 23.5t-117.5 68t-79.5 108.5t-29.5 145zM153 325q0 -61 18 -117t52 -98.5t83 -68
t111 -25.5t111 25.5t83 68t52 98.5t18 117t-18 117t-52 98.5t-83 68t-111 25.5t-111 -25.5t-83 -68t-52 -98.5t-18 -117z" />
    <glyph glyph-name="R" unicode="R" horiz-adv-x="722" 
d="M738 0h-180q-63 69 -116.5 141.5t-95.5 153.5q-10 0 -25.5 2t-32 4.5t-32 6t-25.5 6.5v-156q0 -42 2.5 -69.5t13 -44.5t31.5 -25t58 -11v-12q-38 2 -76 3t-76 1q-37 0 -73 -1t-72 -3v12q36 3 56 11t30.5 25t13 44.5t2.5 69.5v334q0 42 -2.5 69.5t-13 44.5t-30.5 25
t-56 11v12q32 -2 64 -3t64 -1q14 0 35 1.5t44.5 3.5t47.5 3.5t43 1.5q43 0 88 -11t81 -35t59 -61t23 -88q0 -35 -12.5 -62t-33.5 -47t-49.5 -33t-59.5 -19q14 -24 33 -54t42.5 -61t50 -61.5t56 -55t60.5 -41t63 -19.5v-12zM231 348q45 -17 93 -17q78 0 121 36t43 117
q0 33 -12.5 59.5t-34.5 46t-50.5 30t-59.5 10.5q-25 0 -49 -2t-47 -9q-2 -48 -3 -97t-1 -106v-68z" />
    <glyph glyph-name="S" unicode="S" horiz-adv-x="593" 
d="M491 464q-13 32 -33.5 63.5t-47.5 56t-60 39.5t-72 15q-57 0 -93.5 -21t-36.5 -75q0 -32 16.5 -55.5t44 -41.5t62.5 -33t71.5 -30.5t71.5 -33.5t62.5 -43t44 -58t16.5 -79q0 -49 -18 -84.5t-48.5 -58.5t-71 -34t-86.5 -11q-25 0 -52 4.5t-52 10t-45.5 10t-32.5 4.5
q-11 0 -21 -3.5t-21 -7.5q-9 57 -21 111.5t-25 111.5l13 7q18 -35 43.5 -73t57.5 -69.5t70.5 -52.5t83.5 -21q29 0 56 6.5t47.5 20.5t32.5 36.5t12 55.5q0 47 -29 78.5t-72 55t-93.5 43.5t-93.5 45t-72 59t-29 86q0 39 15 71t40.5 54.5t59 34.5t71.5 12q37 0 66.5 -5
t57.5 -11q29 -6 57 -11.5t60 -5.5q0 -45 1.5 -87.5t6.5 -85.5h-14z" />
    <glyph glyph-name="T" unicode="T" horiz-adv-x="648" 
d="M176 8q36 3 56 11t30.5 25t13 44.5t2.5 69.5v464q-53 0 -88.5 -4t-61.5 -20.5t-45.5 -50.5t-38.5 -93l-13 4l14 196q42 -2 83 -3t83 -1h235q40 0 79 1t79 3l14 -196l-13 -4q-19 59 -38.5 93t-45.5 50.5t-62.5 20.5t-90.5 4v-464q0 -42 2.5 -69.5t13 -44.5t31.5 -25
t58 -11v-12q-38 2 -76 3t-76 1q-37 0 -73 -1t-72 -3v12z" />
    <glyph glyph-name="U" unicode="U" horiz-adv-x="796" 
d="M128 553q0 28 -5.5 43.5t-16.5 24.5t-27 13t-37 8v12q42 -2 82.5 -3t82.5 -1q30 0 59.5 1t59.5 3v-12q-32 -3 -53 -10t-33 -20t-17 -33.5t-5 -50.5v-326q0 -47 15.5 -79.5t42.5 -53t62.5 -30t75.5 -9.5q64 0 105 19t65 46.5t33 59t9 55.5v280q0 40 -3.5 67.5t-14 45
t-29.5 26.5t-49 13v12q31 -2 61.5 -3t61.5 -1q26 0 51 1t51 3v-12q-21 -3 -38.5 -8t-29.5 -18t-18.5 -37.5t-6.5 -66.5v-299q0 -60 -21.5 -103.5t-58.5 -72.5t-86.5 -43t-105.5 -14q-51 0 -98 13.5t-83.5 41t-58.5 68.5t-22 95v355z" />
    <glyph glyph-name="V" unicode="V" horiz-adv-x="704" 
d="M-13 654q35 -2 69 -3t69 -1q42 0 82 1t80 3v-12q-14 -2 -30 -5t-30 -9.5t-23 -17.5t-9 -30q0 -18 29 -90l157 -380l130 307q50 121 50 165q0 16 -7 27t-19 17.5t-26.5 10t-29.5 5.5v12q34 -2 67.5 -3t66.5 -1q28 0 55 1t54 3v-12q-35 -4 -59 -23t-41 -46t-29.5 -58
t-24.5 -58l-208 -467h-22l-233 548q-18 43 -44.5 71.5t-73.5 32.5v12z" />
    <glyph glyph-name="W" unicode="W" horiz-adv-x="1000" 
d="M-11 654q36 -2 72 -3t71 -1q40 0 79 1t78 3v-12q-17 -2 -34 -5t-30.5 -10.5t-22 -20.5t-8.5 -34q0 -14 8 -34.5t19 -48.5l139 -367l124 307l-52 130q-32 79 -113 83v12q33 -2 66 -3t66 -1q42 0 83.5 1t83.5 3v-12q-13 -1 -29.5 -4.5t-31 -10t-24.5 -17.5t-10 -28
q0 -9 4.5 -24t14.5 -41l149 -395l152 383q8 20 14 44t6 36q0 15 -9.5 25.5t-23.5 17t-29.5 10t-27.5 4.5v12q33 -2 65.5 -3t64.5 -1q29 0 58 1t58 3v-12q-30 -3 -50.5 -15t-35 -29.5t-24 -37.5t-17.5 -38l-228 -532h-17l-146 397l-167 -397h-18l-203 539q-15 39 -30 60.5
t-30 32t-31 14t-33 6.5v12z" />
    <glyph glyph-name="X" unicode="X" horiz-adv-x="741" 
d="M2 8q28 2 49.5 10t38.5 21t32 30t31 37l178 220l-149 202q-38 54 -76 80t-87 34v12q36 -2 72.5 -3t72.5 -1q38 0 76.5 1t76.5 3v-12q-22 -2 -43.5 -14t-21.5 -37q0 -11 9.5 -27.5t28.5 -42.5l100 -137l92 125q19 26 30.5 48.5t11.5 43.5q0 11 -7 19t-16.5 13t-20.5 7
t-19 2v12q28 -2 55.5 -3t55.5 -1q32 0 64.5 1t64.5 3v-12q-37 -6 -64 -20t-49 -34.5t-41 -45t-40 -51.5l-101 -128l164 -220q13 -18 31.5 -40.5t41.5 -43t50.5 -35t58.5 -16.5v-12q-45 2 -88.5 3t-88.5 1q-40 0 -79 -1t-79 -3v12l32 6t29.5 9t22 17.5t8.5 32.5
q0 8 -14.5 31.5t-36.5 53.5l-110 148l-106 -142q-23 -30 -37.5 -56.5t-14.5 -38.5q0 -20 10.5 -31.5t26 -17.5t33 -8t32.5 -4v-12q-45 2 -90 3t-90 1q-28 0 -55 -1t-55 -3v12z" />
    <glyph glyph-name="Y" unicode="Y" horiz-adv-x="722" 
d="M-20 654q42 -2 82 -3t82 -1q39 0 78.5 1t78.5 3v-12q-12 -2 -26.5 -6t-27 -11t-20.5 -18t-8 -27q0 -11 10.5 -29t30.5 -45l142 -192l118 185q26 42 26 77q0 29 -24 46.5t-54 19.5v12q35 -2 70.5 -3t70.5 -1q32 0 63.5 1t63.5 3v-12q-36 -7 -64 -25.5t-50.5 -42t-40 -49.5
t-32.5 -47l-137 -200v-147q0 -37 6 -59.5t19.5 -35.5t36.5 -19t58 -9v-12q-45 2 -89 3t-89 1q-37 0 -74 -1t-74 -3v12q33 3 55.5 9t36 19t19 35.5t5.5 59.5v157l-181 232q-14 18 -29 36.5t-33.5 35t-42.5 30t-56 20.5v12z" />
    <glyph glyph-name="Z" unicode="Z" horiz-adv-x="704" 
d="M659 642q-63 -73 -129 -153.5t-129 -161t-121 -156t-106 -139.5q15 -4 41 -5t71 -1q58 0 113 8t102 29.5t83 59.5t57 97h20l-76 -224q-88 2 -175.5 3t-175.5 1q-46 0 -91.5 -1t-91.5 -3l-8 12l487 616h-134q-44 0 -88 -7.5t-81 -26.5t-63 -51.5t-35 -82.5h-14
q-1 18 0.5 36t1.5 35q0 32 3 63.5t8 63.5q31 -1 65.5 -2t68 -1.5t64.5 -0.5h57q69 0 134.5 1t134.5 3z" />
    <glyph glyph-name="bracketleft" unicode="[" horiz-adv-x="389" 
d="M104 670h262v-34h-178v-786h178v-34h-262v854z" />
    <glyph glyph-name="backslash" unicode="\" horiz-adv-x="278" 
d="M-10 670l348 -690h-50l-348 690h50z" />
    <glyph glyph-name="bracketright" unicode="]" horiz-adv-x="389" 
d="M269 -184h-262v34h178v786h-178v34h262v-854z" />
    <glyph glyph-name="asciicircum" unicode="^" 
d="M43 285l184 365h46l184 -365h-55l-152 301l-152 -301h-55z" />
    <glyph glyph-name="underscore" unicode="_" 
d="M0 -125v50h500v-50h-500z" />
    <glyph glyph-name="grave" unicode="`" horiz-adv-x="259" 
d="M161 433l-140 96q-12 8 -20.5 20.5t-8.5 23.5q0 32 41 32q14 0 26.5 -11.5t29.5 -30.5l116 -130h-44z" />
    <glyph glyph-name="a" unicode="a" horiz-adv-x="463" 
d="M54 292q8 31 22.5 49.5t33.5 28t43 12t51 2.5q26 0 51.5 -5.5t46 -18.5t33 -34.5t12.5 -52.5v-185q0 -19 10 -33.5t31 -14.5q20 0 35.5 11.5t29.5 22.5l10 -11l-23.5 -23.5t-28.5 -26t-30.5 -21t-30.5 -8.5q-10 0 -21 6.5t-21.5 15.5t-19.5 19t-16 17q-32 -22 -72 -40
t-78 -18q-21 0 -40.5 7t-34.5 20t-24 31t-9 41q0 41 23 65.5t59.5 37.5t83 17.5t93.5 5.5v76q0 37 -23 57t-58 20q-26 0 -41 -26t-15 -59zM271 170q-33 9 -67 9q-19 0 -38 -4.5t-34 -14.5t-24.5 -25.5t-9.5 -37.5q0 -34 23.5 -48.5t52.5 -14.5q32 0 58.5 13t38.5 22v101z
" />
    <glyph glyph-name="b" unicode="b" horiz-adv-x="537" 
d="M-1 693l156 19q-2 -94 -2.5 -186t-2.5 -186q27 20 59.5 32t71.5 12q44 0 81.5 -14t65 -38.5t43 -59t15.5 -75.5q0 -53 -17 -92.5t-46 -66.5t-69 -40.5t-85 -13.5q-33 0 -65 7.5t-59 18t-45.5 21t-24.5 16.5v573q0 35 -19 48t-57 13v12zM398 184q0 37 -9 68t-25.5 53.5
t-40 35.5t-52.5 13q-32 0 -56 -8t-39.5 -27.5t-23.5 -52.5t-8 -82t8 -81.5t23.5 -52t39.5 -28t56 -8.5q29 0 52.5 13t40 35.5t25.5 53.5t9 68z" />
    <glyph glyph-name="c" unicode="c" horiz-adv-x="444" 
d="M368 216q-10 25 -22.5 50.5t-30 45.5t-41 33t-54.5 13t-53 -15t-35.5 -38.5t-20 -53t-6.5 -58.5q0 -33 11 -63t31 -53.5t48.5 -37t63.5 -13.5q37 0 70 13.5t63 34.5l14 -16q-45 -37 -88.5 -55.5t-97.5 -18.5q-39 0 -74.5 16t-62 43t-42.5 63.5t-16 77.5t16 77.5
t42.5 63.5t62 43t74.5 16q42 0 77 -4.5t70 -11.5l13 -152h-12z" />
    <glyph glyph-name="d" unicode="d" horiz-adv-x="537" 
d="M432 101q0 -26 3 -43t12 -27.5t25.5 -14.5t43.5 -4v-12q-40 0 -79.5 -1t-81.5 -3v37q-23 -20 -64.5 -34.5t-89.5 -14.5q-41 0 -74.5 15.5t-57 42t-36.5 61.5t-13 73q0 45 16 83t44.5 66t67 43.5t83.5 15.5q33 0 64 -12t59 -29v259q0 24 -3.5 39t-13.5 24t-26.5 13
t-41.5 6v12l163 16v-611zM354 276q-3 13 -14.5 27.5t-28.5 26t-38.5 19t-43.5 7.5q-34 0 -57.5 -15t-38.5 -39.5t-22 -55t-7 -60.5t7 -60.5t22 -55t38.5 -39.5t57.5 -15q23 0 44 7t38 17.5t28.5 22.5t14.5 21v192z" />
    <glyph glyph-name="e" unicode="e" horiz-adv-x="444" 
d="M104 210q0 -52 13.5 -86t34 -54t44 -28t43.5 -8q42 0 76 13.5t63 42.5l17 -16q-41 -44 -84 -67t-103 -23q-43 0 -77 17t-58 45t-36.5 64t-12.5 74t12.5 74t36.5 64t58 45t77 17q79 0 127 -43t59 -131h-290zM299 240q-3 27 -8 48.5t-16 36t-29 22t-46 7.5
q-21 0 -38.5 -10.5t-30 -27t-19 -37t-6.5 -39.5h193z" />
    <glyph glyph-name="f" unicode="f" horiz-adv-x="315" 
d="M7 8q26 1 40.5 8t22 20t9 31t1.5 41v225h-49l6 30h43v107q0 34 9.5 76t30.5 79t55 62t83 25q48 0 81.5 -25t33.5 -67q0 -24 -8 -33t-31 -9q-15 0 -21 9t-6 41q0 7 -3 18t-10.5 21.5t-20 17.5t-30.5 7q-26 0 -42 -15t-26 -36.5t-13.5 -45.5t-3.5 -41v-191h127v-30h-127
v-225q0 -23 2.5 -41t13.5 -31t33.5 -20t63.5 -8v-12q-35 2 -69 3t-69 1q-32 0 -63 -1t-63 -3v12z" />
    <glyph glyph-name="g" unicode="g" 
d="M416 287q4 15 4 33q0 11 -10 16.5t-24 5.5q-8 0 -19 -5t-17 -8q8 -21 12.5 -40t4.5 -42q0 -27 -10 -50t-29 -40.5t-48 -27.5t-66 -10q-50 0 -92 24q-17 -10 -32.5 -23.5t-15.5 -36.5t16.5 -31t61.5 -8q10 0 24.5 1t30.5 2l32 2t30 1q34 0 63 -5.5t49 -19.5t31.5 -39
t11.5 -64q0 -47 -21.5 -79.5t-55 -53t-74.5 -30t-81 -9.5q-31 0 -64 7t-60 22.5t-44.5 41.5t-17.5 64q0 29 12.5 54t33.5 45q-30 23 -30 65q0 40 21.5 67.5t56.5 42.5q-20 14 -29.5 38t-9.5 53t10.5 53.5t29.5 42.5t45.5 28t58.5 10q35 0 67 -7.5t60 -29.5q23 11 46.5 22
t49.5 11q18 0 31 -12t13 -22v-24q0 -10 -2 -16zM219 -188q21 0 50.5 3.5t56 13.5t45.5 28t19 47q0 43 -34 59.5t-100 16.5q-73 0 -114 -1.5t-69 -1.5q-8 -13 -11.5 -30.5t-3.5 -34.5q0 -29 16.5 -48t41 -30.5t52.5 -16.5t51 -5zM135 252q0 -21 5 -40t14.5 -34t24.5 -24
t35 -9t35 9t24.5 24t14.5 34t5 40t-5 40t-14.5 33.5t-24.5 23.5t-35 9t-35 -9t-24.5 -23.5t-14.5 -33.5t-5 -40z" />
    <glyph glyph-name="h" unicode="h" horiz-adv-x="537" 
d="M502 -4q-29 2 -62 3t-67 1q-23 0 -44.5 -1t-41.5 -3v12q32 6 49.5 16.5t17.5 43.5v161q0 51 -21.5 79t-69.5 28q-17 0 -35 -5t-33 -13.5t-25 -18.5t-10 -19v-212q0 -33 19 -43.5t57 -16.5v-12q-34 2 -67.5 3t-67.5 1q-23 0 -44.5 -1t-44.5 -3v12q34 6 52 16.5t18 43.5
v510q0 36 -3.5 56.5t-12 31t-23 13.5t-36.5 4v12l153 17v-387q27 21 62 40t67 19q28 0 53.5 -7t45.5 -23t32 -43t12 -67v-176q0 -33 18 -43.5t52 -16.5v-12z" />
    <glyph glyph-name="i" unicode="i" horiz-adv-x="259" 
d="M81 249q0 24 -1.5 42.5t-9 31t-22.5 20.5t-41 11v14l152 10v-294q0 -25 4 -39.5t13.5 -22t24.5 -10.5t37 -4v-12q-35 2 -70.5 3t-70.5 1q-23 0 -45 -1t-45 -3v12q20 1 34 4t23 10.5t13 22t4 39.5v165zM110 672q22 0 37.5 -16.5t15.5 -38.5t-15.5 -38.5t-37.5 -16.5
t-37.5 16.5t-15.5 38.5t15.5 38.5t37.5 16.5z" />
    <glyph glyph-name="j" unicode="j" horiz-adv-x="259" 
d="M14 368l152 10v-344q0 -48 -17 -88t-45 -74.5t-64 -64.5t-73 -57l-12 14q40 35 66 66.5t41 65t20.5 73.5t5.5 93v196q0 48 -16 72t-58 24v14zM117 674q22 0 37.5 -16.5t15.5 -38.5t-15.5 -38.5t-37.5 -16.5t-37.5 16.5t-15.5 38.5t15.5 38.5t37.5 16.5z" />
    <glyph glyph-name="k" unicode="k" horiz-adv-x="537" 
d="M5 8q27 3 41.5 10t21 20t8 33.5t1.5 50.5v464q0 29 -4.5 47.5t-13.5 29t-23.5 14.5t-33.5 5v12l153 18v-537q11 10 35.5 28.5t49.5 40t44 43t19 38.5q0 16 -7.5 22.5t-22.5 8.5v12h195v-12q-30 -5 -56 -17.5t-50 -29t-46.5 -35.5t-44.5 -37q23 -27 49 -64t56 -72
t64.5 -61.5t73.5 -31.5v-12q-30 2 -60.5 3t-61.5 1q-32 0 -63 -1t-63 -3v12q17 -1 35 7t18 29q0 13 -12.5 33.5t-29 42t-33.5 42t-25 32.5l-64 -48v-74q0 -32 14 -45.5t56 -18.5v-12q-33 2 -65.5 3t-65.5 1q-23 0 -44.5 -1t-44.5 -3v12z" />
    <glyph glyph-name="l" unicode="l" horiz-adv-x="259" 
d="M-1 8q25 2 40 7.5t23 16.5t10 30t2 48v502q0 39 -12 54.5t-57 15.5v12l147 18v-602q0 -29 2 -48t10.5 -30t24 -16.5t42.5 -7.5v-12q-29 2 -59.5 3t-60.5 1q-29 0 -56.5 -1t-55.5 -3v12z" />
    <glyph glyph-name="m" unicode="m" horiz-adv-x="778" 
d="M158 68q0 -33 18 -43.5t51 -16.5v-12q-29 2 -61.5 3t-66.5 1q-23 0 -45 -1t-47 -3v12q36 6 54.5 16.5t18.5 43.5v204q0 24 -3.5 38t-11.5 21.5t-21 10.5t-32 4v12l146 20v-50q32 23 63.5 39.5t73.5 16.5q35 0 61.5 -14t48.5 -41q13 9 29 18.5t33 18t35 13.5t35 5
q63 0 99 -34.5t36 -103.5v-178q0 -33 18.5 -43.5t54.5 -16.5v-12q-32 2 -65 3t-67 1q-23 0 -44 -1t-39 -3v12q29 6 46.5 16.5t17.5 43.5v168q0 49 -24.5 73.5t-56.5 24.5q-61 0 -98 -32v-234q0 -33 18 -43.5t51 -16.5v-12q-29 2 -61.5 3t-66.5 1q-23 0 -44 -1t-39 -3v12
q29 6 46.5 16.5t17.5 43.5v168q0 49 -15 76.5t-66 27.5q-15 0 -26.5 -2.5t-22.5 -8.5t-22.5 -15.5t-26.5 -23.5v-222z" />
    <glyph glyph-name="n" unicode="n" horiz-adv-x="537" 
d="M14 356l146 22v-53q27 21 62 40t67 19q28 0 53.5 -7t45.5 -23t32 -43t12 -67v-176q0 -33 18 -43.5t52 -16.5v-12q-29 2 -62 3t-67 1q-23 0 -44.5 -1t-41.5 -3v12q32 6 49.5 16.5t17.5 43.5v161q0 51 -21.5 79t-69.5 28q-17 0 -35 -5t-33 -13.5t-25 -18.5t-10 -19v-212
q0 -33 19 -43.5t57 -16.5v-12q-34 2 -67.5 3t-67.5 1q-23 0 -44.5 -1t-44.5 -3v12q34 6 52 16.5t18 43.5v232q0 30 -20.5 37t-47.5 7v12z" />
    <glyph glyph-name="o" unicode="o" 
d="M239 384q48 0 87.5 -14.5t68 -40.5t44 -63t15.5 -82t-15.5 -82t-44 -63t-68 -40.5t-87.5 -14.5t-87.5 14.5t-68 40.5t-44 63t-15.5 82t15.5 82t44 63t68 40.5t87.5 14.5zM221 354q-28 0 -48.5 -14t-34 -36.5t-20 -51t-6.5 -56.5q0 -32 8.5 -64t26.5 -58.5t45 -43
t65 -16.5q28 0 48.5 14t34 36.5t20 50.5t6.5 57q0 31 -9 63.5t-27 59t-45 43t-64 16.5z" />
    <glyph glyph-name="p" unicode="p" horiz-adv-x="537" 
d="M152 89q11 -30 45.5 -52.5t78.5 -22.5q62 0 92 47t30 119q0 30 -7.5 60t-22.5 54t-38 39t-54 15q-45 0 -79 -17t-45 -44v-198zM152 -151q0 -24 3 -39t15.5 -24t37 -13t67.5 -5v-12q-37 2 -74 3t-74 1q-34 0 -67.5 -1t-67.5 -3v12q21 2 36 5.5t25.5 11t15.5 21t5 36.5v436
q0 42 -17 56t-58 18v11l153 15v-42q36 26 67.5 37t75.5 11t79.5 -15t60 -42t38 -64t13.5 -81q0 -46 -17.5 -82.5t-47 -62t-69 -39.5t-82.5 -14q-31 0 -61 7.5t-57 24.5v-167z" />
    <glyph glyph-name="q" unicode="q" horiz-adv-x="537" 
d="M360 255q-3 18 -14.5 36.5t-29.5 33t-42 24t-52 9.5q-32 0 -53.5 -14t-35 -35.5t-19.5 -48t-6 -51.5q0 -87 40 -138t112 -51q73 0 100 41v194zM375 374h87q-18 -24 -21 -44.5t-3 -49.5v-439q0 -21 5 -34.5t15.5 -21.5t27 -11.5t39.5 -5.5v-12q-32 2 -64 3t-64 1
q-40 0 -79.5 -1t-79.5 -3v12q39 1 62.5 4t37 9.5t18 18.5t4.5 32v191q-26 -17 -60 -28t-66 -11q-50 0 -90 16t-67.5 43.5t-42 63.5t-14.5 76q0 48 17.5 85.5t47.5 63t68.5 39t80.5 13.5q67 0 129 -32z" />
    <glyph glyph-name="r" unicode="r" horiz-adv-x="389" 
d="M9 8q34 6 52 16.5t18 43.5v232q0 30 -20.5 37t-47.5 7v12l146 22v-57q12 8 27.5 21t33 25.5t35.5 21.5t35 9q39 0 58.5 -21.5t21.5 -59.5l-80 -42q2 7 4 14.5t2 19.5q0 14 -10 26.5t-27 12.5q-14 0 -28 -7t-27 -17.5t-24.5 -22.5t-20.5 -21v-212q0 -33 19 -43.5t57 -16.5
v-12q-34 2 -67.5 3t-67.5 1q-23 0 -44.5 -1t-44.5 -3v12z" />
    <glyph glyph-name="s" unicode="s" horiz-adv-x="389" 
d="M29 127h14q14 -21 31.5 -41t38.5 -36t45 -26t51 -10q13 0 26.5 2.5t24.5 8.5t18 16t7 25q0 25 -18.5 41t-45.5 28t-59.5 22.5t-59.5 25t-45.5 35.5t-18.5 54q0 54 33.5 83t84.5 29q38 0 73.5 -10t73.5 -12l6 -106h-13q-10 19 -25 36.5t-33.5 31t-39.5 22t-43 8.5
q-25 0 -45 -11t-20 -40q0 -21 18.5 -34.5t45.5 -25t59.5 -22.5t59.5 -26.5t45.5 -38t18.5 -55.5q0 -35 -11.5 -57.5t-31.5 -35.5t-46.5 -18.5t-56.5 -5.5q-24 0 -46 3.5t-41.5 8.5t-36.5 9t-30 6z" />
    <glyph glyph-name="t" unicode="t" horiz-adv-x="315" 
d="M-5 337v16q32 1 55 16t40 38t28.5 51t20.5 54h14v-145h137v-30h-137v-233q0 -13 1.5 -25.5t6 -22.5t13 -16t23.5 -6q30 0 50 13t40 33l9 -10q-17 -15 -33 -30.5t-33.5 -28t-38 -20t-44.5 -7.5q-42 0 -57 25.5t-15 60.5v267h-80z" />
    <glyph glyph-name="u" unicode="u" horiz-adv-x="537" 
d="M156 122q0 -42 21.5 -65t63.5 -23q32 0 63.5 15.5t46.5 32.5v211q0 13 -2 24t-10 19.5t-24 15t-43 10.5v11l157 11v-307q0 -38 19.5 -50.5t54.5 -14.5v-10q-38 -2 -76.5 -3t-75.5 -3v52q-35 -26 -73.5 -45t-83.5 -19q-48 0 -82 27t-34 83v207q0 30 -16.5 41t-58.5 16v13
l153 13v-262z" />
    <glyph glyph-name="v" unicode="v" 
d="M-18 372q32 -1 44.5 -2t19.5 -1h16h13t19 -1q16 1 27 1h18h22q9 0 19 1t33 2v-12q-21 -3 -41 -14t-20 -35q0 -17 13.5 -51.5t31 -71.5t34.5 -69.5t24 -46.5q10 19 29 52.5t37.5 69.5t32 68t13.5 48q0 29 -16.5 38t-40.5 12v12q19 -2 47 -3t49 -1q22 0 43.5 1t43.5 3v-12
q-13 -1 -26 -6.5t-26.5 -18t-28 -33.5t-30.5 -53q-35 -66 -70 -129t-64 -132h-36q-32 72 -69.5 147.5t-67.5 144.5q-13 29 -36 52t-57 28v12z" />
    <glyph glyph-name="w" unicode="w" horiz-adv-x="741" 
d="M-27 372q19 -1 33.5 -2t27.5 -1.5t26.5 -0.5h30.5q27 0 54 1t54 3v-13q-21 -1 -38.5 -14.5t-17.5 -36.5q0 -18 12 -48.5t28 -64t32 -65t23 -50.5l101 198q-5 13 -12.5 27t-18 25.5t-24.5 19.5t-32 10v12q10 -1 19.5 -2t20.5 -1.5t25.5 -0.5h34.5q32 0 63 1t62 3v-12
q-26 -1 -44.5 -14.5t-18.5 -39.5q0 -14 12.5 -45.5t29 -67t32 -68.5t21.5 -49q8 15 24.5 47t32.5 67t28 66t12 45q0 30 -13 42.5t-42 16.5v12q23 -2 45 -3t45 -1q22 0 44 1t44 3v-12q-24 -3 -42 -18.5t-32.5 -37t-26 -47t-22.5 -47.5l-108 -222h-22l-121 263l-129 -263h-25
q-14 34 -30.5 71t-33.5 73.5t-33.5 71t-30.5 63.5q-17 35 -43 61t-57 32v12z" />
    <glyph glyph-name="x" unicode="x" horiz-adv-x="519" 
d="M-13 8q35 10 64.5 30.5t56 45.5t51.5 51.5t52 49.5q-23 25 -45 53.5t-46.5 54t-54 44t-66.5 23.5v12q32 -3 64 -3.5t64 -0.5q28 0 55.5 0.5t55.5 3.5v-13q-11 -2 -26 -10t-15 -22q0 -8 7.5 -22.5t18 -30t21.5 -29t18 -19.5q10 10 22 21t22.5 23t18 25.5t7.5 28.5
t-13.5 23t-26.5 12v13q26 -3 52.5 -3.5t52.5 -0.5q23 0 47 0.5t47 3.5v-12q-33 -6 -61.5 -23t-54 -39.5t-49.5 -47t-48 -45.5q19 -23 41.5 -54.5t49.5 -61t60 -52.5t73 -29v-12q-32 2 -63.5 3t-63.5 1q-33 0 -66 -1t-66 -3v12q8 0 18 2t19 6.5t15 11t6 15.5q0 14 -8.5 30.5
t-20.5 33t-24.5 32t-20.5 27.5q-10 -9 -26.5 -24.5t-32.5 -33t-27.5 -35.5t-11.5 -33q0 -9 5.5 -15.5t13 -10t16.5 -5t17 -1.5v-12q-24 2 -47.5 3t-47.5 1q-25 0 -49.5 -1t-49.5 -3v12z" />
    <glyph glyph-name="y" unicode="y" 
d="M-25 372q30 -3 55.5 -3.5t56.5 -0.5q30 0 61 0.5t61 3.5v-12q-22 -2 -42 -13t-20 -36q0 -20 13 -53.5t30.5 -72t36 -78.5t29.5 -74q5 10 15.5 33t24 52.5t27 61.5t25 60t19 49t7.5 28q0 12 -5.5 19t-13.5 11.5t-19 7t-21 5.5v12q23 -3 46 -3.5t47 -0.5q23 0 45 0.5
t45 3.5v-12q-28 -4 -54.5 -34.5t-49 -69.5t-39.5 -76.5t-26 -55.5q-42 -87 -76 -149t-61.5 -103.5t-50 -65.5t-43 -36.5t-40 -16t-40.5 -3.5q-18 0 -35.5 5t-31 15.5t-22 26.5t-8.5 38q0 20 14.5 36t34.5 16q23 0 37 -11.5t14 -35.5q0 -17 -8 -28.5t-8 -16.5q0 -6 14.5 -7.5
t28.5 -1.5q30 0 59 24.5t51.5 56t36.5 60t14 36.5q0 3 -7 20.5t-19 45t-27 61.5t-30 67.5t-30 65t-26 53.5q-10 23 -17 37t-17 22.5t-24 13.5t-37 11v12z" />
    <glyph glyph-name="z" unicode="z" horiz-adv-x="444" 
d="M16 14l270 328h-71q-58 0 -98 -19.5t-66 -73.5l-14 4l14 119q42 -2 82 -3t82 -1t81.5 1t81.5 3l11 -16l-272 -330h64q34 0 64.5 3t56 13.5t44.5 31t31 56.5l15 -5l-22 -129q-45 2 -90 3t-90 1q-42 0 -82.5 -1t-82.5 -3z" />
    <glyph glyph-name="braceleft" unicode="{" horiz-adv-x="389" 
d="M301 -200q-28 0 -53 5t-43.5 20.5t-29.5 43.5t-11 75v183q0 50 -12 76.5t-49 40.5q37 14 49 40.5t12 76.5v183q0 46 11 74.5t29.5 44t43.5 20.5t53 5v-12q-53 -23 -53 -126v-173q0 -55 -13 -86.5t-59 -45.5v-2q46 -14 59 -45.5t13 -86.5v-173q0 -103 53 -126v-12z" />
    <glyph glyph-name="bar" unicode="|" horiz-adv-x="222" 
d="M86 712h50v-712h-50v712z" />
    <glyph glyph-name="braceright" unicode="}" horiz-adv-x="387" 
d="M71 688q28 0 53 -5t43.5 -20.5t29.5 -44t11 -74.5v-183q0 -50 12 -76.5t49 -40.5q-37 -14 -49 -40.5t-12 -76.5v-183q0 -47 -11 -75t-29.5 -43.5t-43.5 -20.5t-53 -5v12q53 23 53 126v173q0 55 13 86.5t59 45.5v2q-46 14 -59 45.5t-13 86.5v173q0 103 -53 126v12z" />
    <glyph glyph-name="asciitilde" unicode="~" 
d="M481 211q-11 -16 -23 -31.5t-27 -27.5t-33.5 -19.5t-41.5 -7.5q-28 0 -52.5 9.5t-49.5 23.5q-24 14 -52 24.5t-63 10.5q-17 0 -29.5 -6.5t-23 -16.5t-18 -23t-13.5 -26l-36 36q8 16 19 31.5t26.5 27.5t35 19.5t44.5 7.5q26 0 54 -9.5t57 -22.5q28 -12 55 -24t47 -12
q15 0 27.5 6.5t23 16.5t19.5 23l18 26z" />
    <glyph glyph-name="uni007F.controlDEL" horiz-adv-x="0" 
 />
    <glyph glyph-name="exclamdown" unicode="&#xa1;" horiz-adv-x="389" 
d="M200 266q2 -6 3.5 -15t3.5 -20q10 -51 16 -100.5t6 -100.5q0 -23 -3 -47t-3 -47q0 -31 2.5 -54t8 -40.5t14.5 -30.5t23 -23v-8l-115 -20q-2 18 -5.5 36t-3.5 36q0 47 6 92t13 85t13 74t6 60q0 31 1 61.5t1 61.5h13zM193 314q-23 0 -39.5 16t-16.5 40t16.5 40t39.5 16
t39.5 -16t16.5 -40t-16.5 -40t-39.5 -16z" />
    <glyph glyph-name="cent" unicode="&#xa2;" 
d="M429 69q-35 -28 -77 -47t-88 -22v-116h-28v116q-43 0 -77.5 15t-58.5 40.5t-37 59.5t-13 72q0 41 14.5 75t39.5 58.5t59 40t73 19.5v108h28v-108q12 0 27 -2t29.5 -4t27 -4t19.5 -2q8 0 15 0.5t12 1.5l11 -154h-11q-9 22 -20.5 45t-27 42.5t-35.5 33.5t-47 17v-312
q42 0 80 10.5t69 35.5zM236 354q-28 -3 -48 -17t-33.5 -34.5t-20 -46t-6.5 -50.5q0 -54 27.5 -99.5t80.5 -61.5v309z" />
    <glyph glyph-name="sterling" unicode="&#xa3;" 
d="M326 341v-28h-132q0 -30 -2.5 -64.5t-10.5 -68.5t-23.5 -63.5t-42.5 -49.5l1 -7h175q32 0 52 1.5t35.5 8.5t29.5 22t33 41l10 -7l-64 -130q-45 2 -88 3t-88 1q-52 0 -103 -1t-103 -3v20q23 5 44 15.5t36.5 35.5t25 69.5t9.5 116.5q0 14 -1.5 28.5t-2.5 31.5h-77l12 28h65
v89q0 40 13 81.5t36.5 76t56.5 56.5t74 22q24 0 50 -5t47 -17t34.5 -32t13.5 -50q0 -56 -49 -56q-32 0 -32 15q0 9 3.5 18.5t3.5 19.5q0 37 -21 58t-57 21q-48 0 -73.5 -46t-25.5 -131q0 -31 1 -61t2 -59h133z" />
    <glyph glyph-name="currency" unicode="&#xa4;" 
d="M56 172q-54 67 -54 152q0 42 12.5 82t43.5 72l-56 57l38 38l56 -55q33 28 74 41.5t83 13.5q81 0 155 -51l52 51l38 -38l-54 -54q29 -33 41.5 -73t12.5 -82t-12.5 -81t-40.5 -74l53 -56l-38 -38l-53 58q-34 -30 -73.5 -44t-81.5 -14q-45 0 -84.5 13.5t-74.5 44.5l-53 -58
l-38 38zM250 523q-40 0 -75 -15.5t-61.5 -42.5t-42 -63t-15.5 -77t15.5 -77t42 -63t61.5 -42.5t75 -15.5t75 15.5t61.5 42.5t42 63t15.5 77t-15.5 77t-42 63t-61.5 42.5t-75 15.5z" />
    <glyph glyph-name="yen" unicode="&#xa5;" 
d="M226 219h-134v28h134v41l-25 47h-109v28h94l-83 157q-9 18 -19 36.5t-22.5 35t-29 30t-37.5 20.5v12q28 -2 55 -3t55 -1q27 0 54 1t53 3v-12q-9 -2 -18.5 -6t-18 -11.5t-14 -18.5t-5.5 -26q0 -18 28 -74l96 -192l79 185q17 40 17 77q0 29 -16 46.5t-37 19.5v12
q25 -2 49 -3t48 -1q21 0 42 1t43 3v-12q-24 -7 -43 -25.5t-34 -42t-27 -49.5t-22 -47l-52 -115h95v-28h-109l-25 -57v-31h134v-28h-134v-88q0 -37 3.5 -59.5t12.5 -35.5t24.5 -19t39.5 -9v-12q-30 2 -60.5 3t-59.5 1q-26 0 -50.5 -1t-50.5 -3v12q22 3 37 9t24.5 19
t13.5 35.5t4 59.5v88z" />
    <glyph glyph-name="brokenbar" unicode="&#xa6;" horiz-adv-x="222" 
d="M86 275h50v-275h-50v275zM86 712h50v-275h-50v275z" />
    <glyph glyph-name="section" unicode="&#xa7;" 
d="M70 277q0 58 37 90t94 32v2q-16 13 -32.5 28t-30 32.5t-22 38t-8.5 43.5q0 34 12 58t33 39.5t48.5 22.5t58.5 7q22 0 44 -7.5t39.5 -21.5t28 -33.5t10.5 -43.5q0 -23 -15.5 -35.5t-37.5 -12.5q-25 0 -37 13.5t-12 30.5q0 15 5.5 24t12.5 15t12.5 10.5t5.5 9.5q0 7 -19 17
t-51 10q-14 1 -28.5 -3t-26 -14t-18.5 -25.5t-7 -36.5q0 -22 19.5 -44t49 -45.5t63.5 -49.5t63.5 -55.5t49 -63t19.5 -72.5q0 -54 -32.5 -87.5t-101.5 -33.5v-3q36 -25 64 -59.5t28 -82.5q0 -29 -11 -53t-30 -41t-44.5 -26.5t-53.5 -9.5q-27 0 -53.5 8.5t-47 23t-33 33.5
t-12.5 40q0 29 14.5 42.5t34.5 13.5q26 0 39.5 -15t13.5 -32q0 -12 -4 -20t-8.5 -14.5t-8 -12t-3.5 -11.5q0 -10 8 -16t18.5 -9.5t21.5 -5t17 -1.5q38 0 61 20.5t23 58.5q0 26 -19.5 50t-48 47.5t-62.5 48.5t-62.5 53t-48 61t-19.5 73zM307 140q29 0 49 17t20 47
q0 25 -20 54.5t-48.5 55.5t-61.5 43.5t-58 17.5q-30 0 -47 -20.5t-17 -48.5q0 -25 19.5 -54t48 -54t60 -41.5t55.5 -16.5z" />
    <glyph glyph-name="dieresis" unicode="&#xa8;" horiz-adv-x="259" 
d="M37 553q23 0 38 -15t15 -38t-15 -38t-38 -15t-38 15t-15 38t15 38t38 15zM222 553q23 0 38 -15t15 -38t-15 -38t-38 -15t-38 15t-15 38t15 38t38 15z" />
    <glyph glyph-name="copyright" unicode="&#xa9;" horiz-adv-x="800" 
d="M400 -20q-71 0 -132 27t-107 73.5t-72 109t-26 134.5t26 135t72 110t107 74t132 27t132.5 -27t107 -74t71.5 -110t26 -135t-26 -134.5t-71.5 -109t-107 -73.5t-132.5 -27zM400 22q58 0 110 24.5t90 66.5t60.5 96.5t22.5 114.5q0 61 -22 116t-60.5 97t-90 66.5
t-110.5 24.5t-110.5 -25t-89.5 -67t-60.5 -97t-22.5 -115t22.5 -114.5t61 -96.5t90 -66.5t109.5 -24.5zM567 241l-15 -69q-1 -9 -8 -12.5t-19 -7.5q-14 -5 -42 -11t-63 -6q-43 0 -81 11.5t-66.5 35.5t-45 61.5t-16.5 90.5q0 31 12.5 64.5t38.5 62t67 47t98 18.5
q38 0 60.5 -5.5t42.5 -12.5q22 -7 22 -21v-70h-18q-1 16 -7.5 32t-19.5 28.5t-33.5 20.5t-49.5 8q-35 0 -61.5 -12.5t-44 -35t-26.5 -53.5t-9 -68q0 -39 8.5 -72.5t26.5 -57.5t46 -38t66 -14q49 0 78 26t43 60h16z" />
    <glyph glyph-name="ordfeminine" unicode="&#xaa;" horiz-adv-x="278" 
d="M23 611q6 19 16 30t22.5 16.5t28.5 7t34 1.5q16 0 33 -3.5t30.5 -11.5t22 -22.5t8.5 -35.5v-104q0 -11 5.5 -20t19.5 -9q13 0 23 6.5t19 13.5l7 -6q-7 -6 -15.5 -14t-18 -15.5t-19.5 -13t-20 -5.5q-14 0 -28 13.5t-23 21.5q-20 -13 -46.5 -24t-51.5 -11q-28 0 -50 16.5
t-22 43.5q0 25 15 39.5t39 22.5t53 10.5t57 2.5v46q0 22 -11 29.5t-31 7.5q-43 0 -41 -42zM162 535q-9 3 -18.5 3.5t-20.5 0.5q-23 0 -43 -9.5t-20 -34.5q0 -19 13.5 -27t31.5 -8q19 0 35 7.5t22 12.5v55z" />
    <glyph glyph-name="guillemotleft" unicode="&#xab;" horiz-adv-x="444" 
d="M211 45l-142 114q-15 12 -15 23t18 28l130 113l11 -10l-94 -126l103 -131zM348 45l-142 114q-15 12 -15 23t18 28l130 113l11 -10l-94 -126l103 -131z" />
    <glyph glyph-name="logicalnot" unicode="&#xac;" 
d="M383 230h-316v50h366v-201h-50v151z" />
    <glyph glyph-name="registered" unicode="&#xae;" horiz-adv-x="800" 
d="M239 515h177q22 0 43 -5.5t37 -17t26 -28.5t10 -41q0 -38 -23 -65.5t-58 -39.5l58 -79q20 -27 41 -50.5t35 -34.5v-8h-64q-12 0 -23.5 12t-25 33.5t-31 51.5t-41.5 65h-48v-97q0 -17 0.5 -26t5 -13.5t14.5 -6t29 -3.5v-16h-162v16q18 2 28 3.5t14.5 6t5.5 13.5t1 26v239
q0 16 -1 25.5t-5.5 14t-14.5 6t-28 2.5v17zM352 328h43q37 0 53 25t16 65q0 44 -21 60.5t-50 16.5h-41v-167zM400 -20q-71 0 -132 27t-107 73.5t-72 109t-26 134.5t26 135t72 110t107 74t132 27t132.5 -27t107 -74t71.5 -110t26 -135t-26 -134.5t-71.5 -109t-107 -73.5
t-132.5 -27zM400 22q58 0 110 24.5t90 66.5t60.5 96.5t22.5 114.5q0 61 -22 116t-60.5 97t-90 66.5t-110.5 24.5t-110.5 -25t-89.5 -67t-60.5 -97t-22.5 -115t22.5 -114.5t61 -96.5t90 -66.5t109.5 -24.5z" />
    <glyph glyph-name="macron" unicode="&#xaf;" horiz-adv-x="259" 
d="M-12 472v56h284v-56h-284z" />
    <glyph glyph-name="macron" unicode="&#x2c9;" horiz-adv-x="259" 
d="M-12 472v56h284v-56h-284z" />
    <glyph glyph-name="degree" unicode="&#xb0;" horiz-adv-x="400" 
d="M200 424q20 0 37 8t29.5 21.5t19.5 31.5t7 38t-7 38t-19.5 31.5t-29.5 21.5t-37 8t-37 -8t-29.5 -21.5t-19.5 -31.5t-7 -38t7 -38t19.5 -31.5t29.5 -21.5t37 -8zM200 380q-30 0 -56 11t-45.5 30.5t-30.5 45.5t-11 56t11 56t30.5 45.5t45.5 30.5t56 11t56 -11t45.5 -30.5
t30.5 -45.5t11 -56t-11 -56t-30.5 -45.5t-45.5 -30.5t-56 -11z" />
    <glyph glyph-name="plusminus" unicode="&#xb1;" 
d="M225 368h50v-111h158v-50h-158v-112h-50v112h-158v50h158v111zM67 50h366v-50h-366v50z" />
    <glyph glyph-name="twosuperior" unicode="&#xb2;" horiz-adv-x="300" 
d="M6 273l98 93q21 20 40.5 41.5t34.5 45t24 48t9 49.5q0 15 -4 30.5t-12.5 28.5t-21 21.5t-30.5 8.5q-26 0 -46.5 -11.5t-20.5 -41.5q0 -6 3.5 -10.5t7 -10t7 -12t3.5 -15.5q0 -13 -9 -20t-22 -9q-23 0 -32.5 15.5t-9.5 32.5q0 24 9 43.5t25 33.5t37.5 21.5t45.5 7.5
q63 0 98.5 -30t35.5 -87q0 -34 -22.5 -67t-54 -64t-65.5 -57.5t-57 -47.5h108q19 0 31.5 1t22 5.5t18 13t19.5 23.5l12 -6l-45 -83q-25 1 -49.5 1.5t-49.5 0.5q-32 0 -65 -0.5t-66 -1.5z" />
    <glyph glyph-name="threesuperior" unicode="&#xb3;" horiz-adv-x="300" 
d="M108 611q-13 0 -21 -4.5t-14 -11.5t-10 -15.5t-9 -16.5h-22l35 96q27 -1 53.5 -1.5t53.5 -0.5h27q23 0 49 1t43 1l7 -8l-157 -156l1 1l2 -2q15 5 35 5t38.5 -7.5t33 -22t23 -36.5t8.5 -50q0 -25 -10 -48t-30 -40t-49 -27.5t-66 -10.5q-20 0 -42 4.5t-40 14t-29.5 25
t-11.5 36.5q0 14 9 24.5t28 10.5q21 0 27.5 -11t6.5 -26q0 -5 -1.5 -11t-1.5 -11q0 -9 7 -14.5t17 -8.5t21 -4t20 -1q24 0 39.5 8.5t24 23t12 33.5t3.5 39q0 14 -4 28.5t-12 26.5t-20 19.5t-28 7.5q-21 0 -33 -5.5t-27 -16.5l-22 13l146 149h-110z" />
    <glyph glyph-name="acute" unicode="&#xb4;" horiz-adv-x="259" 
d="M182 563q17 19 29.5 30.5t26.5 11.5q41 0 41 -32q0 -11 -8.5 -23.5t-20.5 -20.5l-140 -96h-44z" />
    <glyph glyph-name="mu" unicode="&#xb5;" horiz-adv-x="537" 
d="M156 -243q-38 -2 -76 -3.5t-76 -3.5v12q25 4 40 9t22.5 15.5t9.5 28.5t2 49v437q0 30 -16.5 41t-58.5 16v13l153 7v-256q0 -42 21.5 -65t63.5 -23q32 0 63.5 15.5t46.5 32.5v211q0 13 -2 24t-10 19.5t-24 15t-43 10.5v11l157 5v-301q0 -38 19.5 -50.5t54.5 -14.5v-10
q-38 -2 -76.5 -3t-75.5 -3v52q-35 -26 -73.5 -45t-83.5 -19q-18 0 -38 5v-232z" />
    <glyph glyph-name="mu" unicode="&#x3bc;" horiz-adv-x="537" 
d="M156 -243q-38 -2 -76 -3.5t-76 -3.5v12q25 4 40 9t22.5 15.5t9.5 28.5t2 49v437q0 30 -16.5 41t-58.5 16v13l153 7v-256q0 -42 21.5 -65t63.5 -23q32 0 63.5 15.5t46.5 32.5v211q0 13 -2 24t-10 19.5t-24 15t-43 10.5v11l157 5v-301q0 -38 19.5 -50.5t54.5 -14.5v-10
q-38 -2 -76.5 -3t-75.5 -3v52q-35 -26 -73.5 -45t-83.5 -19q-18 0 -38 5v-232z" />
    <glyph glyph-name="paragraph" unicode="&#xb6;" horiz-adv-x="600" 
d="M404 -212v832h-59v-832h-50v451q-54 0 -93 15.5t-63.5 43.5t-36.5 67.5t-12 86.5q0 104 48.5 151t160.5 47h240v-22q-23 0 -39 -3t-26.5 -12t-15 -26.5t-4.5 -46.5v-752h-50z" />
    <glyph glyph-name="periodcentered" unicode="&#xb7;" horiz-adv-x="250" 
d="M125 240q23 0 39.5 -16t16.5 -40t-16.5 -40t-39.5 -16t-39.5 16t-16.5 40t16.5 40t39.5 16z" />
    <glyph glyph-name="periodcentered" unicode="&#x22c5;" horiz-adv-x="250" 
d="M125 240q23 0 39.5 -16t16.5 -40t-16.5 -40t-39.5 -16t-39.5 16t-16.5 40t16.5 40t39.5 16z" />
    <glyph glyph-name="cedilla" unicode="&#xb8;" horiz-adv-x="259" 
d="M27 -169q27 -15 61 -15q10 0 20.5 1.5t19.5 6t14.5 12t5.5 19.5q0 20 -10 33t-30 13q-9 0 -19 -1.5t-18 -6.5l-13 6l43 101h34l-27 -67q15 4 32 4q32 0 57 -16.5t25 -52.5q0 -26 -11 -42.5t-28 -27t-39 -14.5t-43 -4q-46 0 -88 18z" />
    <glyph glyph-name="onesuperior" unicode="&#xb9;" horiz-adv-x="300" 
d="M54 280q37 4 51.5 13.5t14.5 39.5v226q0 19 -1 31.5t-7 19.5t-19 10.5t-36 5.5v16q26 1 54 6.5t51 17.5h20v-333q0 -15 2.5 -24t9.5 -14.5t19 -8.5t32 -6v-16q-26 1 -50.5 1.5t-50.5 0.5q-23 0 -45 -0.5t-45 -1.5v16z" />
    <glyph glyph-name="ordmasculine" unicode="&#xba;" horiz-adv-x="300" 
d="M149 666q64 0 102.5 -33t38.5 -87t-38.5 -87t-102.5 -33q-63 0 -101.5 33t-38.5 87t38.5 87t101.5 33zM138 644q-20 0 -32.5 -8.5t-20.5 -22t-11 -29.5t-3 -30q0 -18 5.5 -37t16 -34.5t27 -25t39.5 -9.5q19 0 32.5 9t21.5 22.5t11.5 29.5t3.5 30q0 18 -5.5 37t-17 34
t-28.5 24.5t-39 9.5z" />
    <glyph glyph-name="guillemotright" unicode="&#xbb;" horiz-adv-x="444" 
d="M222 56l103 131l-94 126l11 10l130 -113q18 -17 18 -28t-15 -23l-142 -114zM85 56l103 131l-94 126l11 10l130 -113q18 -17 18 -28t-15 -23l-142 -114z" />
    <glyph glyph-name="onequarter" unicode="&#xbc;" horiz-adv-x="750" 
d="M74 280q37 4 51.5 13.5t14.5 39.5v226q0 19 -1 31.5t-7 19.5t-19 10.5t-36 5.5v16q26 1 54 6.5t51 17.5h20v-333q0 -15 2.5 -24t9.5 -14.5t19 -8.5t32 -6v-16q-26 1 -50.5 1.5t-50.5 0.5q-23 0 -45 -0.5t-45 -1.5v16zM205 -16h-48l449 682h52zM459 159h141v106l56 51
v-316h-56v115h-217v16l268 283h51z" />
    <glyph glyph-name="onehalf" unicode="&#xbd;" horiz-adv-x="750" 
d="M44 280q37 4 51.5 13.5t14.5 39.5v226q0 19 -1 31.5t-7 19.5t-19 10.5t-36 5.5v16q26 1 54 6.5t51 17.5h20v-333q0 -15 2.5 -24t9.5 -14.5t19 -8.5t32 -6v-16q-26 1 -50.5 1.5t-50.5 0.5q-23 0 -45 -0.5t-45 -1.5v16zM175 -16h-48l449 682h52zM452 7l98 93
q21 20 40.5 41.5t34.5 45t24 48t9 49.5q0 15 -4 30.5t-12.5 28.5t-21 21.5t-30.5 8.5q-26 0 -46.5 -11.5t-20.5 -41.5q0 -6 3.5 -10.5t7 -10t7 -12t3.5 -15.5q0 -13 -9 -20t-22 -9q-23 0 -32.5 15.5t-9.5 32.5q0 24 9 43.5t25 33.5t37.5 21.5t45.5 7.5q63 0 98.5 -30
t35.5 -87q0 -34 -22.5 -67t-54 -64t-65.5 -57.5t-57 -47.5h108q19 0 31.5 1t22 5.5t18 13t19.5 23.5l12 -6l-45 -83q-25 1 -49.5 1.5t-49.5 0.5q-32 0 -65 -0.5t-66 -1.5z" />
    <glyph glyph-name="threequarters" unicode="&#xbe;" horiz-adv-x="750" 
d="M205 -16h-48l449 682h52zM459 159h141v106l56 51v-316h-56v115h-217v16l268 283h51zM144 615q-13 0 -21 -4.5t-14 -11.5t-10 -15.5t-9 -16.5h-22l35 96q27 -1 53.5 -1.5t53.5 -0.5h27q23 0 49 1t43 1l7 -8l-157 -156l1 1l2 -2q15 5 35 5t38.5 -7.5t33 -22t23 -36.5
t8.5 -50q0 -25 -10 -48t-30 -40t-49 -27.5t-66 -10.5q-20 0 -42 4.5t-40 14t-29.5 25t-11.5 36.5q0 14 9 24.5t28 10.5q21 0 27.5 -11t6.5 -26q0 -5 -1.5 -11t-1.5 -11q0 -9 7 -14.5t17 -8.5t21 -4t20 -1q24 0 39.5 8.5t24 23t12 33.5t3.5 39q0 14 -4 28.5t-12 26.5
t-20 19.5t-28 7.5q-21 0 -33 -5.5t-27 -16.5l-22 13l146 149h-110z" />
    <glyph glyph-name="questiondown" unicode="&#xbf;" 
d="M287 264q2 -18 4.5 -35.5t2.5 -34.5q0 -54 -16 -93t-35 -73.5t-35 -70.5t-16 -85q0 -18 4 -36t13 -32t24 -23t36 -9q44 0 61.5 29.5t17.5 68.5q0 11 -2 23.5t-4 24.5l71 19q4 -10 5.5 -21.5t1.5 -22.5q0 -36 -13 -63t-35.5 -44.5t-52.5 -26.5t-63 -9q-31 0 -58.5 10.5
t-48.5 29t-33 45t-12 58.5q0 45 18 78t43 62.5t51.5 61t42.5 73.5q16 45 15 96h13zM272 314q-23 0 -39.5 16t-16.5 40t16.5 40t39.5 16t39.5 -16t16.5 -40t-16.5 -40t-39.5 -16z" />
    <glyph glyph-name="Agrave" unicode="&#xc0;" horiz-adv-x="704" 
d="M218 289l-66 -181q-3 -8 -5.5 -14t-2.5 -13q0 -18 10.5 -31t25.5 -21.5t31 -13.5t27 -7v-12q-30 2 -60 3t-61 1q-30 0 -58.5 -1t-60.5 -3v12q31 7 51.5 21.5t34.5 34.5t24.5 44t20.5 50l173 425q3 7 5.5 13t2.5 11t-3.5 15t-8.5 18q26 5 45 13t42 17l208 -572
q14 -39 39 -61.5t74 -28.5v-12q-40 2 -78.5 3t-80.5 1h-47t-36 -0.5t-30.5 -1.5t-31.5 -2v12q42 5 70.5 21.5t28.5 44.5q0 8 -3.5 16t-5.5 15l-65 184h-209zM326 573l-98 -254h188zM384 692l-140 96q-12 8 -20.5 20.5t-8.5 23.5q0 32 41 32q14 0 26.5 -11.5t29.5 -30.5
l116 -130h-44z" />
    <glyph glyph-name="Aacute" unicode="&#xc1;" horiz-adv-x="704" 
d="M218 289l-66 -181q-3 -8 -5.5 -14t-2.5 -13q0 -18 10.5 -31t25.5 -21.5t31 -13.5t27 -7v-12q-30 2 -60 3t-61 1q-30 0 -58.5 -1t-60.5 -3v12q31 7 51.5 21.5t34.5 34.5t24.5 44t20.5 50l173 425q3 7 5.5 13t2.5 11t-3.5 15t-8.5 18q26 5 45 13t42 17l208 -572
q14 -39 39 -61.5t74 -28.5v-12q-40 2 -78.5 3t-80.5 1h-47t-36 -0.5t-30.5 -1.5t-31.5 -2v12q42 5 70.5 21.5t28.5 44.5q0 8 -3.5 16t-5.5 15l-65 184h-209zM326 573l-98 -254h188zM405 822q17 19 29.5 30.5t26.5 11.5q41 0 41 -32q0 -11 -8.5 -23.5t-20.5 -20.5l-140 -96
h-44z" />
    <glyph glyph-name="Acircumflex" unicode="&#xc2;" horiz-adv-x="704" 
d="M218 289l-66 -181q-3 -8 -5.5 -14t-2.5 -13q0 -18 10.5 -31t25.5 -21.5t31 -13.5t27 -7v-12q-30 2 -60 3t-61 1q-30 0 -58.5 -1t-60.5 -3v12q31 7 51.5 21.5t34.5 34.5t24.5 44t20.5 50l173 425q3 7 5.5 13t2.5 11t-3.5 15t-8.5 18q26 5 45 13t42 17l208 -572
q14 -39 39 -61.5t74 -28.5v-12q-40 2 -78.5 3t-80.5 1h-47t-36 -0.5t-30.5 -1.5t-31.5 -2v12q42 5 70.5 21.5t28.5 44.5q0 8 -3.5 16t-5.5 15l-65 184h-209zM326 573l-98 -254h188zM318 864h69l113 -172h-41l-106 110l-107 -110h-39z" />
    <glyph glyph-name="Atilde" unicode="&#xc3;" horiz-adv-x="704" 
d="M218 289l-66 -181q-3 -8 -5.5 -14t-2.5 -13q0 -18 10.5 -31t25.5 -21.5t31 -13.5t27 -7v-12q-30 2 -60 3t-61 1q-30 0 -58.5 -1t-60.5 -3v12q31 7 51.5 21.5t34.5 34.5t24.5 44t20.5 50l173 425q3 7 5.5 13t2.5 11t-3.5 15t-8.5 18q26 5 45 13t42 17l208 -572
q14 -39 39 -61.5t74 -28.5v-12q-40 2 -78.5 3t-80.5 1h-47t-36 -0.5t-30.5 -1.5t-31.5 -2v12q42 5 70.5 21.5t28.5 44.5q0 8 -3.5 16t-5.5 15l-65 184h-209zM326 573l-98 -254h188zM508 830q-5 -21 -12 -41t-19 -36t-29 -26t-42 -10q-17 0 -34.5 7.5t-34 16.5t-32.5 16.5
t-29 7.5q-20 0 -33 -16t-16 -33h-29q4 21 11 41t18.5 35t29 24t41.5 9q16 0 31.5 -7.5t32.5 -16.5q16 -9 32 -16.5t32 -7.5q14 0 23 7t14.5 16t8.5 18t5 12h31z" />
    <glyph glyph-name="Adieresis" unicode="&#xc4;" horiz-adv-x="704" 
d="M218 289l-66 -181q-3 -8 -5.5 -14t-2.5 -13q0 -18 10.5 -31t25.5 -21.5t31 -13.5t27 -7v-12q-30 2 -60 3t-61 1q-30 0 -58.5 -1t-60.5 -3v12q31 7 51.5 21.5t34.5 34.5t24.5 44t20.5 50l173 425q3 7 5.5 13t2.5 11t-3.5 15t-8.5 18q26 5 45 13t42 17l208 -572
q14 -39 39 -61.5t74 -28.5v-12q-40 2 -78.5 3t-80.5 1h-47t-36 -0.5t-30.5 -1.5t-31.5 -2v12q42 5 70.5 21.5t28.5 44.5q0 8 -3.5 16t-5.5 15l-65 184h-209zM326 573l-98 -254h188zM260 812q23 0 38 -15t15 -38t-15 -38t-38 -15t-38 15t-15 38t15 38t38 15zM445 812
q23 0 38 -15t15 -38t-15 -38t-38 -15t-38 15t-15 38t15 38t38 15z" />
    <glyph glyph-name="Aring" unicode="&#xc5;" horiz-adv-x="704" 
d="M218 289l-66 -181q-3 -8 -5.5 -14t-2.5 -13q0 -18 10.5 -31t25.5 -21.5t31 -13.5t27 -7v-12q-30 2 -60 3t-61 1q-30 0 -58.5 -1t-60.5 -3v12q31 7 51.5 21.5t34.5 34.5t24.5 44t20.5 50l173 425q3 7 5.5 13t2.5 11t-3.5 15t-8.5 18q26 5 45 13t42 17l208 -572
q14 -39 39 -61.5t74 -28.5v-12q-40 2 -78.5 3t-80.5 1h-47t-36 -0.5t-30.5 -1.5t-31.5 -2v12q42 5 70.5 21.5t28.5 44.5q0 8 -3.5 16t-5.5 15l-65 184h-209zM326 573l-98 -254h188zM251 795q0 43 29.5 72.5t72.5 29.5t72.5 -29.5t29.5 -72.5t-29.5 -72.5t-72.5 -29.5
t-72.5 29.5t-29.5 72.5zM291 795q0 -26 18 -44t44 -18t44 18t18 44t-18 44t-44 18t-44 -18t-18 -44z" />
    <glyph glyph-name="AE" unicode="&#xc6;" horiz-adv-x="963" 
d="M866 480q-13 43 -33 71t-47 44.5t-61.5 22.5t-76.5 6h-137v-250h41q11 0 21 0.5t20 1.5q33 2 58.5 8t44.5 19.5t30.5 35.5t15.5 55h12q-2 -34 -3 -65t-1 -62q0 -42 1 -81t3 -76h-12q-7 36 -18 62.5t-29 43t-45.5 24.5t-66.5 8h-72v-311q23 -6 48 -8.5t51 -2.5
q57 0 105.5 8.5t90.5 28t78 52.5t67 82l13 -6l-87 -195q-30 2 -59.5 3t-59.5 1h-326q-28 0 -55.5 -1t-54.5 -3v12q35 2 55 11t29.5 25t12 39t2.5 52v197h-168l-94 -186q-23 -48 -23 -73q0 -19 9 -30.5t23 -18.5t30 -10.5t31 -5.5v-12q-42 2 -82.5 3t-82.5 1q-26 0 -51 -1
t-51 -3v12q31 3 56.5 20t46 41.5t37.5 52.5t31 53l164 291q13 23 27 49.5t14 53.5q0 21 -11.5 34t-28.5 20.5t-36 11.5t-35 7v12q51 -2 91.5 -3t85.5 -1h344q34 0 67.5 1.5t59.5 3.5q-1 -19 -1.5 -38t-0.5 -38q0 -25 1.5 -49.5t5.5 -49.5h-14zM421 354v266h-4l-152 -266h156
z" />
    <glyph glyph-name="Ccedilla" unicode="&#xc7;" horiz-adv-x="704" 
d="M624 426q-13 45 -34.5 83t-51 66t-68 43.5t-86.5 15.5q-62 0 -105 -24t-70.5 -65t-40 -95t-12.5 -114t16 -114.5t47.5 -95.5t79 -65.5t109.5 -24.5q93 0 160.5 47t119.5 128l25 -20q-34 -51 -68 -90t-74 -66t-87 -41t-106 -14q-67 0 -127 25.5t-105 71t-71.5 109
t-26.5 139.5t26.5 139.5t71.5 109t105 71t127 25.5q37 0 69 -4.5t61.5 -9.5t57 -10t54.5 -6q0 -21 1.5 -49t4.5 -57.5t6 -58t6 -49.5h-14zM296 -169q27 -15 61 -15q10 0 20.5 1.5t19.5 6t14.5 12t5.5 19.5q0 20 -10 33t-30 13q-9 0 -19 -1.5t-18 -6.5l-13 6l43 101h34
l-27 -67q15 4 32 4q32 0 57 -16.5t25 -52.5q0 -26 -11 -42.5t-28 -27t-39 -14.5t-43 -4q-46 0 -88 18z" />
    <glyph glyph-name="Egrave" unicode="&#xc8;" horiz-adv-x="685" 
d="M230 39q9 -2 22 -4t28 -4t31 -3.5t30 -1.5q60 0 107.5 10t87 32t74.5 56t71 82l11 -9l-91 -201q-17 2 -35 3t-35 1h-376q-29 0 -58 -1t-58 -3v12q36 3 56 11t30 25t12.5 44.5t2.5 69.5v334q0 42 -2.5 69.5t-12.5 44.5t-31 25t-57 11v12q34 -1 64.5 -2t63 -1.5t69 -0.5
h82.5q70 0 140 1t142 3q-1 -11 -1.5 -22t-0.5 -21v-40q0 -22 2 -44.5t4 -49.5l-13 -4q-13 48 -34.5 78.5t-50 47.5t-62.5 23t-72 6q-70 0 -140 -6v-250q20 0 38.5 1t38.5 1q69 0 109.5 27.5t49.5 100.5h12q0 -36 -1 -72t-1 -71q0 -36 1 -72t1 -72h-12q-9 42 -22 68.5
t-32.5 40.5t-48.5 19t-69 5h-64v-309zM391 692l-140 96q-12 8 -20.5 20.5t-8.5 23.5q0 32 41 32q14 0 26.5 -11.5t29.5 -30.5l116 -130h-44z" />
    <glyph glyph-name="Eacute" unicode="&#xc9;" horiz-adv-x="685" 
d="M230 39q9 -2 22 -4t28 -4t31 -3.5t30 -1.5q60 0 107.5 10t87 32t74.5 56t71 82l11 -9l-91 -201q-17 2 -35 3t-35 1h-376q-29 0 -58 -1t-58 -3v12q36 3 56 11t30 25t12.5 44.5t2.5 69.5v334q0 42 -2.5 69.5t-12.5 44.5t-31 25t-57 11v12q34 -1 64.5 -2t63 -1.5t69 -0.5
h82.5q70 0 140 1t142 3q-1 -11 -1.5 -22t-0.5 -21v-40q0 -22 2 -44.5t4 -49.5l-13 -4q-13 48 -34.5 78.5t-50 47.5t-62.5 23t-72 6q-70 0 -140 -6v-250q20 0 38.5 1t38.5 1q69 0 109.5 27.5t49.5 100.5h12q0 -36 -1 -72t-1 -71q0 -36 1 -72t1 -72h-12q-9 42 -22 68.5
t-32.5 40.5t-48.5 19t-69 5h-64v-309zM412 822q17 19 29.5 30.5t26.5 11.5q41 0 41 -32q0 -11 -8.5 -23.5t-20.5 -20.5l-140 -96h-44z" />
    <glyph glyph-name="Ecircumflex" unicode="&#xca;" horiz-adv-x="685" 
d="M230 39q9 -2 22 -4t28 -4t31 -3.5t30 -1.5q60 0 107.5 10t87 32t74.5 56t71 82l11 -9l-91 -201q-17 2 -35 3t-35 1h-376q-29 0 -58 -1t-58 -3v12q36 3 56 11t30 25t12.5 44.5t2.5 69.5v334q0 42 -2.5 69.5t-12.5 44.5t-31 25t-57 11v12q34 -1 64.5 -2t63 -1.5t69 -0.5
h82.5q70 0 140 1t142 3q-1 -11 -1.5 -22t-0.5 -21v-40q0 -22 2 -44.5t4 -49.5l-13 -4q-13 48 -34.5 78.5t-50 47.5t-62.5 23t-72 6q-70 0 -140 -6v-250q20 0 38.5 1t38.5 1q69 0 109.5 27.5t49.5 100.5h12q0 -36 -1 -72t-1 -71q0 -36 1 -72t1 -72h-12q-9 42 -22 68.5
t-32.5 40.5t-48.5 19t-69 5h-64v-309zM325 864h69l113 -172h-41l-106 110l-107 -110h-39z" />
    <glyph glyph-name="Edieresis" unicode="&#xcb;" horiz-adv-x="685" 
d="M230 39q9 -2 22 -4t28 -4t31 -3.5t30 -1.5q60 0 107.5 10t87 32t74.5 56t71 82l11 -9l-91 -201q-17 2 -35 3t-35 1h-376q-29 0 -58 -1t-58 -3v12q36 3 56 11t30 25t12.5 44.5t2.5 69.5v334q0 42 -2.5 69.5t-12.5 44.5t-31 25t-57 11v12q34 -1 64.5 -2t63 -1.5t69 -0.5
h82.5q70 0 140 1t142 3q-1 -11 -1.5 -22t-0.5 -21v-40q0 -22 2 -44.5t4 -49.5l-13 -4q-13 48 -34.5 78.5t-50 47.5t-62.5 23t-72 6q-70 0 -140 -6v-250q20 0 38.5 1t38.5 1q69 0 109.5 27.5t49.5 100.5h12q0 -36 -1 -72t-1 -71q0 -36 1 -72t1 -72h-12q-9 42 -22 68.5
t-32.5 40.5t-48.5 19t-69 5h-64v-309zM267 812q23 0 38 -15t15 -38t-15 -38t-38 -15t-38 15t-15 38t15 38t38 15zM452 812q23 0 38 -15t15 -38t-15 -38t-38 -15t-38 15t-15 38t15 38t38 15z" />
    <glyph glyph-name="Igrave" unicode="&#xcc;" horiz-adv-x="389" 
d="M47 8q36 3 56 11t30.5 25t13 44.5t2.5 69.5v334q0 42 -2.5 69.5t-13 44.5t-31.5 25t-57 11v12q42 -2 81.5 -3t81.5 -1q33 0 66 1t65 3v-12q-35 -3 -55 -11t-30 -25t-12.5 -44.5t-2.5 -69.5v-334q0 -42 2.5 -69.5t13 -44.5t31.5 -25t58 -11v-12q-38 2 -76 3t-76 1
q-37 0 -73 -1t-72 -3v12zM226 692l-140 96q-12 8 -20.5 20.5t-8.5 23.5q0 32 41 32q14 0 26.5 -11.5t29.5 -30.5l116 -130h-44z" />
    <glyph glyph-name="Iacute" unicode="&#xcd;" horiz-adv-x="389" 
d="M47 8q36 3 56 11t30.5 25t13 44.5t2.5 69.5v334q0 42 -2.5 69.5t-13 44.5t-31.5 25t-57 11v12q42 -2 81.5 -3t81.5 -1q33 0 66 1t65 3v-12q-35 -3 -55 -11t-30 -25t-12.5 -44.5t-2.5 -69.5v-334q0 -42 2.5 -69.5t13 -44.5t31.5 -25t58 -11v-12q-38 2 -76 3t-76 1
q-37 0 -73 -1t-72 -3v12zM247 822q17 19 29.5 30.5t26.5 11.5q41 0 41 -32q0 -11 -8.5 -23.5t-20.5 -20.5l-140 -96h-44z" />
    <glyph glyph-name="Icircumflex" unicode="&#xce;" horiz-adv-x="389" 
d="M47 8q36 3 56 11t30.5 25t13 44.5t2.5 69.5v334q0 42 -2.5 69.5t-13 44.5t-31.5 25t-57 11v12q42 -2 81.5 -3t81.5 -1q33 0 66 1t65 3v-12q-35 -3 -55 -11t-30 -25t-12.5 -44.5t-2.5 -69.5v-334q0 -42 2.5 -69.5t13 -44.5t31.5 -25t58 -11v-12q-38 2 -76 3t-76 1
q-37 0 -73 -1t-72 -3v12zM160 864h69l113 -172h-41l-106 110l-107 -110h-39z" />
    <glyph glyph-name="Idieresis" unicode="&#xcf;" horiz-adv-x="389" 
d="M47 8q36 3 56 11t30.5 25t13 44.5t2.5 69.5v334q0 42 -2.5 69.5t-13 44.5t-31.5 25t-57 11v12q42 -2 81.5 -3t81.5 -1q33 0 66 1t65 3v-12q-35 -3 -55 -11t-30 -25t-12.5 -44.5t-2.5 -69.5v-334q0 -42 2.5 -69.5t13 -44.5t31.5 -25t58 -11v-12q-38 2 -76 3t-76 1
q-37 0 -73 -1t-72 -3v12zM102 812q23 0 38 -15t15 -38t-15 -38t-38 -15t-38 15t-15 38t15 38t38 15zM287 812q23 0 38 -15t15 -38t-15 -38t-38 -15t-38 15t-15 38t15 38t38 15z" />
    <glyph glyph-name="Eth" unicode="&#xd0;" horiz-adv-x="833" 
d="M138 370v176q0 22 -2.5 38.5t-12.5 28.5t-30 19t-54 10v12q26 -2 52 -3t52 -1q70 0 130 7t123 7q81 0 152 -25t124.5 -71.5t84.5 -112.5t31 -148q0 -83 -30 -141.5t-80 -96t-114.5 -54.5t-134.5 -17q-54 0 -92.5 0.5t-67.5 0.5t-52 0.5t-44 0.5q-34 0 -67 -1t-67 -3v12
q33 3 52.5 11t30 18.5t13.5 22.5t3 24v254h-98v32h98zM432 370v-32h-204v-262q32 -30 73.5 -42t83.5 -12q154 0 224.5 79t70.5 229q0 65 -23.5 121.5t-65 98.5t-99 66t-125.5 24q-70 0 -133 -28q-4 -52 -5 -103.5t-1 -105.5v-33h204z" />
    <glyph glyph-name="Ntilde" unicode="&#xd1;" horiz-adv-x="815" 
d="M16 654q35 -2 66.5 -3t73.5 -1q22 0 43 1t43 3q13 -18 43 -54.5t68.5 -83.5t82.5 -100t85 -103.5t75.5 -94t54.5 -71.5h2q0 30 0.5 59.5t0.5 59.5v116q0 64 -4.5 111.5t-18 79.5t-38 49t-64.5 20v12q35 -2 70.5 -3t70.5 -1q32 0 65 1t65 3v-12q-63 -8 -86.5 -36.5
t-23.5 -87.5v-530h-37q-55 86 -116.5 167t-122 154t-117 135.5t-101.5 111.5q-1 -26 -1.5 -51t-0.5 -51v-175q0 -89 3.5 -140.5t17 -79t40 -37t73.5 -14.5v-12q-51 2 -99 3t-99 1q-29 0 -57 -1t-57 -3v12q34 5 59.5 9.5t42 15t25 30t9.5 54.5l12 459q-32 26 -70 41t-78 25
v12zM569 830q-5 -21 -12 -41t-19 -36t-29 -26t-42 -10q-17 0 -34.5 7.5t-34 16.5t-32.5 16.5t-29 7.5q-20 0 -33 -16t-16 -33h-29q4 21 11 41t18.5 35t29 24t41.5 9q16 0 31.5 -7.5t32.5 -16.5q16 -9 32 -16.5t32 -7.5q14 0 23 7t14.5 16t8.5 18t5 12h31z" />
    <glyph glyph-name="Ograve" unicode="&#xd2;" horiz-adv-x="833" 
d="M47 325q0 81 29.5 145t79.5 108.5t117.5 68t143.5 23.5t143.5 -23.5t117.5 -68t79.5 -108.5t29.5 -145t-29.5 -145t-79.5 -108.5t-117.5 -68t-143.5 -23.5t-143.5 23.5t-117.5 68t-79.5 108.5t-29.5 145zM153 325q0 -61 18 -117t52 -98.5t83 -68t111 -25.5t111 25.5
t83 68t52 98.5t18 117t-18 117t-52 98.5t-83 68t-111 25.5t-111 -25.5t-83 -68t-52 -98.5t-18 -117zM448 692l-140 96q-12 8 -20.5 20.5t-8.5 23.5q0 32 41 32q14 0 26.5 -11.5t29.5 -30.5l116 -130h-44z" />
    <glyph glyph-name="Oacute" unicode="&#xd3;" horiz-adv-x="833" 
d="M47 325q0 81 29.5 145t79.5 108.5t117.5 68t143.5 23.5t143.5 -23.5t117.5 -68t79.5 -108.5t29.5 -145t-29.5 -145t-79.5 -108.5t-117.5 -68t-143.5 -23.5t-143.5 23.5t-117.5 68t-79.5 108.5t-29.5 145zM153 325q0 -61 18 -117t52 -98.5t83 -68t111 -25.5t111 25.5
t83 68t52 98.5t18 117t-18 117t-52 98.5t-83 68t-111 25.5t-111 -25.5t-83 -68t-52 -98.5t-18 -117zM469 822q17 19 29.5 30.5t26.5 11.5q41 0 41 -32q0 -11 -8.5 -23.5t-20.5 -20.5l-140 -96h-44z" />
    <glyph glyph-name="Ocircumflex" unicode="&#xd4;" horiz-adv-x="833" 
d="M47 325q0 81 29.5 145t79.5 108.5t117.5 68t143.5 23.5t143.5 -23.5t117.5 -68t79.5 -108.5t29.5 -145t-29.5 -145t-79.5 -108.5t-117.5 -68t-143.5 -23.5t-143.5 23.5t-117.5 68t-79.5 108.5t-29.5 145zM153 325q0 -61 18 -117t52 -98.5t83 -68t111 -25.5t111 25.5
t83 68t52 98.5t18 117t-18 117t-52 98.5t-83 68t-111 25.5t-111 -25.5t-83 -68t-52 -98.5t-18 -117zM382 864h69l113 -172h-41l-106 110l-107 -110h-39z" />
    <glyph glyph-name="Otilde" unicode="&#xd5;" horiz-adv-x="833" 
d="M47 325q0 81 29.5 145t79.5 108.5t117.5 68t143.5 23.5t143.5 -23.5t117.5 -68t79.5 -108.5t29.5 -145t-29.5 -145t-79.5 -108.5t-117.5 -68t-143.5 -23.5t-143.5 23.5t-117.5 68t-79.5 108.5t-29.5 145zM153 325q0 -61 18 -117t52 -98.5t83 -68t111 -25.5t111 25.5
t83 68t52 98.5t18 117t-18 117t-52 98.5t-83 68t-111 25.5t-111 -25.5t-83 -68t-52 -98.5t-18 -117zM572 830q-5 -21 -12 -41t-19 -36t-29 -26t-42 -10q-17 0 -34.5 7.5t-34 16.5t-32.5 16.5t-29 7.5q-20 0 -33 -16t-16 -33h-29q4 21 11 41t18.5 35t29 24t41.5 9
q16 0 31.5 -7.5t32.5 -16.5q16 -9 32 -16.5t32 -7.5q14 0 23 7t14.5 16t8.5 18t5 12h31z" />
    <glyph glyph-name="Odieresis" unicode="&#xd6;" horiz-adv-x="833" 
d="M47 325q0 81 29.5 145t79.5 108.5t117.5 68t143.5 23.5t143.5 -23.5t117.5 -68t79.5 -108.5t29.5 -145t-29.5 -145t-79.5 -108.5t-117.5 -68t-143.5 -23.5t-143.5 23.5t-117.5 68t-79.5 108.5t-29.5 145zM153 325q0 -61 18 -117t52 -98.5t83 -68t111 -25.5t111 25.5
t83 68t52 98.5t18 117t-18 117t-52 98.5t-83 68t-111 25.5t-111 -25.5t-83 -68t-52 -98.5t-18 -117zM324 812q23 0 38 -15t15 -38t-15 -38t-38 -15t-38 15t-15 38t15 38t38 15zM509 812q23 0 38 -15t15 -38t-15 -38t-38 -15t-38 15t-15 38t15 38t38 15z" />
    <glyph glyph-name="multiply" unicode="&#xd7;" 
d="M397 368l36 -35l-149 -149l149 -149l-35 -35l-149 149l-147 -149l-35 36l146 148l-146 148l35 36l147 -149z" />
    <glyph glyph-name="Oslash" unicode="&#xd8;" horiz-adv-x="833" 
d="M588 566q-33 32 -75 50t-96 18q-62 0 -111 -25.5t-83 -68t-52 -98.5t-18 -117q0 -60 17 -114.5t50 -97.5zM243 87q32 -33 76 -52t98 -19q62 0 111 25.5t83 68t52 98.5t18 117q0 63 -18 118.5t-52 97.5zM119 -65l-26 22l82 101q-60 45 -94 111t-34 156q0 81 29.5 145
t79.5 108.5t117.5 68t143.5 23.5q119 0 211 -55l76 94l26 -22l-74 -91q60 -45 95.5 -112.5t35.5 -158.5q0 -81 -29.5 -145t-79.5 -108.5t-117.5 -68t-143.5 -23.5q-123 0 -214 58z" />
    <glyph glyph-name="Ugrave" unicode="&#xd9;" horiz-adv-x="796" 
d="M128 553q0 28 -5.5 43.5t-16.5 24.5t-27 13t-37 8v12q42 -2 82.5 -3t82.5 -1q30 0 59.5 1t59.5 3v-12q-32 -3 -53 -10t-33 -20t-17 -33.5t-5 -50.5v-326q0 -47 15.5 -79.5t42.5 -53t62.5 -30t75.5 -9.5q64 0 105 19t65 46.5t33 59t9 55.5v280q0 40 -3.5 67.5t-14 45
t-29.5 26.5t-49 13v12q31 -2 61.5 -3t61.5 -1q26 0 51 1t51 3v-12q-21 -3 -38.5 -8t-29.5 -18t-18.5 -37.5t-6.5 -66.5v-299q0 -60 -21.5 -103.5t-58.5 -72.5t-86.5 -43t-105.5 -14q-51 0 -98 13.5t-83.5 41t-58.5 68.5t-22 95v355zM447 692l-140 96q-12 8 -20.5 20.5
t-8.5 23.5q0 32 41 32q14 0 26.5 -11.5t29.5 -30.5l116 -130h-44z" />
    <glyph glyph-name="Uacute" unicode="&#xda;" horiz-adv-x="796" 
d="M128 553q0 28 -5.5 43.5t-16.5 24.5t-27 13t-37 8v12q42 -2 82.5 -3t82.5 -1q30 0 59.5 1t59.5 3v-12q-32 -3 -53 -10t-33 -20t-17 -33.5t-5 -50.5v-326q0 -47 15.5 -79.5t42.5 -53t62.5 -30t75.5 -9.5q64 0 105 19t65 46.5t33 59t9 55.5v280q0 40 -3.5 67.5t-14 45
t-29.5 26.5t-49 13v12q31 -2 61.5 -3t61.5 -1q26 0 51 1t51 3v-12q-21 -3 -38.5 -8t-29.5 -18t-18.5 -37.5t-6.5 -66.5v-299q0 -60 -21.5 -103.5t-58.5 -72.5t-86.5 -43t-105.5 -14q-51 0 -98 13.5t-83.5 41t-58.5 68.5t-22 95v355zM468 822q17 19 29.5 30.5t26.5 11.5
q41 0 41 -32q0 -11 -8.5 -23.5t-20.5 -20.5l-140 -96h-44z" />
    <glyph glyph-name="Ucircumflex" unicode="&#xdb;" horiz-adv-x="796" 
d="M128 553q0 28 -5.5 43.5t-16.5 24.5t-27 13t-37 8v12q42 -2 82.5 -3t82.5 -1q30 0 59.5 1t59.5 3v-12q-32 -3 -53 -10t-33 -20t-17 -33.5t-5 -50.5v-326q0 -47 15.5 -79.5t42.5 -53t62.5 -30t75.5 -9.5q64 0 105 19t65 46.5t33 59t9 55.5v280q0 40 -3.5 67.5t-14 45
t-29.5 26.5t-49 13v12q31 -2 61.5 -3t61.5 -1q26 0 51 1t51 3v-12q-21 -3 -38.5 -8t-29.5 -18t-18.5 -37.5t-6.5 -66.5v-299q0 -60 -21.5 -103.5t-58.5 -72.5t-86.5 -43t-105.5 -14q-51 0 -98 13.5t-83.5 41t-58.5 68.5t-22 95v355zM381 864h69l113 -172h-41l-106 110
l-107 -110h-39z" />
    <glyph glyph-name="Udieresis" unicode="&#xdc;" horiz-adv-x="796" 
d="M128 553q0 28 -5.5 43.5t-16.5 24.5t-27 13t-37 8v12q42 -2 82.5 -3t82.5 -1q30 0 59.5 1t59.5 3v-12q-32 -3 -53 -10t-33 -20t-17 -33.5t-5 -50.5v-326q0 -47 15.5 -79.5t42.5 -53t62.5 -30t75.5 -9.5q64 0 105 19t65 46.5t33 59t9 55.5v280q0 40 -3.5 67.5t-14 45
t-29.5 26.5t-49 13v12q31 -2 61.5 -3t61.5 -1q26 0 51 1t51 3v-12q-21 -3 -38.5 -8t-29.5 -18t-18.5 -37.5t-6.5 -66.5v-299q0 -60 -21.5 -103.5t-58.5 -72.5t-86.5 -43t-105.5 -14q-51 0 -98 13.5t-83.5 41t-58.5 68.5t-22 95v355zM323 812q23 0 38 -15t15 -38t-15 -38
t-38 -15t-38 15t-15 38t15 38t38 15zM508 812q23 0 38 -15t15 -38t-15 -38t-38 -15t-38 15t-15 38t15 38t38 15z" />
    <glyph glyph-name="Yacute" unicode="&#xdd;" horiz-adv-x="722" 
d="M-20 654q42 -2 82 -3t82 -1q39 0 78.5 1t78.5 3v-12q-12 -2 -26.5 -6t-27 -11t-20.5 -18t-8 -27q0 -11 10.5 -29t30.5 -45l142 -192l118 185q26 42 26 77q0 29 -24 46.5t-54 19.5v12q35 -2 70.5 -3t70.5 -1q32 0 63.5 1t63.5 3v-12q-36 -7 -64 -25.5t-50.5 -42t-40 -49.5
t-32.5 -47l-137 -200v-147q0 -37 6 -59.5t19.5 -35.5t36.5 -19t58 -9v-12q-45 2 -89 3t-89 1q-37 0 -74 -1t-74 -3v12q33 3 55.5 9t36 19t19 35.5t5.5 59.5v157l-181 232q-14 18 -29 36.5t-33.5 35t-42.5 30t-56 20.5v12zM414 822q17 19 29.5 30.5t26.5 11.5q41 0 41 -32
q0 -11 -8.5 -23.5t-20.5 -20.5l-140 -96h-44z" />
    <glyph glyph-name="Thorn" unicode="&#xde;" horiz-adv-x="630" 
d="M343 -4q-38 2 -76 3t-76 1q-37 0 -73 -1t-72 -3v12q36 3 56 11t30.5 25t13 44.5t2.5 69.5v334q0 42 -2.5 69.5t-13 44.5t-31.5 25t-57 11v12q42 -2 81.5 -3t81.5 -1q33 0 66 1t65 3v-12q-29 -3 -48.5 -9t-31 -18t-16 -31t-4.5 -47q26 2 58 4.5t64 2.5q37 0 77.5 -13.5
t74.5 -39t55.5 -62t21.5 -82.5q0 -48 -22 -81t-55.5 -53.5t-74.5 -29.5t-80 -9q-24 0 -51.5 2.5t-67.5 13.5v-32q0 -42 2.5 -69.5t13 -44.5t31.5 -25t58 -11v-12zM238 226q23 -12 47.5 -16t48.5 -4q31 0 59.5 9.5t49.5 27t33.5 43.5t12.5 59q0 39 -12.5 71t-34.5 54
t-52.5 34t-66.5 12q-17 0 -39.5 -2.5t-45.5 -10.5v-277z" />
    <glyph glyph-name="germandbls" unicode="&#xdf;" horiz-adv-x="556" 
d="M254 118h16q5 -17 16 -34.5t26.5 -32t33.5 -24t36 -9.5q32 0 49.5 22t17.5 54q0 29 -12.5 53t-31.5 45t-40.5 40.5t-40.5 39t-31.5 40t-12.5 44.5q0 28 11.5 52.5t25 49.5t25 53t11.5 63q0 21 -5.5 40.5t-16.5 34.5t-28.5 24t-41.5 9q-32 0 -52.5 -18.5t-32.5 -45.5
t-16.5 -58.5t-4.5 -58.5v-355q0 -42 2 -68.5t10.5 -41t24 -20.5t42.5 -8v-12q-29 2 -59.5 3t-60.5 1q-29 0 -56.5 -1t-55.5 -3v12q25 2 40 7.5t23 16.5t10 30t2 48v223h-40l6 30h34v114q0 39 14.5 80.5t41.5 76t65.5 56.5t85.5 22q26 0 51.5 -6t46 -19.5t33 -34.5t12.5 -50
q0 -27 -14.5 -51t-31.5 -46.5t-31 -44t-14 -45.5q0 -23 13 -44.5t33 -43t42.5 -43.5t42.5 -46t33 -51t13 -59t-12.5 -57.5t-33.5 -44t-49 -28.5t-59 -10q-24 0 -50.5 6.5t-46.5 19.5z" />
    <glyph glyph-name="agrave" unicode="&#xe0;" horiz-adv-x="463" 
d="M54 292q8 31 22.5 49.5t33.5 28t43 12t51 2.5q26 0 51.5 -5.5t46 -18.5t33 -34.5t12.5 -52.5v-185q0 -19 10 -33.5t31 -14.5q20 0 35.5 11.5t29.5 22.5l10 -11l-23.5 -23.5t-28.5 -26t-30.5 -21t-30.5 -8.5q-10 0 -21 6.5t-21.5 15.5t-19.5 19t-16 17q-32 -22 -72 -40
t-78 -18q-21 0 -40.5 7t-34.5 20t-24 31t-9 41q0 41 23 65.5t59.5 37.5t83 17.5t93.5 5.5v76q0 37 -23 57t-58 20q-26 0 -41 -26t-15 -59zM271 170q-33 9 -67 9q-19 0 -38 -4.5t-34 -14.5t-24.5 -25.5t-9.5 -37.5q0 -34 23.5 -48.5t52.5 -14.5q32 0 58.5 13t38.5 22v101z
M240 433l-140 96q-12 8 -20.5 20.5t-8.5 23.5q0 32 41 32q14 0 26.5 -11.5t29.5 -30.5l116 -130h-44z" />
    <glyph glyph-name="aacute" unicode="&#xe1;" horiz-adv-x="463" 
d="M54 292q8 31 22.5 49.5t33.5 28t43 12t51 2.5q26 0 51.5 -5.5t46 -18.5t33 -34.5t12.5 -52.5v-185q0 -19 10 -33.5t31 -14.5q20 0 35.5 11.5t29.5 22.5l10 -11l-23.5 -23.5t-28.5 -26t-30.5 -21t-30.5 -8.5q-10 0 -21 6.5t-21.5 15.5t-19.5 19t-16 17q-32 -22 -72 -40
t-78 -18q-21 0 -40.5 7t-34.5 20t-24 31t-9 41q0 41 23 65.5t59.5 37.5t83 17.5t93.5 5.5v76q0 37 -23 57t-58 20q-26 0 -41 -26t-15 -59zM271 170q-33 9 -67 9q-19 0 -38 -4.5t-34 -14.5t-24.5 -25.5t-9.5 -37.5q0 -34 23.5 -48.5t52.5 -14.5q32 0 58.5 13t38.5 22v101z
M261 563q17 19 29.5 30.5t26.5 11.5q41 0 41 -32q0 -11 -8.5 -23.5t-20.5 -20.5l-140 -96h-44z" />
    <glyph glyph-name="acircumflex" unicode="&#xe2;" horiz-adv-x="463" 
d="M54 292q8 31 22.5 49.5t33.5 28t43 12t51 2.5q26 0 51.5 -5.5t46 -18.5t33 -34.5t12.5 -52.5v-185q0 -19 10 -33.5t31 -14.5q20 0 35.5 11.5t29.5 22.5l10 -11l-23.5 -23.5t-28.5 -26t-30.5 -21t-30.5 -8.5q-10 0 -21 6.5t-21.5 15.5t-19.5 19t-16 17q-32 -22 -72 -40
t-78 -18q-21 0 -40.5 7t-34.5 20t-24 31t-9 41q0 41 23 65.5t59.5 37.5t83 17.5t93.5 5.5v76q0 37 -23 57t-58 20q-26 0 -41 -26t-15 -59zM271 170q-33 9 -67 9q-19 0 -38 -4.5t-34 -14.5t-24.5 -25.5t-9.5 -37.5q0 -34 23.5 -48.5t52.5 -14.5q32 0 58.5 13t38.5 22v101z
M174 605h69l113 -172h-41l-106 110l-107 -110h-39z" />
    <glyph glyph-name="atilde" unicode="&#xe3;" horiz-adv-x="463" 
d="M54 292q8 31 22.5 49.5t33.5 28t43 12t51 2.5q26 0 51.5 -5.5t46 -18.5t33 -34.5t12.5 -52.5v-185q0 -19 10 -33.5t31 -14.5q20 0 35.5 11.5t29.5 22.5l10 -11l-23.5 -23.5t-28.5 -26t-30.5 -21t-30.5 -8.5q-10 0 -21 6.5t-21.5 15.5t-19.5 19t-16 17q-32 -22 -72 -40
t-78 -18q-21 0 -40.5 7t-34.5 20t-24 31t-9 41q0 41 23 65.5t59.5 37.5t83 17.5t93.5 5.5v76q0 37 -23 57t-58 20q-26 0 -41 -26t-15 -59zM271 170q-33 9 -67 9q-19 0 -38 -4.5t-34 -14.5t-24.5 -25.5t-9.5 -37.5q0 -34 23.5 -48.5t52.5 -14.5q32 0 58.5 13t38.5 22v101z
M364 571q-5 -21 -12 -41t-19 -36t-29 -26t-42 -10q-17 0 -34.5 7.5t-34 16.5t-32.5 16.5t-29 7.5q-20 0 -33 -16t-16 -33h-29q4 21 11 41t18.5 35t29 24t41.5 9q16 0 31.5 -7.5t32.5 -16.5q16 -9 32 -16.5t32 -7.5q14 0 23 7t14.5 16t8.5 18t5 12h31z" />
    <glyph glyph-name="adieresis" unicode="&#xe4;" horiz-adv-x="463" 
d="M54 292q8 31 22.5 49.5t33.5 28t43 12t51 2.5q26 0 51.5 -5.5t46 -18.5t33 -34.5t12.5 -52.5v-185q0 -19 10 -33.5t31 -14.5q20 0 35.5 11.5t29.5 22.5l10 -11l-23.5 -23.5t-28.5 -26t-30.5 -21t-30.5 -8.5q-10 0 -21 6.5t-21.5 15.5t-19.5 19t-16 17q-32 -22 -72 -40
t-78 -18q-21 0 -40.5 7t-34.5 20t-24 31t-9 41q0 41 23 65.5t59.5 37.5t83 17.5t93.5 5.5v76q0 37 -23 57t-58 20q-26 0 -41 -26t-15 -59zM271 170q-33 9 -67 9q-19 0 -38 -4.5t-34 -14.5t-24.5 -25.5t-9.5 -37.5q0 -34 23.5 -48.5t52.5 -14.5q32 0 58.5 13t38.5 22v101z
M116 553q23 0 38 -15t15 -38t-15 -38t-38 -15t-38 15t-15 38t15 38t38 15zM301 553q23 0 38 -15t15 -38t-15 -38t-38 -15t-38 15t-15 38t15 38t38 15z" />
    <glyph glyph-name="aring" unicode="&#xe5;" horiz-adv-x="463" 
d="M54 292q8 31 22.5 49.5t33.5 28t43 12t51 2.5q26 0 51.5 -5.5t46 -18.5t33 -34.5t12.5 -52.5v-185q0 -19 10 -33.5t31 -14.5q20 0 35.5 11.5t29.5 22.5l10 -11l-23.5 -23.5t-28.5 -26t-30.5 -21t-30.5 -8.5q-10 0 -21 6.5t-21.5 15.5t-19.5 19t-16 17q-32 -22 -72 -40
t-78 -18q-21 0 -40.5 7t-34.5 20t-24 31t-9 41q0 41 23 65.5t59.5 37.5t83 17.5t93.5 5.5v76q0 37 -23 57t-58 20q-26 0 -41 -26t-15 -59zM271 170q-33 9 -67 9q-19 0 -38 -4.5t-34 -14.5t-24.5 -25.5t-9.5 -37.5q0 -34 23.5 -48.5t52.5 -14.5q32 0 58.5 13t38.5 22v101z
M107 536q0 43 29.5 72.5t72.5 29.5t72.5 -29.5t29.5 -72.5t-29.5 -72.5t-72.5 -29.5t-72.5 29.5t-29.5 72.5zM147 536q0 -26 18 -44t44 -18t44 18t18 44t-18 44t-44 18t-44 -18t-18 -44z" />
    <glyph glyph-name="ae" unicode="&#xe6;" horiz-adv-x="685" 
d="M535 242q1 20 -4.5 40t-17.5 36t-29.5 26t-39.5 10q-21 0 -38.5 -10t-30 -26t-19 -36t-6.5 -40h185zM50 291q12 46 44 69.5t80 23.5q26 0 46.5 -2.5t39.5 -8.5t37 -16t39 -25q25 24 51.5 38t61.5 14q38 0 69.5 -13t54.5 -36.5t37 -55t18 -67.5h-280q-3 -32 4.5 -64
t24 -57.5t41.5 -41t58 -15.5q42 0 77 14.5t58 39.5l17 -15q-35 -38 -85.5 -63.5t-104.5 -25.5q-43 0 -82 17.5t-62 55.5q-38 -27 -81.5 -50t-91.5 -23q-46 0 -77.5 27.5t-31.5 75.5q0 37 21.5 60.5t57.5 36t83 17.5t98 6v70q-1 39 -22 58t-60 19q-15 0 -26 -7t-18 -18.5
t-10.5 -25t-3.5 -26.5zM96 98q0 -32 21 -48t50 -16q33 0 62.5 14.5t55.5 33.5q-12 40 -12 84q-20 6 -38.5 8.5t-38.5 2.5q-19 0 -37 -4.5t-32 -14t-22.5 -24.5t-8.5 -36z" />
    <glyph glyph-name="ccedilla" unicode="&#xe7;" horiz-adv-x="444" 
d="M368 216q-10 25 -22.5 50.5t-30 45.5t-41 33t-54.5 13t-53 -15t-35.5 -38.5t-20 -53t-6.5 -58.5q0 -33 11 -63t31 -53.5t48.5 -37t63.5 -13.5q37 0 70 13.5t63 34.5l14 -16q-45 -37 -88.5 -55.5t-97.5 -18.5q-39 0 -74.5 16t-62 43t-42.5 63.5t-16 77.5t16 77.5
t42.5 63.5t62 43t74.5 16q42 0 77 -4.5t70 -11.5l13 -152h-12zM132 -169q27 -15 61 -15q10 0 20.5 1.5t19.5 6t14.5 12t5.5 19.5q0 20 -10 33t-30 13q-9 0 -19 -1.5t-18 -6.5l-13 6l43 101h34l-27 -67q15 4 32 4q32 0 57 -16.5t25 -52.5q0 -26 -11 -42.5t-28 -27t-39 -14.5
t-43 -4q-46 0 -88 18z" />
    <glyph glyph-name="egrave" unicode="&#xe8;" horiz-adv-x="444" 
d="M104 210q0 -52 13.5 -86t34 -54t44 -28t43.5 -8q42 0 76 13.5t63 42.5l17 -16q-41 -44 -84 -67t-103 -23q-43 0 -77 17t-58 45t-36.5 64t-12.5 74t12.5 74t36.5 64t58 45t77 17q79 0 127 -43t59 -131h-290zM299 240q-3 27 -8 48.5t-16 36t-29 22t-46 7.5
q-21 0 -38.5 -10.5t-30 -27t-19 -37t-6.5 -39.5h193zM254 433l-140 96q-12 8 -20.5 20.5t-8.5 23.5q0 32 41 32q14 0 26.5 -11.5t29.5 -30.5l116 -130h-44z" />
    <glyph glyph-name="eacute" unicode="&#xe9;" horiz-adv-x="444" 
d="M104 210q0 -52 13.5 -86t34 -54t44 -28t43.5 -8q42 0 76 13.5t63 42.5l17 -16q-41 -44 -84 -67t-103 -23q-43 0 -77 17t-58 45t-36.5 64t-12.5 74t12.5 74t36.5 64t58 45t77 17q79 0 127 -43t59 -131h-290zM299 240q-3 27 -8 48.5t-16 36t-29 22t-46 7.5
q-21 0 -38.5 -10.5t-30 -27t-19 -37t-6.5 -39.5h193zM275 563q17 19 29.5 30.5t26.5 11.5q41 0 41 -32q0 -11 -8.5 -23.5t-20.5 -20.5l-140 -96h-44z" />
    <glyph glyph-name="ecircumflex" unicode="&#xea;" horiz-adv-x="444" 
d="M104 210q0 -52 13.5 -86t34 -54t44 -28t43.5 -8q42 0 76 13.5t63 42.5l17 -16q-41 -44 -84 -67t-103 -23q-43 0 -77 17t-58 45t-36.5 64t-12.5 74t12.5 74t36.5 64t58 45t77 17q79 0 127 -43t59 -131h-290zM299 240q-3 27 -8 48.5t-16 36t-29 22t-46 7.5
q-21 0 -38.5 -10.5t-30 -27t-19 -37t-6.5 -39.5h193zM188 605h69l113 -172h-41l-106 110l-107 -110h-39z" />
    <glyph glyph-name="edieresis" unicode="&#xeb;" horiz-adv-x="444" 
d="M104 210q0 -52 13.5 -86t34 -54t44 -28t43.5 -8q42 0 76 13.5t63 42.5l17 -16q-41 -44 -84 -67t-103 -23q-43 0 -77 17t-58 45t-36.5 64t-12.5 74t12.5 74t36.5 64t58 45t77 17q79 0 127 -43t59 -131h-290zM299 240q-3 27 -8 48.5t-16 36t-29 22t-46 7.5
q-21 0 -38.5 -10.5t-30 -27t-19 -37t-6.5 -39.5h193zM130 553q23 0 38 -15t15 -38t-15 -38t-38 -15t-38 15t-15 38t15 38t38 15zM315 553q23 0 38 -15t15 -38t-15 -38t-38 -15t-38 15t-15 38t15 38t38 15z" />
    <glyph glyph-name="igrave" unicode="&#xec;" horiz-adv-x="259" 
d="M81 249q0 24 -1.5 42.5t-9 31t-22.5 20.5t-41 11v14l152 10v-294q0 -25 4 -39.5t13.5 -22t24.5 -10.5t37 -4v-12q-35 2 -70.5 3t-70.5 1q-23 0 -45 -1t-45 -3v12q20 1 34 4t23 10.5t13 22t4 39.5v165zM147 433l-140 96q-12 8 -20.5 20.5t-8.5 23.5q0 32 41 32
q14 0 26.5 -11.5t29.5 -30.5l116 -130h-44z" />
    <glyph glyph-name="iacute" unicode="&#xed;" horiz-adv-x="259" 
d="M81 249q0 24 -1.5 42.5t-9 31t-22.5 20.5t-41 11v14l152 10v-294q0 -25 4 -39.5t13.5 -22t24.5 -10.5t37 -4v-12q-35 2 -70.5 3t-70.5 1q-23 0 -45 -1t-45 -3v12q20 1 34 4t23 10.5t13 22t4 39.5v165zM168 563q17 19 29.5 30.5t26.5 11.5q41 0 41 -32q0 -11 -8.5 -23.5
t-20.5 -20.5l-140 -96h-44z" />
    <glyph glyph-name="icircumflex" unicode="&#xee;" horiz-adv-x="259" 
d="M81 249q0 24 -1.5 42.5t-9 31t-22.5 20.5t-41 11v14l152 10v-294q0 -25 4 -39.5t13.5 -22t24.5 -10.5t37 -4v-12q-35 2 -70.5 3t-70.5 1q-23 0 -45 -1t-45 -3v12q20 1 34 4t23 10.5t13 22t4 39.5v165zM81 605h69l113 -172h-41l-106 110l-107 -110h-39z" />
    <glyph glyph-name="idieresis" unicode="&#xef;" horiz-adv-x="259" 
d="M81 249q0 24 -1.5 42.5t-9 31t-22.5 20.5t-41 11v14l152 10v-294q0 -25 4 -39.5t13.5 -22t24.5 -10.5t37 -4v-12q-35 2 -70.5 3t-70.5 1q-23 0 -45 -1t-45 -3v12q20 1 34 4t23 10.5t13 22t4 39.5v165zM23 553q23 0 38 -15t15 -38t-15 -38t-38 -15t-38 15t-15 38t15 38
t38 15zM208 553q23 0 38 -15t15 -38t-15 -38t-38 -15t-38 15t-15 38t15 38t38 15z" />
    <glyph glyph-name="eth" unicode="&#xf0;" 
d="M221 354q-28 0 -48.5 -14t-34 -36.5t-20 -51t-6.5 -56.5q0 -32 8.5 -64t26.5 -58.5t45 -43t65 -16.5q28 0 48.5 14t34 36.5t20 50.5t6.5 57q0 31 -9 63.5t-27 59t-45 43t-64 16.5zM112 712q32 -25 69 -56t75 -69l123 61l16 -29l-115 -57q35 -36 66.5 -77t55.5 -87
t38 -95.5t14 -102.5q0 -51 -15.5 -91t-44 -68t-68 -42.5t-87.5 -14.5t-87.5 14.5t-68 40.5t-44 63t-15.5 82t15.5 82t44 63t68 40.5t87.5 14.5q14 0 30.5 -2t46.5 -10q-8 38 -30 81.5t-52 85.5l-112 -56l-16 28l109 55q-30 42 -59.5 72t-61.5 58z" />
    <glyph glyph-name="ntilde" unicode="&#xf1;" horiz-adv-x="537" 
d="M14 356l146 22v-53q27 21 62 40t67 19q28 0 53.5 -7t45.5 -23t32 -43t12 -67v-176q0 -33 18 -43.5t52 -16.5v-12q-29 2 -62 3t-67 1q-23 0 -44.5 -1t-41.5 -3v12q32 6 49.5 16.5t17.5 43.5v161q0 51 -21.5 79t-69.5 28q-17 0 -35 -5t-33 -13.5t-25 -18.5t-10 -19v-212
q0 -33 19 -43.5t57 -16.5v-12q-34 2 -67.5 3t-67.5 1q-23 0 -44.5 -1t-44.5 -3v12q34 6 52 16.5t18 43.5v232q0 30 -20.5 37t-47.5 7v12zM418 571q-5 -21 -12 -41t-19 -36t-29 -26t-42 -10q-17 0 -34.5 7.5t-34 16.5t-32.5 16.5t-29 7.5q-20 0 -33 -16t-16 -33h-29
q4 21 11 41t18.5 35t29 24t41.5 9q16 0 31.5 -7.5t32.5 -16.5q16 -9 32 -16.5t32 -7.5q14 0 23 7t14.5 16t8.5 18t5 12h31z" />
    <glyph glyph-name="ograve" unicode="&#xf2;" 
d="M239 384q48 0 87.5 -14.5t68 -40.5t44 -63t15.5 -82t-15.5 -82t-44 -63t-68 -40.5t-87.5 -14.5t-87.5 14.5t-68 40.5t-44 63t-15.5 82t15.5 82t44 63t68 40.5t87.5 14.5zM221 354q-28 0 -48.5 -14t-34 -36.5t-20 -51t-6.5 -56.5q0 -32 8.5 -64t26.5 -58.5t45 -43
t65 -16.5q28 0 48.5 14t34 36.5t20 50.5t6.5 57q0 31 -9 63.5t-27 59t-45 43t-64 16.5zM276 433l-140 96q-12 8 -20.5 20.5t-8.5 23.5q0 32 41 32q14 0 26.5 -11.5t29.5 -30.5l116 -130h-44z" />
    <glyph glyph-name="oacute" unicode="&#xf3;" 
d="M239 384q48 0 87.5 -14.5t68 -40.5t44 -63t15.5 -82t-15.5 -82t-44 -63t-68 -40.5t-87.5 -14.5t-87.5 14.5t-68 40.5t-44 63t-15.5 82t15.5 82t44 63t68 40.5t87.5 14.5zM221 354q-28 0 -48.5 -14t-34 -36.5t-20 -51t-6.5 -56.5q0 -32 8.5 -64t26.5 -58.5t45 -43
t65 -16.5q28 0 48.5 14t34 36.5t20 50.5t6.5 57q0 31 -9 63.5t-27 59t-45 43t-64 16.5zM297 563q17 19 29.5 30.5t26.5 11.5q41 0 41 -32q0 -11 -8.5 -23.5t-20.5 -20.5l-140 -96h-44z" />
    <glyph glyph-name="ocircumflex" unicode="&#xf4;" 
d="M239 384q48 0 87.5 -14.5t68 -40.5t44 -63t15.5 -82t-15.5 -82t-44 -63t-68 -40.5t-87.5 -14.5t-87.5 14.5t-68 40.5t-44 63t-15.5 82t15.5 82t44 63t68 40.5t87.5 14.5zM221 354q-28 0 -48.5 -14t-34 -36.5t-20 -51t-6.5 -56.5q0 -32 8.5 -64t26.5 -58.5t45 -43
t65 -16.5q28 0 48.5 14t34 36.5t20 50.5t6.5 57q0 31 -9 63.5t-27 59t-45 43t-64 16.5zM210 605h69l113 -172h-41l-106 110l-107 -110h-39z" />
    <glyph glyph-name="otilde" unicode="&#xf5;" 
d="M239 384q48 0 87.5 -14.5t68 -40.5t44 -63t15.5 -82t-15.5 -82t-44 -63t-68 -40.5t-87.5 -14.5t-87.5 14.5t-68 40.5t-44 63t-15.5 82t15.5 82t44 63t68 40.5t87.5 14.5zM221 354q-28 0 -48.5 -14t-34 -36.5t-20 -51t-6.5 -56.5q0 -32 8.5 -64t26.5 -58.5t45 -43
t65 -16.5q28 0 48.5 14t34 36.5t20 50.5t6.5 57q0 31 -9 63.5t-27 59t-45 43t-64 16.5zM400 571q-5 -21 -12 -41t-19 -36t-29 -26t-42 -10q-17 0 -34.5 7.5t-34 16.5t-32.5 16.5t-29 7.5q-20 0 -33 -16t-16 -33h-29q4 21 11 41t18.5 35t29 24t41.5 9q16 0 31.5 -7.5
t32.5 -16.5q16 -9 32 -16.5t32 -7.5q14 0 23 7t14.5 16t8.5 18t5 12h31z" />
    <glyph glyph-name="odieresis" unicode="&#xf6;" 
d="M239 384q48 0 87.5 -14.5t68 -40.5t44 -63t15.5 -82t-15.5 -82t-44 -63t-68 -40.5t-87.5 -14.5t-87.5 14.5t-68 40.5t-44 63t-15.5 82t15.5 82t44 63t68 40.5t87.5 14.5zM221 354q-28 0 -48.5 -14t-34 -36.5t-20 -51t-6.5 -56.5q0 -32 8.5 -64t26.5 -58.5t45 -43
t65 -16.5q28 0 48.5 14t34 36.5t20 50.5t6.5 57q0 31 -9 63.5t-27 59t-45 43t-64 16.5zM152 553q23 0 38 -15t15 -38t-15 -38t-38 -15t-38 15t-15 38t15 38t38 15zM337 553q23 0 38 -15t15 -38t-15 -38t-38 -15t-38 15t-15 38t15 38t38 15z" />
    <glyph glyph-name="divide" unicode="&#xf7;" 
d="M433 159h-366v50h366v-50zM202 337q0 19 14.5 33t33.5 14q18 0 32.5 -14t14.5 -33t-14.5 -33.5t-32.5 -14.5q-19 0 -33.5 14.5t-14.5 33.5zM202 32q0 19 14.5 33t33.5 14q18 0 32.5 -14t14.5 -33t-14.5 -33.5t-32.5 -14.5q-19 0 -33.5 14.5t-14.5 33.5z" />
    <glyph glyph-name="oslash" unicode="&#xf8;" 
d="M304 323q-17 14 -37 22.5t-46 8.5q-28 0 -48.5 -14t-34 -36.5t-20 -51t-6.5 -56.5q0 -32 9 -64t27 -59zM168 50q36 -36 89 -36q28 0 48.5 14t34 36.5t20 50.5t6.5 57q0 35 -10.5 69t-30.5 60zM416 446l-57 -91q45 -26 70 -69.5t25 -101.5q0 -45 -15.5 -82t-44 -63
t-68 -40.5t-87.5 -14.5q-55 0 -100 20l-60 -96l-25 15l59 94q-42 26 -65.5 68t-23.5 99q0 45 15.5 82t44 63t68 40.5t87.5 14.5q51 0 93 -16l58 93z" />
    <glyph glyph-name="ugrave" unicode="&#xf9;" horiz-adv-x="537" 
d="M156 122q0 -42 21.5 -65t63.5 -23q32 0 63.5 15.5t46.5 32.5v211q0 13 -2 24t-10 19.5t-24 15t-43 10.5v11l157 11v-307q0 -38 19.5 -50.5t54.5 -14.5v-10q-38 -2 -76.5 -3t-75.5 -3v52q-35 -26 -73.5 -45t-83.5 -19q-48 0 -82 27t-34 83v207q0 30 -16.5 41t-58.5 16v13
l153 13v-262zM288 433l-140 96q-12 8 -20.5 20.5t-8.5 23.5q0 32 41 32q14 0 26.5 -11.5t29.5 -30.5l116 -130h-44z" />
    <glyph glyph-name="uacute" unicode="&#xfa;" horiz-adv-x="537" 
d="M156 122q0 -42 21.5 -65t63.5 -23q32 0 63.5 15.5t46.5 32.5v211q0 13 -2 24t-10 19.5t-24 15t-43 10.5v11l157 11v-307q0 -38 19.5 -50.5t54.5 -14.5v-10q-38 -2 -76.5 -3t-75.5 -3v52q-35 -26 -73.5 -45t-83.5 -19q-48 0 -82 27t-34 83v207q0 30 -16.5 41t-58.5 16v13
l153 13v-262zM309 563q17 19 29.5 30.5t26.5 11.5q41 0 41 -32q0 -11 -8.5 -23.5t-20.5 -20.5l-140 -96h-44z" />
    <glyph glyph-name="ucircumflex" unicode="&#xfb;" horiz-adv-x="537" 
d="M156 122q0 -42 21.5 -65t63.5 -23q32 0 63.5 15.5t46.5 32.5v211q0 13 -2 24t-10 19.5t-24 15t-43 10.5v11l157 11v-307q0 -38 19.5 -50.5t54.5 -14.5v-10q-38 -2 -76.5 -3t-75.5 -3v52q-35 -26 -73.5 -45t-83.5 -19q-48 0 -82 27t-34 83v207q0 30 -16.5 41t-58.5 16v13
l153 13v-262zM222 605h69l113 -172h-41l-106 110l-107 -110h-39z" />
    <glyph glyph-name="udieresis" unicode="&#xfc;" horiz-adv-x="537" 
d="M156 122q0 -42 21.5 -65t63.5 -23q32 0 63.5 15.5t46.5 32.5v211q0 13 -2 24t-10 19.5t-24 15t-43 10.5v11l157 11v-307q0 -38 19.5 -50.5t54.5 -14.5v-10q-38 -2 -76.5 -3t-75.5 -3v52q-35 -26 -73.5 -45t-83.5 -19q-48 0 -82 27t-34 83v207q0 30 -16.5 41t-58.5 16v13
l153 13v-262zM164 553q23 0 38 -15t15 -38t-15 -38t-38 -15t-38 15t-15 38t15 38t38 15zM349 553q23 0 38 -15t15 -38t-15 -38t-38 -15t-38 15t-15 38t15 38t38 15z" />
    <glyph glyph-name="yacute" unicode="&#xfd;" 
d="M-25 372q30 -3 55.5 -3.5t56.5 -0.5q30 0 61 0.5t61 3.5v-12q-22 -2 -42 -13t-20 -36q0 -20 13 -53.5t30.5 -72t36 -78.5t29.5 -74q5 10 15.5 33t24 52.5t27 61.5t25 60t19 49t7.5 28q0 12 -5.5 19t-13.5 11.5t-19 7t-21 5.5v12q23 -3 46 -3.5t47 -0.5q23 0 45 0.5
t45 3.5v-12q-28 -4 -54.5 -34.5t-49 -69.5t-39.5 -76.5t-26 -55.5q-42 -87 -76 -149t-61.5 -103.5t-50 -65.5t-43 -36.5t-40 -16t-40.5 -3.5q-18 0 -35.5 5t-31 15.5t-22 26.5t-8.5 38q0 20 14.5 36t34.5 16q23 0 37 -11.5t14 -35.5q0 -17 -8 -28.5t-8 -16.5q0 -6 14.5 -7.5
t28.5 -1.5q30 0 59 24.5t51.5 56t36.5 60t14 36.5q0 3 -7 20.5t-19 45t-27 61.5t-30 67.5t-30 65t-26 53.5q-10 23 -17 37t-17 22.5t-24 13.5t-37 11v12zM303 563q17 19 29.5 30.5t26.5 11.5q41 0 41 -32q0 -11 -8.5 -23.5t-20.5 -20.5l-140 -96h-44z" />
    <glyph glyph-name="thorn" unicode="&#xfe;" horiz-adv-x="537" 
d="M152 89q11 -30 45.5 -52.5t78.5 -22.5q62 0 92 47t30 119q0 30 -7.5 60t-22.5 54t-38 39t-54 15q-45 0 -79 -17t-45 -44v-198zM152 -151q0 -24 3 -39t15.5 -24t37 -13t67.5 -5v-12q-37 2 -74 3t-74 1q-34 0 -67.5 -1t-67.5 -3v12q21 2 36 5.5t25.5 11t15.5 21t5 36.5v770
q0 39 -12 54.5t-57 15.5v12l147 18v-376q36 26 67.5 37t75.5 11t79.5 -15t60 -42t38 -64t13.5 -81q0 -46 -17.5 -82.5t-47 -62t-69 -39.5t-82.5 -14q-31 0 -61 7.5t-57 24.5v-167z" />
    <glyph glyph-name="ydieresis" unicode="&#xff;" 
d="M-25 372q30 -3 55.5 -3.5t56.5 -0.5q30 0 61 0.5t61 3.5v-12q-22 -2 -42 -13t-20 -36q0 -20 13 -53.5t30.5 -72t36 -78.5t29.5 -74q5 10 15.5 33t24 52.5t27 61.5t25 60t19 49t7.5 28q0 12 -5.5 19t-13.5 11.5t-19 7t-21 5.5v12q23 -3 46 -3.5t47 -0.5q23 0 45 0.5
t45 3.5v-12q-28 -4 -54.5 -34.5t-49 -69.5t-39.5 -76.5t-26 -55.5q-42 -87 -76 -149t-61.5 -103.5t-50 -65.5t-43 -36.5t-40 -16t-40.5 -3.5q-18 0 -35.5 5t-31 15.5t-22 26.5t-8.5 38q0 20 14.5 36t34.5 16q23 0 37 -11.5t14 -35.5q0 -17 -8 -28.5t-8 -16.5q0 -6 14.5 -7.5
t28.5 -1.5q30 0 59 24.5t51.5 56t36.5 60t14 36.5q0 3 -7 20.5t-19 45t-27 61.5t-30 67.5t-30 65t-26 53.5q-10 23 -17 37t-17 22.5t-24 13.5t-37 11v12zM158 553q23 0 38 -15t15 -38t-15 -38t-38 -15t-38 15t-15 38t15 38t38 15zM343 553q23 0 38 -15t15 -38t-15 -38
t-38 -15t-38 15t-15 38t15 38t38 15z" />
    <glyph glyph-name="uni0100.AMacron" unicode="&#x100;" horiz-adv-x="704" 
d="M218 289l-66 -181q-3 -8 -5.5 -14t-2.5 -13q0 -18 10.5 -31t25.5 -21.5t31 -13.5t27 -7v-12q-30 2 -60 3t-61 1q-30 0 -58.5 -1t-60.5 -3v12q31 7 51.5 21.5t34.5 34.5t24.5 44t20.5 50l173 425q3 7 5.5 13t2.5 11t-3.5 15t-8.5 18q26 5 45 13t42 17l208 -572
q14 -39 39 -61.5t74 -28.5v-12q-40 2 -78.5 3t-80.5 1h-47t-36 -0.5t-30.5 -1.5t-31.5 -2v12q42 5 70.5 21.5t28.5 44.5q0 8 -3.5 16t-5.5 15l-65 184h-209zM326 573l-98 -254h188zM210 758v56h284v-56h-284z" />
    <glyph glyph-name="uni0101.aMacron" unicode="&#x101;" horiz-adv-x="463" 
d="M54 292q8 31 22.5 49.5t33.5 28t43 12t51 2.5q26 0 51.5 -5.5t46 -18.5t33 -34.5t12.5 -52.5v-185q0 -19 10 -33.5t31 -14.5q20 0 35.5 11.5t29.5 22.5l10 -11l-23.5 -23.5t-28.5 -26t-30.5 -21t-30.5 -8.5q-10 0 -21 6.5t-21.5 15.5t-19.5 19t-16 17q-32 -22 -72 -40
t-78 -18q-21 0 -40.5 7t-34.5 20t-24 31t-9 41q0 41 23 65.5t59.5 37.5t83 17.5t93.5 5.5v76q0 37 -23 57t-58 20q-26 0 -41 -26t-15 -59zM271 170q-33 9 -67 9q-19 0 -38 -4.5t-34 -14.5t-24.5 -25.5t-9.5 -37.5q0 -34 23.5 -48.5t52.5 -14.5q32 0 58.5 13t38.5 22v101z
M69 472v56h284v-56h-284z" />
    <glyph glyph-name="uni0102.ABreve" unicode="&#x102;" horiz-adv-x="704" 
d="M218 289l-66 -181q-3 -8 -5.5 -14t-2.5 -13q0 -18 10.5 -31t25.5 -21.5t31 -13.5t27 -7v-12q-30 2 -60 3t-61 1q-30 0 -58.5 -1t-60.5 -3v12q31 7 51.5 21.5t34.5 34.5t24.5 44t20.5 50l173 425q3 7 5.5 13t2.5 11t-3.5 15t-8.5 18q26 5 45 13t42 17l208 -572
q14 -39 39 -61.5t74 -28.5v-12q-40 2 -78.5 3t-80.5 1h-47t-36 -0.5t-30.5 -1.5t-31.5 -2v12q42 5 70.5 21.5t28.5 44.5q0 8 -3.5 16t-5.5 15l-65 184h-209zM326 573l-98 -254h188zM255 867q5 -42 32 -64t65 -22t65 22t32 64h32q-1 -29 -8.5 -56t-22.5 -47.5t-39 -32.5
t-58 -12q-35 0 -58.5 12t-39 32.5t-23 47.5t-9.5 56h32z" />
    <glyph glyph-name="uni0103.aBreve" unicode="&#x103;" horiz-adv-x="463" 
d="M54 292q8 31 22.5 49.5t33.5 28t43 12t51 2.5q26 0 51.5 -5.5t46 -18.5t33 -34.5t12.5 -52.5v-185q0 -19 10 -33.5t31 -14.5q20 0 35.5 11.5t29.5 22.5l10 -11l-23.5 -23.5t-28.5 -26t-30.5 -21t-30.5 -8.5q-10 0 -21 6.5t-21.5 15.5t-19.5 19t-16 17q-32 -22 -72 -40
t-78 -18q-21 0 -40.5 7t-34.5 20t-24 31t-9 41q0 41 23 65.5t59.5 37.5t83 17.5t93.5 5.5v76q0 37 -23 57t-58 20q-26 0 -41 -26t-15 -59zM271 170q-33 9 -67 9q-19 0 -38 -4.5t-34 -14.5t-24.5 -25.5t-9.5 -37.5q0 -34 23.5 -48.5t52.5 -14.5q32 0 58.5 13t38.5 22v101z
M114 581q5 -42 32 -64t65 -22t65 22t32 64h32q-1 -29 -8.5 -56t-22.5 -47.5t-39 -32.5t-58 -12q-35 0 -58.5 12t-39 32.5t-23 47.5t-9.5 56h32z" />
    <glyph glyph-name="Aogonek" unicode="&#x104;" horiz-adv-x="704" 
d="M466 -212q-39 0 -67 23.5t-28 62.5q0 25 13 44.5t33.5 35t46.5 27t52 19.5q-38 0 -62 -1t-52 -3v12q42 5 70.5 21.5t28.5 44.5q0 8 -3.5 16t-5.5 15l-65 184h-209l-66 -181q-3 -8 -5.5 -14t-2.5 -13q0 -18 10.5 -31t25.5 -21.5t31 -13.5t27 -7v-12q-30 2 -60 3t-61 1
q-30 0 -58.5 -1t-60.5 -3v12q31 7 51.5 21.5t34.5 34.5t24.5 44t20.5 50l173 425q3 7 5.5 13t2.5 11t-3.5 15t-8.5 18q26 5 45 13t42 17l208 -572q14 -39 39 -61.5t74 -28.5v-12q-34 2 -67 3t-67 1q-19 -8 -41.5 -19.5t-41.5 -25.5t-31.5 -31t-12.5 -36q0 -23 14.5 -37.5
t37.5 -14.5q29 0 54.5 12.5t48.5 28.5l17 -32q-35 -23 -72 -40t-79 -17zM326 573l-98 -254h188z" />
    <glyph glyph-name="aogonek" unicode="&#x105;" horiz-adv-x="463" 
d="M292 -212q-39 0 -67 23.5t-28 62.5q0 22 11 40.5t28.5 33.5t40.5 26.5t47 19.5q-15 10 -29 24.5t-23 23.5q-32 -22 -72 -40t-78 -18q-21 0 -40.5 7t-34.5 20t-24 31t-9 41q0 41 23 65.5t59.5 37.5t83 17.5t93.5 5.5v76q0 37 -23 57t-58 20q-26 0 -41 -26t-15 -59l-82 15
q8 31 22.5 49.5t33.5 28t43 12t51 2.5q26 0 51.5 -5.5t46 -18.5t33 -34.5t12.5 -52.5v-185q0 -19 10 -33.5t31 -14.5q20 0 35.5 11.5t29.5 22.5l10 -11q-16 -16 -39.5 -39t-48.5 -34q-18 -8 -36.5 -19t-33.5 -24t-24.5 -28t-9.5 -31q0 -23 14.5 -37.5t37.5 -14.5
q29 0 54.5 12.5t48.5 28.5l17 -32q-35 -23 -72 -40t-79 -17zM174 34q32 0 58.5 13t38.5 22v101q-33 9 -67 9q-19 0 -38 -4.5t-34 -14.5t-24.5 -25.5t-9.5 -37.5q0 -34 23.5 -48.5t52.5 -14.5z" />
    <glyph glyph-name="Cacute" unicode="&#x106;" horiz-adv-x="704" 
d="M624 426q-13 45 -34.5 83t-51 66t-68 43.5t-86.5 15.5q-62 0 -105 -24t-70.5 -65t-40 -95t-12.5 -114t16 -114.5t47.5 -95.5t79 -65.5t109.5 -24.5q93 0 160.5 47t119.5 128l25 -20q-34 -51 -68 -90t-74 -66t-87 -41t-106 -14q-67 0 -127 25.5t-105 71t-71.5 109
t-26.5 139.5t26.5 139.5t71.5 109t105 71t127 25.5q37 0 69 -4.5t61.5 -9.5t57 -10t54.5 -6q0 -21 1.5 -49t4.5 -57.5t6 -58t6 -49.5h-14zM411 822q17 19 29.5 30.5t26.5 11.5q41 0 41 -32q0 -11 -8.5 -23.5t-20.5 -20.5l-140 -96h-44z" />
    <glyph glyph-name="cacute" unicode="&#x107;" horiz-adv-x="444" 
d="M368 216q-10 25 -22.5 50.5t-30 45.5t-41 33t-54.5 13t-53 -15t-35.5 -38.5t-20 -53t-6.5 -58.5q0 -33 11 -63t31 -53.5t48.5 -37t63.5 -13.5q37 0 70 13.5t63 34.5l14 -16q-45 -37 -88.5 -55.5t-97.5 -18.5q-39 0 -74.5 16t-62 43t-42.5 63.5t-16 77.5t16 77.5
t42.5 63.5t62 43t74.5 16q42 0 77 -4.5t70 -11.5l13 -152h-12zM271 563q17 19 29.5 30.5t26.5 11.5q41 0 41 -32q0 -11 -8.5 -23.5t-20.5 -20.5l-140 -96h-44z" />
    <glyph glyph-name="uni0108.CCircumflex" unicode="&#x108;" horiz-adv-x="704" 
d="M624 426q-13 45 -34.5 83t-51 66t-68 43.5t-86.5 15.5q-62 0 -105 -24t-70.5 -65t-40 -95t-12.5 -114t16 -114.5t47.5 -95.5t79 -65.5t109.5 -24.5q93 0 160.5 47t119.5 128l25 -20q-34 -51 -68 -90t-74 -66t-87 -41t-106 -14q-67 0 -127 25.5t-105 71t-71.5 109
t-26.5 139.5t26.5 139.5t71.5 109t105 71t127 25.5q37 0 69 -4.5t61.5 -9.5t57 -10t54.5 -6q0 -21 1.5 -49t4.5 -57.5t6 -58t6 -49.5h-14zM366 891h69l113 -172h-41l-106 110l-107 -110h-39z" />
    <glyph glyph-name="uni0109.cCircumflex" unicode="&#x109;" horiz-adv-x="444" 
d="M368 216q-10 25 -22.5 50.5t-30 45.5t-41 33t-54.5 13t-53 -15t-35.5 -38.5t-20 -53t-6.5 -58.5q0 -33 11 -63t31 -53.5t48.5 -37t63.5 -13.5q37 0 70 13.5t63 34.5l14 -16q-45 -37 -88.5 -55.5t-97.5 -18.5q-39 0 -74.5 16t-62 43t-42.5 63.5t-16 77.5t16 77.5
t42.5 63.5t62 43t74.5 16q42 0 77 -4.5t70 -11.5l13 -152h-12zM196 605h69l113 -172h-41l-106 110l-107 -110h-39z" />
    <glyph glyph-name="uni010A.CDot" unicode="&#x10a;" horiz-adv-x="704" 
d="M624 426q-13 45 -34.5 83t-51 66t-68 43.5t-86.5 15.5q-62 0 -105 -24t-70.5 -65t-40 -95t-12.5 -114t16 -114.5t47.5 -95.5t79 -65.5t109.5 -24.5q93 0 160.5 47t119.5 128l25 -20q-34 -51 -68 -90t-74 -66t-87 -41t-106 -14q-67 0 -127 25.5t-105 71t-71.5 109
t-26.5 139.5t26.5 139.5t71.5 109t105 71t127 25.5q37 0 69 -4.5t61.5 -9.5t57 -10t54.5 -6q0 -21 1.5 -49t4.5 -57.5t6 -58t6 -49.5h-14zM402 839q23 0 38 -15t15 -38t-15 -38t-38 -15t-38 15t-15 38t15 38t38 15z" />
    <glyph glyph-name="uni010B.cDot" unicode="&#x10b;" horiz-adv-x="444" 
d="M368 216q-10 25 -22.5 50.5t-30 45.5t-41 33t-54.5 13t-53 -15t-35.5 -38.5t-20 -53t-6.5 -58.5q0 -33 11 -63t31 -53.5t48.5 -37t63.5 -13.5q37 0 70 13.5t63 34.5l14 -16q-45 -37 -88.5 -55.5t-97.5 -18.5q-39 0 -74.5 16t-62 43t-42.5 63.5t-16 77.5t16 77.5
t42.5 63.5t62 43t74.5 16q42 0 77 -4.5t70 -11.5l13 -152h-12zM242 553q23 0 38 -15t15 -38t-15 -38t-38 -15t-38 15t-15 38t15 38t38 15z" />
    <glyph glyph-name="uni010C.CCaron" unicode="&#x10c;" horiz-adv-x="704" 
d="M624 426q-13 45 -34.5 83t-51 66t-68 43.5t-86.5 15.5q-62 0 -105 -24t-70.5 -65t-40 -95t-12.5 -114t16 -114.5t47.5 -95.5t79 -65.5t109.5 -24.5q93 0 160.5 47t119.5 128l25 -20q-34 -51 -68 -90t-74 -66t-87 -41t-106 -14q-67 0 -127 25.5t-105 71t-71.5 109
t-26.5 139.5t26.5 139.5t71.5 109t105 71t127 25.5q37 0 69 -4.5t61.5 -9.5t57 -10t54.5 -6q0 -21 1.5 -49t4.5 -57.5t6 -58t6 -49.5h-14zM435 719h-69l-111 172h39l107 -114l106 114h41z" />
    <glyph glyph-name="uni010D.cCaron" unicode="&#x10d;" horiz-adv-x="444" 
d="M368 216q-10 25 -22.5 50.5t-30 45.5t-41 33t-54.5 13t-53 -15t-35.5 -38.5t-20 -53t-6.5 -58.5q0 -33 11 -63t31 -53.5t48.5 -37t63.5 -13.5q37 0 70 13.5t63 34.5l14 -16q-45 -37 -88.5 -55.5t-97.5 -18.5q-39 0 -74.5 16t-62 43t-42.5 63.5t-16 77.5t16 77.5
t42.5 63.5t62 43t74.5 16q42 0 77 -4.5t70 -11.5l13 -152h-12zM275 433h-69l-111 172h39l107 -114l106 114h41z" />
    <glyph glyph-name="uni010E.DCaron" unicode="&#x10e;" horiz-adv-x="833" 
d="M39 8q33 3 52.5 11t30 18.5t13.5 22.5t3 24v462q0 22 -2.5 38.5t-12.5 28.5t-30 19t-54 10v12q26 -2 52 -3t52 -1q70 0 130 7t123 7q81 0 152 -25t124.5 -71.5t84.5 -112.5t31 -148q0 -83 -30 -141.5t-80 -96t-114.5 -54.5t-134.5 -17q-54 0 -92.5 0.5t-67.5 0.5t-52 0.5
t-44 0.5q-34 0 -67 -1t-67 -3v12zM228 76q32 -30 73.5 -42t83.5 -12q154 0 224.5 79t70.5 229q0 65 -23.5 121.5t-65 98.5t-99 66t-125.5 24q-70 0 -133 -28q-4 -52 -5 -103.5t-1 -105.5v-327zM450 719h-69l-111 172h39l107 -114l106 114h41z" />
    <glyph glyph-name="uni010F.dCaron" unicode="&#x10f;" horiz-adv-x="643" 
d="M432 101q0 -26 3 -43t12 -27.5t25.5 -14.5t43.5 -4v-12q-40 0 -79.5 -1t-81.5 -3v37q-23 -20 -64.5 -34.5t-89.5 -14.5q-41 0 -74.5 15.5t-57 42t-36.5 61.5t-13 73q0 45 16 83t44.5 66t67 43.5t83.5 15.5q33 0 64 -12t59 -29v259q0 24 -3.5 39t-13.5 24t-26.5 13
t-41.5 6v12l163 16v-611zM354 276q-3 13 -14.5 27.5t-28.5 26t-38.5 19t-43.5 7.5q-34 0 -57.5 -15t-38.5 -39.5t-22 -55t-7 -60.5t7 -60.5t22 -55t38.5 -39.5t57.5 -15q23 0 44 7t38 17.5t28.5 22.5t14.5 21v192zM538 624q14 29 26 43.5t35 14.5q13 0 22 -8t9 -23
q0 -22 -17 -42l-84 -99h-47z" />
    <glyph glyph-name="uni0110.DMacron" unicode="&#x110;" horiz-adv-x="833" 
d="M138 370v176q0 22 -2.5 38.5t-12.5 28.5t-30 19t-54 10v12q26 -2 52 -3t52 -1q70 0 130 7t123 7q81 0 152 -25t124.5 -71.5t84.5 -112.5t31 -148q0 -83 -30 -141.5t-80 -96t-114.5 -54.5t-134.5 -17q-54 0 -92.5 0.5t-67.5 0.5t-52 0.5t-44 0.5q-34 0 -67 -1t-67 -3v12
q33 3 52.5 11t30 18.5t13.5 22.5t3 24v254h-98v32h98zM432 370v-32h-204v-262q32 -30 73.5 -42t83.5 -12q154 0 224.5 79t70.5 229q0 65 -23.5 121.5t-65 98.5t-99 66t-125.5 24q-70 0 -133 -28q-4 -52 -5 -103.5t-1 -105.5v-33h204z" />
    <glyph glyph-name="uni0111.dMacron" unicode="&#x111;" horiz-adv-x="537" 
d="M432 472v-371q0 -26 3 -43t12 -27.5t25.5 -14.5t43.5 -4v-12q-40 0 -79.5 -1t-81.5 -3v37q-23 -20 -64.5 -34.5t-89.5 -14.5q-41 0 -74.5 15.5t-57 42t-36.5 61.5t-13 73q0 45 16 83t44.5 66t67 43.5t83.5 15.5q33 0 64 -12t59 -29v129h-149v56h149v74q0 24 -4 39
t-13.5 24t-26 13t-41.5 6v12l163 16v-184h57v-56h-57zM354 276q-3 13 -14.5 27.5t-28.5 26t-38.5 19t-43.5 7.5q-34 0 -57.5 -15t-38.5 -39.5t-22 -55t-7 -60.5t7 -60.5t22 -55t38.5 -39.5t57.5 -15q23 0 44 7t38 17.5t28.5 22.5t14.5 21v192z" />
    <glyph glyph-name="uni0112.EMacron" unicode="&#x112;" horiz-adv-x="685" 
d="M230 39q9 -2 22 -4t28 -4t31 -3.5t30 -1.5q60 0 107.5 10t87 32t74.5 56t71 82l11 -9l-91 -201q-17 2 -35 3t-35 1h-376q-29 0 -58 -1t-58 -3v12q36 3 56 11t30 25t12.5 44.5t2.5 69.5v334q0 42 -2.5 69.5t-12.5 44.5t-31 25t-57 11v12q34 -1 64.5 -2t63 -1.5t69 -0.5
h82.5q70 0 140 1t142 3q-1 -11 -1.5 -22t-0.5 -21v-40q0 -22 2 -44.5t4 -49.5l-13 -4q-13 48 -34.5 78.5t-50 47.5t-62.5 23t-72 6q-70 0 -140 -6v-250q20 0 38.5 1t38.5 1q69 0 109.5 27.5t49.5 100.5h12q0 -36 -1 -72t-1 -71q0 -36 1 -72t1 -72h-12q-9 42 -22 68.5
t-32.5 40.5t-48.5 19t-69 5h-64v-309zM220 758v56h284v-56h-284z" />
    <glyph glyph-name="uni0113.eMacron" unicode="&#x113;" horiz-adv-x="444" 
d="M104 210q0 -52 13.5 -86t34 -54t44 -28t43.5 -8q42 0 76 13.5t63 42.5l17 -16q-41 -44 -84 -67t-103 -23q-43 0 -77 17t-58 45t-36.5 64t-12.5 74t12.5 74t36.5 64t58 45t77 17q79 0 127 -43t59 -131h-290zM299 240q-3 27 -8 48.5t-16 36t-29 22t-46 7.5
q-21 0 -38.5 -10.5t-30 -27t-19 -37t-6.5 -39.5h193zM70 472v56h284v-56h-284z" />
    <glyph glyph-name="uni0114.EBreve" unicode="&#x114;" horiz-adv-x="685" 
d="M230 39q9 -2 22 -4t28 -4t31 -3.5t30 -1.5q60 0 107.5 10t87 32t74.5 56t71 82l11 -9l-91 -201q-17 2 -35 3t-35 1h-376q-29 0 -58 -1t-58 -3v12q36 3 56 11t30 25t12.5 44.5t2.5 69.5v334q0 42 -2.5 69.5t-12.5 44.5t-31 25t-57 11v12q34 -1 64.5 -2t63 -1.5t69 -0.5
h82.5q70 0 140 1t142 3q-1 -11 -1.5 -22t-0.5 -21v-40q0 -22 2 -44.5t4 -49.5l-13 -4q-13 48 -34.5 78.5t-50 47.5t-62.5 23t-72 6q-70 0 -140 -6v-250q20 0 38.5 1t38.5 1q69 0 109.5 27.5t49.5 100.5h12q0 -36 -1 -72t-1 -71q0 -36 1 -72t1 -72h-12q-9 42 -22 68.5
t-32.5 40.5t-48.5 19t-69 5h-64v-309zM265 867q5 -42 32 -64t65 -22t65 22t32 64h32q-1 -29 -8.5 -56t-22.5 -47.5t-39 -32.5t-58 -12q-35 0 -58.5 12t-39 32.5t-23 47.5t-9.5 56h32z" />
    <glyph glyph-name="uni0115.eBreve" unicode="&#x115;" horiz-adv-x="444" 
d="M104 210q0 -52 13.5 -86t34 -54t44 -28t43.5 -8q42 0 76 13.5t63 42.5l17 -16q-41 -44 -84 -67t-103 -23q-43 0 -77 17t-58 45t-36.5 64t-12.5 74t12.5 74t36.5 64t58 45t77 17q79 0 127 -43t59 -131h-290zM299 240q-3 27 -8 48.5t-16 36t-29 22t-46 7.5
q-21 0 -38.5 -10.5t-30 -27t-19 -37t-6.5 -39.5h193zM115 581q5 -42 32 -64t65 -22t65 22t32 64h32q-1 -29 -8.5 -56t-22.5 -47.5t-39 -32.5t-58 -12q-35 0 -58.5 12t-39 32.5t-23 47.5t-9.5 56h32z" />
    <glyph glyph-name="uni0116.EDot" unicode="&#x116;" horiz-adv-x="685" 
d="M230 39q9 -2 22 -4t28 -4t31 -3.5t30 -1.5q60 0 107.5 10t87 32t74.5 56t71 82l11 -9l-91 -201q-17 2 -35 3t-35 1h-376q-29 0 -58 -1t-58 -3v12q36 3 56 11t30 25t12.5 44.5t2.5 69.5v334q0 42 -2.5 69.5t-12.5 44.5t-31 25t-57 11v12q34 -1 64.5 -2t63 -1.5t69 -0.5
h82.5q70 0 140 1t142 3q-1 -11 -1.5 -22t-0.5 -21v-40q0 -22 2 -44.5t4 -49.5l-13 -4q-13 48 -34.5 78.5t-50 47.5t-62.5 23t-72 6q-70 0 -140 -6v-250q20 0 38.5 1t38.5 1q69 0 109.5 27.5t49.5 100.5h12q0 -36 -1 -72t-1 -71q0 -36 1 -72t1 -72h-12q-9 42 -22 68.5
t-32.5 40.5t-48.5 19t-69 5h-64v-309zM362 839q23 0 38 -15t15 -38t-15 -38t-38 -15t-38 15t-15 38t15 38t38 15z" />
    <glyph glyph-name="uni0117.eDot" unicode="&#x117;" horiz-adv-x="444" 
d="M104 210q0 -52 13.5 -86t34 -54t44 -28t43.5 -8q42 0 76 13.5t63 42.5l17 -16q-41 -44 -84 -67t-103 -23q-43 0 -77 17t-58 45t-36.5 64t-12.5 74t12.5 74t36.5 64t58 45t77 17q79 0 127 -43t59 -131h-290zM299 240q-3 27 -8 48.5t-16 36t-29 22t-46 7.5
q-21 0 -38.5 -10.5t-30 -27t-19 -37t-6.5 -39.5h193zM212 553q23 0 38 -15t15 -38t-15 -38t-38 -15t-38 15t-15 38t15 38t38 15z" />
    <glyph glyph-name="Eogonek" unicode="&#x118;" horiz-adv-x="685" 
d="M464 -212q-39 0 -67 23.5t-28 62.5q0 25 13 44.5t33.5 35t46.5 27t52 19.5h-359q-29 0 -58 -1t-58 -3v12q36 3 56 11t30 25t12.5 44.5t2.5 69.5v334q0 42 -2.5 69.5t-12.5 44.5t-31 25t-57 11v12q34 -1 64.5 -2t63 -1.5t69 -0.5h82.5q70 0 140 1t142 3q-1 -11 -1.5 -22
t-0.5 -21v-40q0 -22 2 -44.5t4 -49.5l-13 -4q-13 48 -34.5 78.5t-50 47.5t-62.5 23t-72 6q-70 0 -140 -6v-250q20 0 38.5 1t38.5 1q69 0 109.5 27.5t49.5 100.5h12q0 -36 -1 -72t-1 -71q0 -36 1 -72t1 -72h-12q-9 42 -22 68.5t-32.5 40.5t-48.5 19t-69 5h-64v-309
q9 -2 22 -4t28 -4t31 -3.5t30 -1.5q60 0 107.5 10t87 32t74.5 56t71 82l11 -9l-91 -201q-17 3 -33 3q-19 -8 -41 -19t-40.5 -25t-31 -31t-12.5 -36q0 -23 14.5 -37.5t37.5 -14.5q29 0 54.5 12.5t48.5 28.5l17 -32q-35 -23 -72 -40t-79 -17z" />
    <glyph glyph-name="eogonek" unicode="&#x119;" horiz-adv-x="444" 
d="M193 -212q-39 0 -67 23.5t-28 62.5q0 19 8.5 35.5t22.5 30t32.5 24.5t38.5 20q-38 0 -70.5 17t-56 45t-36.5 64t-13 74t12.5 74t36.5 64t58 45t77 17q79 0 127 -43t59 -131h-290q0 -52 13.5 -86t34 -54t44 -28t43.5 -8q42 0 76 13.5t63 42.5l17 -16q-25 -26 -49.5 -44.5
t-53.5 -30.5q-19 -8 -40 -19.5t-39 -25.5t-29.5 -31t-11.5 -35q0 -23 14.5 -37.5t37.5 -14.5q29 0 54.5 12.5t48.5 28.5l17 -32q-35 -23 -72 -40t-79 -17zM299 240q-3 27 -8 48.5t-16 36t-29 22t-46 7.5q-21 0 -38.5 -10.5t-30 -27t-19 -37t-6.5 -39.5h193z" />
    <glyph glyph-name="uni011A.ECaron" unicode="&#x11a;" horiz-adv-x="685" 
d="M230 39q9 -2 22 -4t28 -4t31 -3.5t30 -1.5q60 0 107.5 10t87 32t74.5 56t71 82l11 -9l-91 -201q-17 2 -35 3t-35 1h-376q-29 0 -58 -1t-58 -3v12q36 3 56 11t30 25t12.5 44.5t2.5 69.5v334q0 42 -2.5 69.5t-12.5 44.5t-31 25t-57 11v12q34 -1 64.5 -2t63 -1.5t69 -0.5
h82.5q70 0 140 1t142 3q-1 -11 -1.5 -22t-0.5 -21v-40q0 -22 2 -44.5t4 -49.5l-13 -4q-13 48 -34.5 78.5t-50 47.5t-62.5 23t-72 6q-70 0 -140 -6v-250q20 0 38.5 1t38.5 1q69 0 109.5 27.5t49.5 100.5h12q0 -36 -1 -72t-1 -71q0 -36 1 -72t1 -72h-12q-9 42 -22 68.5
t-32.5 40.5t-48.5 19t-69 5h-64v-309zM396 719h-69l-111 172h39l107 -114l106 114h41z" />
    <glyph glyph-name="uni011B.eCaron" unicode="&#x11b;" horiz-adv-x="444" 
d="M104 210q0 -52 13.5 -86t34 -54t44 -28t43.5 -8q42 0 76 13.5t63 42.5l17 -16q-41 -44 -84 -67t-103 -23q-43 0 -77 17t-58 45t-36.5 64t-12.5 74t12.5 74t36.5 64t58 45t77 17q79 0 127 -43t59 -131h-290zM299 240q-3 27 -8 48.5t-16 36t-29 22t-46 7.5
q-21 0 -38.5 -10.5t-30 -27t-19 -37t-6.5 -39.5h193zM245 433h-69l-111 172h39l107 -114l106 114h41z" />
    <glyph glyph-name="uni011C.GCircumflex" unicode="&#x11c;" horiz-adv-x="778" 
d="M644 440q-19 38 -40.5 74t-49.5 64t-64.5 45t-85.5 17q-57 0 -101.5 -28t-76 -73t-48 -101t-16.5 -112q0 -63 16.5 -119.5t48 -98.5t76 -67t101.5 -25q48 0 94 9.5t86 38.5v129q0 68 -103 71v12q38 -1 70 -2.5t72 -1.5q37 0 74 1t74 3v-12q-21 -1 -39 -5t-30.5 -13
t-20 -24.5t-7.5 -39.5v-140q-69 -23 -136.5 -42.5t-130.5 -19.5q-67 0 -131 22.5t-114.5 66.5t-81 108t-30.5 148q0 73 30.5 136.5t81 109.5t114.5 72.5t131 26.5q41 0 74 -3.5t60 -9t49 -11.5t42 -11q0 -16 2.5 -42.5t6.5 -55t8 -55t7 -42.5h-12zM373 891h69l113 -172h-41
l-106 110l-107 -110h-39z" />
    <glyph glyph-name="uni011D.gCircumflex" unicode="&#x11d;" 
d="M416 287q4 15 4 33q0 11 -10 16.5t-24 5.5q-8 0 -19 -5t-17 -8q8 -21 12.5 -40t4.5 -42q0 -27 -10 -50t-29 -40.5t-48 -27.5t-66 -10q-50 0 -92 24q-17 -10 -32.5 -23.5t-15.5 -36.5t16.5 -31t61.5 -8q10 0 24.5 1t30.5 2l32 2t30 1q34 0 63 -5.5t49 -19.5t31.5 -39
t11.5 -64q0 -47 -21.5 -79.5t-55 -53t-74.5 -30t-81 -9.5q-31 0 -64 7t-60 22.5t-44.5 41.5t-17.5 64q0 29 12.5 54t33.5 45q-30 23 -30 65q0 40 21.5 67.5t56.5 42.5q-20 14 -29.5 38t-9.5 53t10.5 53.5t29.5 42.5t45.5 28t58.5 10q35 0 67 -7.5t60 -29.5q23 11 46.5 22
t49.5 11q18 0 31 -12t13 -22v-24q0 -10 -2 -16zM219 -188q21 0 50.5 3.5t56 13.5t45.5 28t19 47q0 43 -34 59.5t-100 16.5q-73 0 -114 -1.5t-69 -1.5q-8 -13 -11.5 -30.5t-3.5 -34.5q0 -29 16.5 -48t41 -30.5t52.5 -16.5t51 -5zM135 252q0 -21 5 -40t14.5 -34t24.5 -24
t35 -9t35 9t24.5 24t14.5 34t5 40t-5 40t-14.5 33.5t-24.5 23.5t-35 9t-35 -9t-24.5 -23.5t-14.5 -33.5t-5 -40zM184 605h69l113 -172h-41l-106 110l-107 -110h-39z" />
    <glyph glyph-name="uni011E.GBreve" unicode="&#x11e;" horiz-adv-x="778" 
d="M644 440q-19 38 -40.5 74t-49.5 64t-64.5 45t-85.5 17q-57 0 -101.5 -28t-76 -73t-48 -101t-16.5 -112q0 -63 16.5 -119.5t48 -98.5t76 -67t101.5 -25q48 0 94 9.5t86 38.5v129q0 68 -103 71v12q38 -1 70 -2.5t72 -1.5q37 0 74 1t74 3v-12q-21 -1 -39 -5t-30.5 -13
t-20 -24.5t-7.5 -39.5v-140q-69 -23 -136.5 -42.5t-130.5 -19.5q-67 0 -131 22.5t-114.5 66.5t-81 108t-30.5 148q0 73 30.5 136.5t81 109.5t114.5 72.5t131 26.5q41 0 74 -3.5t60 -9t49 -11.5t42 -11q0 -16 2.5 -42.5t6.5 -55t8 -55t7 -42.5h-12zM312 867q5 -42 32 -64
t65 -22t65 22t32 64h32q-1 -29 -8.5 -56t-22.5 -47.5t-39 -32.5t-58 -12q-35 0 -58.5 12t-39 32.5t-23 47.5t-9.5 56h32z" />
    <glyph glyph-name="uni011F.gBreve" unicode="&#x11f;" 
d="M416 287q4 15 4 33q0 11 -10 16.5t-24 5.5q-8 0 -19 -5t-17 -8q8 -21 12.5 -40t4.5 -42q0 -27 -10 -50t-29 -40.5t-48 -27.5t-66 -10q-50 0 -92 24q-17 -10 -32.5 -23.5t-15.5 -36.5t16.5 -31t61.5 -8q10 0 24.5 1t30.5 2l32 2t30 1q34 0 63 -5.5t49 -19.5t31.5 -39
t11.5 -64q0 -47 -21.5 -79.5t-55 -53t-74.5 -30t-81 -9.5q-31 0 -64 7t-60 22.5t-44.5 41.5t-17.5 64q0 29 12.5 54t33.5 45q-30 23 -30 65q0 40 21.5 67.5t56.5 42.5q-20 14 -29.5 38t-9.5 53t10.5 53.5t29.5 42.5t45.5 28t58.5 10q35 0 67 -7.5t60 -29.5q23 11 46.5 22
t49.5 11q18 0 31 -12t13 -22v-24q0 -10 -2 -16zM219 -188q21 0 50.5 3.5t56 13.5t45.5 28t19 47q0 43 -34 59.5t-100 16.5q-73 0 -114 -1.5t-69 -1.5q-8 -13 -11.5 -30.5t-3.5 -34.5q0 -29 16.5 -48t41 -30.5t52.5 -16.5t51 -5zM135 252q0 -21 5 -40t14.5 -34t24.5 -24
t35 -9t35 9t24.5 24t14.5 34t5 40t-5 40t-14.5 33.5t-24.5 23.5t-35 9t-35 -9t-24.5 -23.5t-14.5 -33.5t-5 -40zM123 581q5 -42 32 -64t65 -22t65 22t32 64h32q-1 -29 -8.5 -56t-22.5 -47.5t-39 -32.5t-58 -12q-35 0 -58.5 12t-39 32.5t-23 47.5t-9.5 56h32z" />
    <glyph glyph-name="uni0120.GDot" unicode="&#x120;" horiz-adv-x="778" 
d="M644 440q-19 38 -40.5 74t-49.5 64t-64.5 45t-85.5 17q-57 0 -101.5 -28t-76 -73t-48 -101t-16.5 -112q0 -63 16.5 -119.5t48 -98.5t76 -67t101.5 -25q48 0 94 9.5t86 38.5v129q0 68 -103 71v12q38 -1 70 -2.5t72 -1.5q37 0 74 1t74 3v-12q-21 -1 -39 -5t-30.5 -13
t-20 -24.5t-7.5 -39.5v-140q-69 -23 -136.5 -42.5t-130.5 -19.5q-67 0 -131 22.5t-114.5 66.5t-81 108t-30.5 148q0 73 30.5 136.5t81 109.5t114.5 72.5t131 26.5q41 0 74 -3.5t60 -9t49 -11.5t42 -11q0 -16 2.5 -42.5t6.5 -55t8 -55t7 -42.5h-12zM409 839q23 0 38 -15
t15 -38t-15 -38t-38 -15t-38 15t-15 38t15 38t38 15z" />
    <glyph glyph-name="uni0121.gDot" unicode="&#x121;" 
d="M416 287q4 15 4 33q0 11 -10 16.5t-24 5.5q-8 0 -19 -5t-17 -8q8 -21 12.5 -40t4.5 -42q0 -27 -10 -50t-29 -40.5t-48 -27.5t-66 -10q-50 0 -92 24q-17 -10 -32.5 -23.5t-15.5 -36.5t16.5 -31t61.5 -8q10 0 24.5 1t30.5 2l32 2t30 1q34 0 63 -5.5t49 -19.5t31.5 -39
t11.5 -64q0 -47 -21.5 -79.5t-55 -53t-74.5 -30t-81 -9.5q-31 0 -64 7t-60 22.5t-44.5 41.5t-17.5 64q0 29 12.5 54t33.5 45q-30 23 -30 65q0 40 21.5 67.5t56.5 42.5q-20 14 -29.5 38t-9.5 53t10.5 53.5t29.5 42.5t45.5 28t58.5 10q35 0 67 -7.5t60 -29.5q23 11 46.5 22
t49.5 11q18 0 31 -12t13 -22v-24q0 -10 -2 -16zM219 -188q21 0 50.5 3.5t56 13.5t45.5 28t19 47q0 43 -34 59.5t-100 16.5q-73 0 -114 -1.5t-69 -1.5q-8 -13 -11.5 -30.5t-3.5 -34.5q0 -29 16.5 -48t41 -30.5t52.5 -16.5t51 -5zM135 252q0 -21 5 -40t14.5 -34t24.5 -24
t35 -9t35 9t24.5 24t14.5 34t5 40t-5 40t-14.5 33.5t-24.5 23.5t-35 9t-35 -9t-24.5 -23.5t-14.5 -33.5t-5 -40zM220 553q23 0 38 -15t15 -38t-15 -38t-38 -15t-38 15t-15 38t15 38t38 15z" />
    <glyph glyph-name="uni0122.GCommaaccent" unicode="&#x122;" horiz-adv-x="778" 
d="M644 440q-19 38 -40.5 74t-49.5 64t-64.5 45t-85.5 17q-57 0 -101.5 -28t-76 -73t-48 -101t-16.5 -112q0 -63 16.5 -119.5t48 -98.5t76 -67t101.5 -25q48 0 94 9.5t86 38.5v129q0 68 -103 71v12q38 -1 70 -2.5t72 -1.5q37 0 74 1t74 3v-12q-21 -1 -39 -5t-30.5 -13
t-20 -24.5t-7.5 -39.5v-140q-69 -23 -136.5 -42.5t-130.5 -19.5q-67 0 -131 22.5t-114.5 66.5t-81 108t-30.5 148q0 73 30.5 136.5t81 109.5t114.5 72.5t131 26.5q41 0 74 -3.5t60 -9t49 -11.5t42 -11q0 -16 2.5 -42.5t6.5 -55t8 -55t7 -42.5h-12zM371 -135q14 29 26 43.5
t35 14.5q13 0 22 -8t9 -23q0 -22 -17 -42l-84 -99h-47z" />
    <glyph glyph-name="uni0123.gCommaaccent" unicode="&#x123;" 
d="M416 287q4 15 4 33q0 11 -10 16.5t-24 5.5q-8 0 -19 -5t-17 -8q8 -21 12.5 -40t4.5 -42q0 -27 -10 -50t-29 -40.5t-48 -27.5t-66 -10q-50 0 -92 24q-17 -10 -32.5 -23.5t-15.5 -36.5t16.5 -31t61.5 -8q10 0 24.5 1t30.5 2l32 2t30 1q34 0 63 -5.5t49 -19.5t31.5 -39
t11.5 -64q0 -47 -21.5 -79.5t-55 -53t-74.5 -30t-81 -9.5q-31 0 -64 7t-60 22.5t-44.5 41.5t-17.5 64q0 29 12.5 54t33.5 45q-30 23 -30 65q0 40 21.5 67.5t56.5 42.5q-20 14 -29.5 38t-9.5 53t10.5 53.5t29.5 42.5t45.5 28t58.5 10q35 0 67 -7.5t60 -29.5q23 11 46.5 22
t49.5 11q18 0 31 -12t13 -22v-24q0 -10 -2 -16zM219 -188q21 0 50.5 3.5t56 13.5t45.5 28t19 47q0 43 -34 59.5t-100 16.5q-73 0 -114 -1.5t-69 -1.5q-8 -13 -11.5 -30.5t-3.5 -34.5q0 -29 16.5 -48t41 -30.5t52.5 -16.5t51 -5zM135 252q0 -21 5 -40t14.5 -34t24.5 -24
t35 -9t35 9t24.5 24t14.5 34t5 40t-5 40t-14.5 33.5t-24.5 23.5t-35 9t-35 -9t-24.5 -23.5t-14.5 -33.5t-5 -40zM251 547q14 29 26 43.5t35 14.5q13 0 22 -8t9 -23q0 -22 -17 -42l-84 -99h-47z" />
    <glyph glyph-name="uni0124.HCircumflex" unicode="&#x124;" horiz-adv-x="833" 
d="M602 492q0 42 -2.5 69.5t-13 44.5t-31.5 25t-57 11v12q42 -2 81.5 -3t81.5 -1q33 0 66 1t65 3v-12q-35 -3 -55 -11t-30 -25t-12.5 -44.5t-2.5 -69.5v-334q0 -42 2.5 -69.5t13 -44.5t31.5 -25t58 -11v-12q-38 2 -76 3t-76 1q-37 0 -73 -1t-72 -3v12q36 3 56 11t30.5 25
t13 44.5t2.5 69.5v180h-371v-180q0 -42 2.5 -69.5t13 -44.5t31.5 -25t58 -11v-12q-38 2 -76 3t-76 1q-37 0 -73 -1t-72 -3v12q36 3 56 11t30.5 25t13 44.5t2.5 69.5v334q0 42 -2.5 69.5t-13 44.5t-31.5 25t-57 11v12q42 -2 81.5 -3t81.5 -1q33 0 66 1t65 3v-12
q-35 -3 -55 -11t-30 -25t-12.5 -44.5t-2.5 -69.5v-122h371v122zM381 891h69l113 -172h-41l-106 110l-107 -110h-39z" />
    <glyph glyph-name="uni0125.hCircumflex" unicode="&#x125;" horiz-adv-x="537" 
d="M502 -4q-29 2 -62 3t-67 1q-23 0 -44.5 -1t-41.5 -3v12q32 6 49.5 16.5t17.5 43.5v161q0 51 -21.5 79t-69.5 28q-17 0 -35 -5t-33 -13.5t-25 -18.5t-10 -19v-212q0 -33 19 -43.5t57 -16.5v-12q-34 2 -67.5 3t-67.5 1q-23 0 -44.5 -1t-44.5 -3v12q34 6 52 16.5t18 43.5
v510q0 36 -3.5 56.5t-12 31t-23 13.5t-36.5 4v12l153 17v-387q27 21 62 40t67 19q28 0 53.5 -7t45.5 -23t32 -43t12 -67v-176q0 -33 18 -43.5t52 -16.5v-12zM213 891h69l113 -172h-41l-106 110l-107 -110h-39z" />
    <glyph glyph-name="uni0126.HMacron" unicode="&#x126;" horiz-adv-x="833" 
d="M331 642q-33 -3 -52.5 -10t-30 -21.5t-14 -38t-3.5 -59.5h371q0 36 -4 59.5t-15 38t-31 21.5t-54 10v12q42 -2 81.5 -3t81.5 -1q33 0 66 1t65 3v-12q-35 -3 -55 -11t-30 -25t-12.5 -44.5t-2.5 -69.5v-334q0 -42 2.5 -69.5t13 -44.5t31.5 -25t58 -11v-12q-38 2 -76 3
t-76 1q-37 0 -73 -1t-72 -3v12q36 3 56 11t30.5 25t13 44.5t2.5 69.5v180h-371v-180q0 -42 2.5 -69.5t13 -44.5t31.5 -25t58 -11v-12q-38 2 -76 3t-76 1q-37 0 -73 -1t-72 -3v12q36 3 56 11t30.5 25t13 44.5t2.5 69.5v334q0 42 -2.5 69.5t-13 44.5t-31.5 25t-57 11v12
q42 -2 81.5 -3t81.5 -1q33 0 66 1t65 3v-12zM602 479h-371v-109h371v109z" />
    <glyph glyph-name="uni0127.hMacron" unicode="&#x127;" horiz-adv-x="537" 
d="M160 472v-147q27 21 62 40t67 19q28 0 53.5 -7t45.5 -23t32 -43t12 -67v-176q0 -33 18 -43.5t52 -16.5v-12q-29 2 -62 3t-67 1q-23 0 -44.5 -1t-41.5 -3v12q32 6 49.5 16.5t17.5 43.5v161q0 51 -21.5 79t-69.5 28q-17 0 -35 -5t-33 -13.5t-25 -18.5t-10 -19v-212
q0 -33 19 -43.5t57 -16.5v-12q-34 2 -67.5 3t-67.5 1q-23 0 -44.5 -1t-44.5 -3v12q34 6 52 16.5t18 43.5v404h-59v56h59v50q0 36 -3.5 56.5t-12 31t-23 13.5t-36.5 4v12l153 17v-184h147v-56h-147z" />
    <glyph glyph-name="uni0128.ITilde" unicode="&#x128;" horiz-adv-x="389" 
d="M47 8q36 3 56 11t30.5 25t13 44.5t2.5 69.5v334q0 42 -2.5 69.5t-13 44.5t-31.5 25t-57 11v12q42 -2 81.5 -3t81.5 -1q33 0 66 1t65 3v-12q-35 -3 -55 -11t-30 -25t-12.5 -44.5t-2.5 -69.5v-334q0 -42 2.5 -69.5t13 -44.5t31.5 -25t58 -11v-12q-38 2 -76 3t-76 1
q-37 0 -73 -1t-72 -3v12zM349 857q-5 -21 -12 -41t-19 -36t-29 -26t-42 -10q-17 0 -34.5 7.5t-34 16.5t-32.5 16.5t-29 7.5q-20 0 -33 -16t-16 -33h-29q4 21 11 41t18.5 35t29 24t41.5 9q16 0 31.5 -7.5t32.5 -16.5q16 -9 32 -16.5t32 -7.5q14 0 23 7t14.5 16t8.5 18t5 12
h31z" />
    <glyph glyph-name="uni0129.iTilde" unicode="&#x129;" horiz-adv-x="284" 
d="M101 249q0 24 -1.5 42.5t-9 31t-22.5 20.5t-41 11v14l152 10v-294q0 -25 4 -39.5t13.5 -22t24.5 -10.5t37 -4v-12q-35 2 -70.5 3t-70.5 1q-23 0 -45 -1t-45 -3v12q20 1 34 4t23 10.5t13 22t4 39.5v165zM295 571q-5 -21 -12 -41t-19 -36t-29 -26t-42 -10q-17 0 -34.5 7.5
t-34 16.5t-32.5 16.5t-29 7.5q-20 0 -33 -16t-16 -33h-29q4 21 11 41t18.5 35t29 24t41.5 9q16 0 31.5 -7.5t32.5 -16.5q16 -9 32 -16.5t32 -7.5q14 0 23 7t14.5 16t8.5 18t5 12h31z" />
    <glyph glyph-name="uni012A.IMacron" unicode="&#x12a;" horiz-adv-x="389" 
d="M47 8q36 3 56 11t30.5 25t13 44.5t2.5 69.5v334q0 42 -2.5 69.5t-13 44.5t-31.5 25t-57 11v12q42 -2 81.5 -3t81.5 -1q33 0 66 1t65 3v-12q-35 -3 -55 -11t-30 -25t-12.5 -44.5t-2.5 -69.5v-334q0 -42 2.5 -69.5t13 -44.5t31.5 -25t58 -11v-12q-38 2 -76 3t-76 1
q-37 0 -73 -1t-72 -3v12zM52 758v56h284v-56h-284z" />
    <glyph glyph-name="uni012B.iMacron" unicode="&#x12b;" horiz-adv-x="297" 
d="M109 249q0 24 -1.5 42.5t-9 31t-22.5 20.5t-41 11v14l152 10v-294q0 -25 4 -39.5t13.5 -22t24.5 -10.5t37 -4v-12q-35 2 -70.5 3t-70.5 1q-23 0 -45 -1t-45 -3v12q20 1 34 4t23 10.5t13 22t4 39.5v165zM-6 472v56h284v-56h-284z" />
    <glyph glyph-name="uni012C.IBreve" unicode="&#x12c;" horiz-adv-x="389" 
d="M47 8q36 3 56 11t30.5 25t13 44.5t2.5 69.5v334q0 42 -2.5 69.5t-13 44.5t-31.5 25t-57 11v12q42 -2 81.5 -3t81.5 -1q33 0 66 1t65 3v-12q-35 -3 -55 -11t-30 -25t-12.5 -44.5t-2.5 -69.5v-334q0 -42 2.5 -69.5t13 -44.5t31.5 -25t58 -11v-12q-38 2 -76 3t-76 1
q-37 0 -73 -1t-72 -3v12zM97 867q5 -42 32 -64t65 -22t65 22t32 64h32q-1 -29 -8.5 -56t-22.5 -47.5t-39 -32.5t-58 -12q-35 0 -58.5 12t-39 32.5t-23 47.5t-9.5 56h32z" />
    <glyph glyph-name="uni012D.iBreve" unicode="&#x12d;" horiz-adv-x="282" 
d="M98 249q0 24 -1.5 42.5t-9 31t-22.5 20.5t-41 11v14l152 10v-294q0 -25 4 -39.5t13.5 -22t24.5 -10.5t37 -4v-12q-35 2 -70.5 3t-70.5 1q-23 0 -45 -1t-45 -3v12q20 1 34 4t23 10.5t13 22t4 39.5v165zM36 581q5 -42 32 -64t65 -22t65 22t32 64h32q-1 -29 -8.5 -56
t-22.5 -47.5t-39 -32.5t-58 -12q-35 0 -58.5 12t-39 32.5t-23 47.5t-9.5 56h32z" />
    <glyph glyph-name="uni012E.IOgonek" unicode="&#x12e;" horiz-adv-x="389" 
d="M47 8q36 3 56 11t30.5 25t13 44.5t2.5 69.5v334q0 42 -2.5 69.5t-13 44.5t-31.5 25t-57 11v12q42 -2 81.5 -3t81.5 -1q33 0 66 1t65 3v-12q-35 -3 -55 -11t-30 -25t-12.5 -44.5t-2.5 -69.5v-334q0 -42 2.5 -69.5t13 -44.5t31.5 -25t58 -11v-12q-17 0 -33.5 1.5t-33.5 1.5
q-20 0 -45.5 -10t-48.5 -25.5t-39 -35.5t-16 -40q0 -23 14.5 -37.5t37.5 -14.5q29 0 54.5 12.5t48.5 28.5l17 -32q-35 -23 -72 -40t-79 -17q-39 0 -67 23.5t-28 62.5q0 25 13 44.5t33.5 35t46.5 27t52 19.5h-7q-37 0 -73 -1t-72 -3v12z" />
    <glyph glyph-name="uni012F.iOgonek" unicode="&#x12f;" horiz-adv-x="259" 
d="M81 249q0 24 -1.5 42.5t-9 31t-22.5 20.5t-41 11v14l152 10v-294q0 -25 4 -39.5t13.5 -22t24.5 -10.5t37 -4v-12q-13 1 -25.5 2t-25.5 1q-20 0 -45 -10t-47.5 -25.5t-38 -35.5t-15.5 -40q0 -23 14.5 -37.5t37.5 -14.5q29 0 54.5 12.5t48.5 28.5l17 -32q-35 -23 -72 -40
t-79 -17q-39 0 -67 23.5t-28 62.5q0 25 13 45t34 35.5t47.5 26.5t52.5 19h-17q-23 0 -45 -1t-45 -3v12q20 1 34 4t23 10.5t13 22t4 39.5v165zM110 672q22 0 37.5 -16.5t15.5 -38.5t-15.5 -38.5t-37.5 -16.5t-37.5 16.5t-15.5 38.5t15.5 38.5t37.5 16.5z" />
    <glyph glyph-name="uni0130.IDot" unicode="&#x130;" horiz-adv-x="389" 
d="M47 8q36 3 56 11t30.5 25t13 44.5t2.5 69.5v334q0 42 -2.5 69.5t-13 44.5t-31.5 25t-57 11v12q42 -2 81.5 -3t81.5 -1q33 0 66 1t65 3v-12q-35 -3 -55 -11t-30 -25t-12.5 -44.5t-2.5 -69.5v-334q0 -42 2.5 -69.5t13 -44.5t31.5 -25t58 -11v-12q-38 2 -76 3t-76 1
q-37 0 -73 -1t-72 -3v12zM194 839q23 0 38 -15t15 -38t-15 -38t-38 -15t-38 15t-15 38t15 38t38 15z" />
    <glyph glyph-name="dotlessi" unicode="&#x131;" horiz-adv-x="259" 
d="M81 249q0 24 -1.5 42.5t-9 31t-22.5 20.5t-41 11v14l152 10v-294q0 -25 4 -39.5t13.5 -22t24.5 -10.5t37 -4v-12q-35 2 -70.5 3t-70.5 1q-23 0 -45 -1t-45 -3v12q20 1 34 4t23 10.5t13 22t4 39.5v165z" />
    <glyph glyph-name="uni0132.IJ" unicode="&#x132;" horiz-adv-x="1019" 
d="M47 8q36 3 56 11t30.5 25t13 44.5t2.5 69.5v334q0 42 -2.5 69.5t-13 44.5t-31.5 25t-57 11v12q42 -2 81.5 -3t81.5 -1q33 0 66 1t65 3v-12q-35 -3 -55 -11t-30 -25t-12.5 -44.5t-2.5 -69.5v-334q0 -42 2.5 -69.5t13 -44.5t31.5 -25t58 -11v-12q-38 2 -76 3t-76 1
q-37 0 -73 -1t-72 -3v12zM665 654q37 -2 72.5 -3t72.5 -1q42 0 82 1t82 3v-12q-26 -3 -43.5 -8t-28.5 -15t-16 -26t-5 -41v-380q0 -48 -22 -84t-58 -60t-82 -36t-94 -12q-26 0 -61.5 8t-68.5 26t-56 48t-23 74q0 27 16 51t51 24q24 0 42.5 -16.5t18.5 -34.5q0 -14 -3.5 -33
t-13.5 -30q4 -26 15 -42.5t26.5 -26t34 -13t37.5 -3.5q50 0 80 18t45.5 45.5t20.5 61t5 65.5v332q0 33 -7.5 52.5t-23 31t-39.5 16.5t-56 8v12z" />
    <glyph glyph-name="uni0133.ij" unicode="&#x133;" horiz-adv-x="518" 
d="M81 249q0 24 -1.5 42.5t-9 31t-22.5 20.5t-41 11v14l152 10v-294q0 -25 4 -39.5t13.5 -22t24.5 -10.5t37 -4v-12q-35 2 -70.5 3t-70.5 1q-23 0 -45 -1t-45 -3v12q20 1 34 4t23 10.5t13 22t4 39.5v165zM110 672q22 0 37.5 -16.5t15.5 -38.5t-15.5 -38.5t-37.5 -16.5
t-37.5 16.5t-15.5 38.5t15.5 38.5t37.5 16.5zM273 368l152 10v-344q0 -48 -17 -88t-45 -74.5t-64 -64.5t-73 -57l-12 14q40 35 66 66.5t41 65t20.5 73.5t5.5 93v196q0 48 -16 72t-58 24v14zM376 674q22 0 37.5 -16.5t15.5 -38.5t-15.5 -38.5t-37.5 -16.5t-37.5 16.5
t-15.5 38.5t15.5 38.5t37.5 16.5z" />
    <glyph glyph-name="uni0134.JCircumflex" unicode="&#x134;" horiz-adv-x="630" 
d="M276 654q37 -2 72.5 -3t72.5 -1q42 0 82 1t82 3v-12q-26 -3 -43.5 -8t-28.5 -15t-16 -26t-5 -41v-380q0 -48 -22 -84t-58 -60t-82 -36t-94 -12q-26 0 -61.5 8t-68.5 26t-56 48t-23 74q0 27 16 51t51 24q24 0 42.5 -16.5t18.5 -34.5q0 -14 -3.5 -33t-13.5 -30
q4 -26 15 -42.5t26.5 -26t34 -13t37.5 -3.5q50 0 80 18t45.5 45.5t20.5 61t5 65.5v332q0 33 -7.5 52.5t-23 31t-39.5 16.5t-56 8v12zM329 891h69l113 -172h-41l-106 110l-107 -110h-39z" />
    <glyph glyph-name="uni0135.jCircumflex" unicode="&#x135;" horiz-adv-x="259" 
d="M14 368l152 10v-344q0 -48 -17 -88t-45 -74.5t-64 -64.5t-73 -57l-12 14q40 35 66 66.5t41 65t20.5 73.5t5.5 93v196q0 48 -16 72t-58 24v14zM65 605h69l113 -172h-41l-106 110l-107 -110h-39z" />
    <glyph glyph-name="uni0136.KCommaaccent" unicode="&#x136;" horiz-adv-x="741" 
d="M228 158q0 -42 2.5 -69.5t13 -44.5t31.5 -25t58 -11v-12q-38 2 -76 3t-76 1q-37 0 -73 -1t-72 -3v12q36 3 56 11t30.5 25t13 44.5t2.5 69.5v334q0 42 -2.5 69.5t-13 44.5t-31.5 25t-57 11v12q42 -2 81.5 -3t81.5 -1q33 0 66 1t65 3v-12q-35 -3 -55 -11t-30 -25
t-12.5 -44.5t-2.5 -69.5v-169l152 124q21 17 40 35.5t33.5 37.5t23 36t8.5 31q0 15 -6.5 25.5t-17 17t-23.5 9.5t-26 3v12q38 -2 74.5 -3t74.5 -1q40 0 79.5 1t79.5 3v-12q-26 -3 -48.5 -10t-46 -20.5t-50 -34t-61.5 -50.5l-124 -106l202 -297q31 -44 70.5 -78t92.5 -38v-12
q-43 2 -86 3t-86 1q-39 0 -77.5 -1t-77.5 -3v12q36 2 62.5 15t26.5 46q0 14 -11 30t-31 45l-151 222l-96 -75v-133zM312 -135q14 29 26 43.5t35 14.5q13 0 22 -8t9 -23q0 -22 -17 -42l-84 -99h-47z" />
    <glyph glyph-name="uni0137.kCommaaccent" unicode="&#x137;" horiz-adv-x="537" 
d="M5 8q27 3 41.5 10t21 20t8 33.5t1.5 50.5v464q0 29 -4.5 47.5t-13.5 29t-23.5 14.5t-33.5 5v12l153 18v-537q11 10 35.5 28.5t49.5 40t44 43t19 38.5q0 16 -7.5 22.5t-22.5 8.5v12h195v-12q-30 -5 -56 -17.5t-50 -29t-46.5 -35.5t-44.5 -37q23 -27 49 -64t56 -72
t64.5 -61.5t73.5 -31.5v-12q-30 2 -60.5 3t-61.5 1q-32 0 -63 -1t-63 -3v12q17 -1 35 7t18 29q0 13 -12.5 33.5t-29 42t-33.5 42t-25 32.5l-64 -48v-74q0 -32 14 -45.5t56 -18.5v-12q-33 2 -65.5 3t-65.5 1q-23 0 -44.5 -1t-44.5 -3v12zM180 -135q14 29 26 43.5t35 14.5
q13 0 22 -8t9 -23q0 -22 -17 -42l-84 -99h-47z" />
    <glyph glyph-name="uni0138.kGreenlandic" unicode="&#x138;" horiz-adv-x="537" 
d="M155 84q0 -25 4 -39.5t13.5 -22t24.5 -10.5t37 -4v-12q-35 2 -70.5 3t-70.5 1q-23 0 -45 -1t-45 -3v12q20 1 34 4t23 10.5t13 22t4 39.5v165q0 24 -1.5 42.5t-9 31t-22.5 20.5t-41 11v14l152 10v-203q11 10 35.5 28.5t49.5 40t44 43t19 38.5q0 16 -7.5 22.5t-22.5 8.5v12
h195v-12q-30 -5 -56 -17.5t-50 -29t-46.5 -35.5t-44.5 -37q23 -27 49 -64t56 -72t64.5 -61.5t73.5 -31.5v-12q-30 2 -60.5 3t-61.5 1q-32 0 -63 -1t-63 -3v12q17 -1 35 7t18 29q0 13 -12.5 33.5t-29 42t-33.5 42t-25 32.5l-64 -48v-62z" />
    <glyph glyph-name="uni0139.LAcute" unicode="&#x139;" horiz-adv-x="648" 
d="M361 642q-48 -7 -75 -16t-39.5 -22.5t-15.5 -34t-3 -50.5v-480q27 -5 52.5 -9t51.5 -4q59 0 103 12t79 36t64.5 60.5t59.5 85.5h15l-77 -224q-36 2 -72.5 3t-72.5 1h-294q-25 0 -50 -1t-50 -3v12q33 3 52.5 10t30.5 17.5t14.5 25.5t3.5 35v396q0 42 -2.5 69.5t-12.5 44.5
t-30 25t-56 11v12q39 -2 77.5 -3t77.5 -1q42 0 84.5 1t84.5 3v-12zM280 849q17 19 29.5 30.5t26.5 11.5q41 0 41 -32q0 -11 -8.5 -23.5t-20.5 -20.5l-140 -96h-44z" />
    <glyph glyph-name="uni013A.lAcute" unicode="&#x13a;" horiz-adv-x="259" 
d="M-1 8q25 2 40 7.5t23 16.5t10 30t2 48v502q0 39 -12 54.5t-57 15.5v12l147 18v-602q0 -29 2 -48t10.5 -30t24 -16.5t42.5 -7.5v-12q-29 2 -59.5 3t-60.5 1q-29 0 -56.5 -1t-55.5 -3v12zM163 849q17 19 29.5 30.5t26.5 11.5q41 0 41 -32q0 -11 -8.5 -23.5t-20.5 -20.5
l-140 -96h-44z" />
    <glyph glyph-name="uni013B.LCommaaccent" unicode="&#x13b;" horiz-adv-x="648" 
d="M361 642q-48 -7 -75 -16t-39.5 -22.5t-15.5 -34t-3 -50.5v-480q27 -5 52.5 -9t51.5 -4q59 0 103 12t79 36t64.5 60.5t59.5 85.5h15l-77 -224q-36 2 -72.5 3t-72.5 1h-294q-25 0 -50 -1t-50 -3v12q33 3 52.5 10t30.5 17.5t14.5 25.5t3.5 35v396q0 42 -2.5 69.5t-12.5 44.5
t-30 25t-56 11v12q39 -2 77.5 -3t77.5 -1q42 0 84.5 1t84.5 3v-12zM276 -135q14 29 26 43.5t35 14.5q13 0 22 -8t9 -23q0 -22 -17 -42l-84 -99h-47z" />
    <glyph glyph-name="uni013C.lCommaaccent" unicode="&#x13c;" horiz-adv-x="259" 
d="M-1 8q25 2 40 7.5t23 16.5t10 30t2 48v502q0 39 -12 54.5t-57 15.5v12l147 18v-602q0 -29 2 -48t10.5 -30t24 -16.5t42.5 -7.5v-12q-29 2 -59.5 3t-60.5 1q-29 0 -56.5 -1t-55.5 -3v12zM52 -135q14 29 26 43.5t35 14.5q13 0 22 -8t9 -23q0 -22 -17 -42l-84 -99h-47z" />
    <glyph glyph-name="uni013D.LCaron" unicode="&#x13d;" horiz-adv-x="648" 
d="M361 642q-48 -7 -75 -16t-39.5 -22.5t-15.5 -34t-3 -50.5v-480q27 -5 52.5 -9t51.5 -4q59 0 103 12t79 36t64.5 60.5t59.5 85.5h15l-77 -224q-36 2 -72.5 3t-72.5 1h-294q-25 0 -50 -1t-50 -3v12q33 3 52.5 10t30.5 17.5t14.5 25.5t3.5 35v396q0 42 -2.5 69.5t-12.5 44.5
t-30 25t-56 11v12q39 -2 77.5 -3t77.5 -1q42 0 84.5 1t84.5 3v-12zM418 624q14 29 26 43.5t35 14.5q13 0 22 -8t9 -23q0 -22 -17 -42l-84 -99h-47z" />
    <glyph glyph-name="uni013E.lCaron" unicode="&#x13e;" horiz-adv-x="363" 
d="M-1 8q25 2 40 7.5t23 16.5t10 30t2 48v502q0 39 -12 54.5t-57 15.5v12l147 18v-602q0 -29 2 -48t10.5 -30t24 -16.5t42.5 -7.5v-12q-29 2 -59.5 3t-60.5 1q-29 0 -56.5 -1t-55.5 -3v12zM258 624q14 29 26 43.5t35 14.5q13 0 22 -8t9 -23q0 -22 -17 -42l-84 -99h-47z" />
    <glyph glyph-name="uni013F.LDot" unicode="&#x13f;" horiz-adv-x="648" 
d="M361 642q-48 -7 -75 -16t-39.5 -22.5t-15.5 -34t-3 -50.5v-480q27 -5 52.5 -9t51.5 -4q59 0 103 12t79 36t64.5 60.5t59.5 85.5h15l-77 -224q-36 2 -72.5 3t-72.5 1h-294q-25 0 -50 -1t-50 -3v12q33 3 52.5 10t30.5 17.5t14.5 25.5t3.5 35v396q0 42 -2.5 69.5t-12.5 44.5
t-30 25t-56 11v12q39 -2 77.5 -3t77.5 -1q42 0 84.5 1t84.5 3v-12zM331 378q23 0 38 -15t15 -38t-15 -38t-38 -15t-38 15t-15 38t15 38t38 15z" />
    <glyph glyph-name="uni0140.lDot" unicode="&#x140;" horiz-adv-x="283" 
d="M-1 8q25 2 40 7.5t23 16.5t10 30t2 48v502q0 39 -12 54.5t-57 15.5v12l147 18v-602q0 -29 2 -48t10.5 -30t24 -16.5t42.5 -7.5v-12q-29 2 -59.5 3t-60.5 1q-29 0 -56.5 -1t-55.5 -3v12zM255 418q23 0 38 -15t15 -38t-15 -38t-38 -15t-38 15t-15 38t15 38t38 15z" />
    <glyph glyph-name="Lslash" unicode="&#x141;" horiz-adv-x="648" 
d="M371 364l-143 -39v-286q27 -5 52.5 -9t51.5 -4q59 0 103 12t79 36t64.5 60.5t59.5 85.5h15l-77 -224q-36 2 -72.5 3t-72.5 1h-294q-25 0 -50 -1t-50 -3v12q33 3 52.5 10t30.5 17.5t14.5 25.5t3.5 35v205l-101 -27v32l101 27v159q0 42 -2.5 69.5t-12.5 44.5t-30 25t-56 11
v12q39 -2 77.5 -3t77.5 -1q42 0 84.5 1t84.5 3v-12q-48 -7 -75 -16t-39.5 -22.5t-15.5 -34t-3 -50.5v-162l143 39v-32z" />
    <glyph glyph-name="lslash" unicode="&#x142;" horiz-adv-x="259" 
d="M-1 8q25 2 40 7.5t23 16.5t10 30t2 48v237l-86 -30v33l86 30v232q0 39 -12 54.5t-57 15.5v12l147 18v-305l86 29v-33l-86 -29v-264q0 -29 2 -48t10.5 -30t24 -16.5t42.5 -7.5v-12q-29 2 -59.5 3t-60.5 1q-29 0 -56.5 -1t-55.5 -3v12z" />
    <glyph glyph-name="Nacute" unicode="&#x143;" horiz-adv-x="815" 
d="M16 654q35 -2 66.5 -3t73.5 -1q22 0 43 1t43 3q13 -18 43 -54.5t68.5 -83.5t82.5 -100t85 -103.5t75.5 -94t54.5 -71.5h2q0 30 0.5 59.5t0.5 59.5v116q0 64 -4.5 111.5t-18 79.5t-38 49t-64.5 20v12q35 -2 70.5 -3t70.5 -1q32 0 65 1t65 3v-12q-63 -8 -86.5 -36.5
t-23.5 -87.5v-530h-37q-55 86 -116.5 167t-122 154t-117 135.5t-101.5 111.5q-1 -26 -1.5 -51t-0.5 -51v-175q0 -89 3.5 -140.5t17 -79t40 -37t73.5 -14.5v-12q-51 2 -99 3t-99 1q-29 0 -57 -1t-57 -3v12q34 5 59.5 9.5t42 15t25 30t9.5 54.5l12 459q-32 26 -70 41t-78 25
v12zM467 822q17 19 29.5 30.5t26.5 11.5q41 0 41 -32q0 -11 -8.5 -23.5t-20.5 -20.5l-140 -96h-44z" />
    <glyph glyph-name="nacute" unicode="&#x144;" horiz-adv-x="537" 
d="M14 356l146 22v-53q27 21 62 40t67 19q28 0 53.5 -7t45.5 -23t32 -43t12 -67v-176q0 -33 18 -43.5t52 -16.5v-12q-29 2 -62 3t-67 1q-23 0 -44.5 -1t-41.5 -3v12q32 6 49.5 16.5t17.5 43.5v161q0 51 -21.5 79t-69.5 28q-17 0 -35 -5t-33 -13.5t-25 -18.5t-10 -19v-212
q0 -33 19 -43.5t57 -16.5v-12q-34 2 -67.5 3t-67.5 1q-23 0 -44.5 -1t-44.5 -3v12q34 6 52 16.5t18 43.5v232q0 30 -20.5 37t-47.5 7v12zM298 563q17 19 29.5 30.5t26.5 11.5q41 0 41 -32q0 -11 -8.5 -23.5t-20.5 -20.5l-140 -96h-44z" />
    <glyph glyph-name="uni0145.NCommaaccent" unicode="&#x145;" horiz-adv-x="815" 
d="M16 654q35 -2 66.5 -3t73.5 -1q22 0 43 1t43 3q13 -18 43 -54.5t68.5 -83.5t82.5 -100t85 -103.5t75.5 -94t54.5 -71.5h2q0 30 0.5 59.5t0.5 59.5v116q0 64 -4.5 111.5t-18 79.5t-38 49t-64.5 20v12q35 -2 70.5 -3t70.5 -1q32 0 65 1t65 3v-12q-63 -8 -86.5 -36.5
t-23.5 -87.5v-530h-37q-55 86 -116.5 167t-122 154t-117 135.5t-101.5 111.5q-1 -26 -1.5 -51t-0.5 -51v-175q0 -89 3.5 -140.5t17 -79t40 -37t73.5 -14.5v-12q-51 2 -99 3t-99 1q-29 0 -57 -1t-57 -3v12q34 5 59.5 9.5t42 15t25 30t9.5 54.5l12 459q-32 26 -70 41t-78 25
v12zM389 -135q14 29 26 43.5t35 14.5q13 0 22 -8t9 -23q0 -22 -17 -42l-84 -99h-47z" />
    <glyph glyph-name="uni0146.nCommaaccent" unicode="&#x146;" horiz-adv-x="537" 
d="M14 356l146 22v-53q27 21 62 40t67 19q28 0 53.5 -7t45.5 -23t32 -43t12 -67v-176q0 -33 18 -43.5t52 -16.5v-12q-29 2 -62 3t-67 1q-23 0 -44.5 -1t-41.5 -3v12q32 6 49.5 16.5t17.5 43.5v161q0 51 -21.5 79t-69.5 28q-17 0 -35 -5t-33 -13.5t-25 -18.5t-10 -19v-212
q0 -33 19 -43.5t57 -16.5v-12q-34 2 -67.5 3t-67.5 1q-23 0 -44.5 -1t-44.5 -3v12q34 6 52 16.5t18 43.5v232q0 30 -20.5 37t-47.5 7v12zM191 -135q14 29 26 43.5t35 14.5q13 0 22 -8t9 -23q0 -22 -17 -42l-84 -99h-47z" />
    <glyph glyph-name="uni0147.NCaron" unicode="&#x147;" horiz-adv-x="815" 
d="M16 654q35 -2 66.5 -3t73.5 -1q22 0 43 1t43 3q13 -18 43 -54.5t68.5 -83.5t82.5 -100t85 -103.5t75.5 -94t54.5 -71.5h2q0 30 0.5 59.5t0.5 59.5v116q0 64 -4.5 111.5t-18 79.5t-38 49t-64.5 20v12q35 -2 70.5 -3t70.5 -1q32 0 65 1t65 3v-12q-63 -8 -86.5 -36.5
t-23.5 -87.5v-530h-37q-55 86 -116.5 167t-122 154t-117 135.5t-101.5 111.5q-1 -26 -1.5 -51t-0.5 -51v-175q0 -89 3.5 -140.5t17 -79t40 -37t73.5 -14.5v-12q-51 2 -99 3t-99 1q-29 0 -57 -1t-57 -3v12q34 5 59.5 9.5t42 15t25 30t9.5 54.5l12 459q-32 26 -70 41t-78 25
v12zM441 719h-69l-111 172h39l107 -114l106 114h41z" />
    <glyph glyph-name="uni0148.nCaron" unicode="&#x148;" horiz-adv-x="537" 
d="M14 356l146 22v-53q27 21 62 40t67 19q28 0 53.5 -7t45.5 -23t32 -43t12 -67v-176q0 -33 18 -43.5t52 -16.5v-12q-29 2 -62 3t-67 1q-23 0 -44.5 -1t-41.5 -3v12q32 6 49.5 16.5t17.5 43.5v161q0 51 -21.5 79t-69.5 28q-17 0 -35 -5t-33 -13.5t-25 -18.5t-10 -19v-212
q0 -33 19 -43.5t57 -16.5v-12q-34 2 -67.5 3t-67.5 1q-23 0 -44.5 -1t-44.5 -3v12q34 6 52 16.5t18 43.5v232q0 30 -20.5 37t-47.5 7v12zM302 433h-69l-111 172h39l107 -114l106 114h41z" />
    <glyph glyph-name="uni0149.nApostrophe" unicode="&#x149;" horiz-adv-x="537" 
d="M14 356l146 22v-53q27 21 62 40t67 19q28 0 53.5 -7t45.5 -23t32 -43t12 -67v-176q0 -33 18 -43.5t52 -16.5v-12q-29 2 -62 3t-67 1q-23 0 -44.5 -1t-41.5 -3v12q32 6 49.5 16.5t17.5 43.5v161q0 51 -21.5 79t-69.5 28q-17 0 -35 -5t-33 -13.5t-25 -18.5t-10 -19v-212
q0 -33 19 -43.5t57 -16.5v-12q-34 2 -67.5 3t-67.5 1q-23 0 -44.5 -1t-44.5 -3v12q34 6 52 16.5t18 43.5v232q0 30 -20.5 37t-47.5 7v12zM34 481q22 18 37.5 39t15.5 51q0 17 -5.5 37t-5.5 43q0 17 11 31t28 14q28 0 38.5 -19t10.5 -44q0 -27 -10.5 -51t-28 -45t-39 -38
t-43.5 -29z" />
    <glyph glyph-name="uni014A.Eng" unicode="&#x14a;" horiz-adv-x="815" 
d="M654 382q0 64 -4.5 111.5t-18 79.5t-38 49t-64.5 20v12q35 -2 70.5 -3t70.5 -1q32 0 65 1t65 3v-12q-63 -8 -86.5 -36.5t-23.5 -87.5v-484q0 -59 -15 -103t-41.5 -77.5t-63 -58.5t-79.5 -45l-12 14q37 28 64 55t46 56t31 61.5t18 72.5q-55 84 -114.5 162t-117.5 147
t-112 129t-98 109q-1 -26 -1.5 -51t-0.5 -51v-175q0 -89 3.5 -140.5t17 -79t40 -37t73.5 -14.5v-12q-51 2 -99 3t-99 1q-29 0 -57 -1t-57 -3v12q32 5 57 9.5t42 15t26.5 30t10.5 54.5l12 459q-32 26 -70 41t-78 25v12q35 -2 66.5 -3t73.5 -1q22 0 43 1t43 3q13 -18 43 -55
t68.5 -84t82.5 -99.5t85 -103t75.5 -94t54.5 -71.5h2z" />
    <glyph glyph-name="uni014B.eng" unicode="&#x14b;" horiz-adv-x="490" 
d="M14 356l146 22v-53q27 21 62 40t67 19q28 0 53.5 -7t45.5 -23t32 -43t12 -67v-210q0 -48 -17 -88t-45 -74.5t-64 -64.5t-73 -57l-12 14q40 35 66 66.5t41 65t20.5 73.5t5.5 93v167q0 51 -21.5 79t-69.5 28q-17 0 -35 -5t-33 -13.5t-25 -18.5t-10 -19v-212q0 -33 19 -43.5
t57 -16.5v-12q-34 2 -67.5 3t-67.5 1q-23 0 -44.5 -1t-44.5 -3v12q34 6 52 16.5t18 43.5v232q0 30 -20.5 37t-47.5 7v12z" />
    <glyph glyph-name="uni014C.OMacron" unicode="&#x14c;" horiz-adv-x="833" 
d="M47 325q0 81 29.5 145t79.5 108.5t117.5 68t143.5 23.5t143.5 -23.5t117.5 -68t79.5 -108.5t29.5 -145t-29.5 -145t-79.5 -108.5t-117.5 -68t-143.5 -23.5t-143.5 23.5t-117.5 68t-79.5 108.5t-29.5 145zM153 325q0 -61 18 -117t52 -98.5t83 -68t111 -25.5t111 25.5
t83 68t52 98.5t18 117t-18 117t-52 98.5t-83 68t-111 25.5t-111 -25.5t-83 -68t-52 -98.5t-18 -117zM274 758v56h284v-56h-284z" />
    <glyph glyph-name="uni014D.oMacron" unicode="&#x14d;" 
d="M239 384q48 0 87.5 -14.5t68 -40.5t44 -63t15.5 -82t-15.5 -82t-44 -63t-68 -40.5t-87.5 -14.5t-87.5 14.5t-68 40.5t-44 63t-15.5 82t15.5 82t44 63t68 40.5t87.5 14.5zM221 354q-28 0 -48.5 -14t-34 -36.5t-20 -51t-6.5 -56.5q0 -32 8.5 -64t26.5 -58.5t45 -43
t65 -16.5q28 0 48.5 14t34 36.5t20 50.5t6.5 57q0 31 -9 63.5t-27 59t-45 43t-64 16.5zM108 472v56h284v-56h-284z" />
    <glyph glyph-name="uni014E.OBreve" unicode="&#x14e;" horiz-adv-x="833" 
d="M47 325q0 81 29.5 145t79.5 108.5t117.5 68t143.5 23.5t143.5 -23.5t117.5 -68t79.5 -108.5t29.5 -145t-29.5 -145t-79.5 -108.5t-117.5 -68t-143.5 -23.5t-143.5 23.5t-117.5 68t-79.5 108.5t-29.5 145zM153 325q0 -61 18 -117t52 -98.5t83 -68t111 -25.5t111 25.5
t83 68t52 98.5t18 117t-18 117t-52 98.5t-83 68t-111 25.5t-111 -25.5t-83 -68t-52 -98.5t-18 -117zM319 867q5 -42 32 -64t65 -22t65 22t32 64h32q-1 -29 -8.5 -56t-22.5 -47.5t-39 -32.5t-58 -12q-35 0 -58.5 12t-39 32.5t-23 47.5t-9.5 56h32z" />
    <glyph glyph-name="uni014F.oBreve" unicode="&#x14f;" 
d="M239 384q48 0 87.5 -14.5t68 -40.5t44 -63t15.5 -82t-15.5 -82t-44 -63t-68 -40.5t-87.5 -14.5t-87.5 14.5t-68 40.5t-44 63t-15.5 82t15.5 82t44 63t68 40.5t87.5 14.5zM221 354q-28 0 -48.5 -14t-34 -36.5t-20 -51t-6.5 -56.5q0 -32 8.5 -64t26.5 -58.5t45 -43
t65 -16.5q28 0 48.5 14t34 36.5t20 50.5t6.5 57q0 31 -9 63.5t-27 59t-45 43t-64 16.5zM153 581q5 -42 32 -64t65 -22t65 22t32 64h32q-1 -29 -8.5 -56t-22.5 -47.5t-39 -32.5t-58 -12q-35 0 -58.5 12t-39 32.5t-23 47.5t-9.5 56h32z" />
    <glyph glyph-name="uni0150.ODoubleAcute" unicode="&#x150;" horiz-adv-x="833" 
d="M47 325q0 81 29.5 145t79.5 108.5t117.5 68t143.5 23.5t143.5 -23.5t117.5 -68t79.5 -108.5t29.5 -145t-29.5 -145t-79.5 -108.5t-117.5 -68t-143.5 -23.5t-143.5 23.5t-117.5 68t-79.5 108.5t-29.5 145zM153 325q0 -61 18 -117t52 -98.5t83 -68t111 -25.5t111 25.5
t83 68t52 98.5t18 117t-18 117t-52 98.5t-83 68t-111 25.5t-111 -25.5t-83 -68t-52 -98.5t-18 -117zM438 719l114 130q17 19 29.5 30.5t26.5 11.5q41 0 41 -32q0 -17 -8.5 -26.5t-20.5 -17.5l-140 -96h-42zM284 719l109 130q11 12 25 27t32 15q20 0 31.5 -10.5t11.5 -27.5
q0 -12 -10 -23t-20 -19l-125 -92h-54z" />
    <glyph glyph-name="uni0151.oDoubleAcute" unicode="&#x151;" 
d="M239 384q48 0 87.5 -14.5t68 -40.5t44 -63t15.5 -82t-15.5 -82t-44 -63t-68 -40.5t-87.5 -14.5t-87.5 14.5t-68 40.5t-44 63t-15.5 82t15.5 82t44 63t68 40.5t87.5 14.5zM221 354q-28 0 -48.5 -14t-34 -36.5t-20 -51t-6.5 -56.5q0 -32 8.5 -64t26.5 -58.5t45 -43
t65 -16.5q28 0 48.5 14t34 36.5t20 50.5t6.5 57q0 31 -9 63.5t-27 59t-45 43t-64 16.5zM251 433l114 130q17 19 29.5 30.5t26.5 11.5q41 0 41 -32q0 -17 -8.5 -26.5t-20.5 -17.5l-140 -96h-42zM97 433l109 130q11 12 25 27t32 15q20 0 31.5 -10.5t11.5 -27.5q0 -12 -10 -23
t-20 -19l-125 -92h-54z" />
    <glyph glyph-name="OE" unicode="&#x152;" horiz-adv-x="1000" 
d="M520 502q0 41 -5.5 66.5t-17 39.5t-29 19t-40.5 5q-73 0 -125.5 -27t-86.5 -71.5t-50.5 -101.5t-16.5 -117q0 -66 16.5 -120.5t49.5 -93.5t82 -61t114 -22q40 0 62.5 7.5t33 24t12.5 43t1 65.5v344zM928 480q-16 51 -39.5 80.5t-55.5 44.5t-72.5 19t-89.5 4h-61v-254
q24 0 45.5 1.5t41.5 3.5q44 5 72 32.5t39 89.5h12q-1 -17 -1.5 -34t-0.5 -34v-68v-75q0 -19 0.5 -37.5t1.5 -37.5h-13q-8 34 -16.5 58t-20.5 39t-29 22.5t-41 9.5q-17 2 -42 3t-48 1v-312q23 -4 42 -5t38 -1q104 0 177 48.5t128 133.5l12 -7q-29 -55 -52.5 -108t-40.5 -101
q-30 2 -60.5 3t-60.5 1h-251q-38 0 -77 -2t-82 -2q-68 0 -129.5 18t-108.5 54.5t-74.5 93t-27.5 133.5q0 84 31.5 151.5t84.5 114.5t122 72t144 25q41 0 74.5 -4t75.5 -4h109q64 0 127 1t129 3v-88q0 -17 1.5 -38.5t1.5 -44.5z" />
    <glyph glyph-name="oe" unicode="&#x153;" horiz-adv-x="759" 
d="M430 212q0 -51 12.5 -85t32 -54.5t44.5 -29.5t51 -9q38 0 70 18.5t56 41.5l16 -16q-42 -45 -85.5 -69.5t-106.5 -24.5q-40 0 -75 20t-57 53q-64 -73 -166 -73q-42 0 -78.5 14.5t-63.5 40.5t-43 63t-16 82t16 82t43 63t63.5 40.5t78.5 14.5q27 0 49 -3t42 -10.5
t38.5 -20.5t38.5 -32q29 29 61.5 47.5t74.5 18.5q79 0 127.5 -47t56.5 -125h-280zM219 354q-29 0 -49.5 -12.5t-34 -32.5t-20 -45t-6.5 -50q0 -30 7 -65t22.5 -65t40 -50t60.5 -20q32 0 54.5 14t36.5 37.5t20 54t6 63.5q0 29 -9.5 59.5t-27 55t-43 40.5t-57.5 16zM618 242
q0 20 -6 40t-18 36t-29.5 26t-40.5 10t-40.5 -10t-29.5 -26t-18 -36t-6 -40h188z" />
    <glyph glyph-name="uni0154.RAcute" unicode="&#x154;" horiz-adv-x="722" 
d="M738 0h-180q-63 69 -116.5 141.5t-95.5 153.5q-10 0 -25.5 2t-32 4.5t-32 6t-25.5 6.5v-156q0 -42 2.5 -69.5t13 -44.5t31.5 -25t58 -11v-12q-38 2 -76 3t-76 1q-37 0 -73 -1t-72 -3v12q36 3 56 11t30.5 25t13 44.5t2.5 69.5v334q0 42 -2.5 69.5t-13 44.5t-30.5 25
t-56 11v12q32 -2 64 -3t64 -1q14 0 35 1.5t44.5 3.5t47.5 3.5t43 1.5q43 0 88 -11t81 -35t59 -61t23 -88q0 -35 -12.5 -62t-33.5 -47t-49.5 -33t-59.5 -19q14 -24 33 -54t42.5 -61t50 -61.5t56 -55t60.5 -41t63 -19.5v-12zM231 348q45 -17 93 -17q78 0 121 36t43 117
q0 33 -12.5 59.5t-34.5 46t-50.5 30t-59.5 10.5q-25 0 -49 -2t-47 -9q-2 -48 -3 -97t-1 -106v-68zM400 849q17 19 29.5 30.5t26.5 11.5q41 0 41 -32q0 -11 -8.5 -23.5t-20.5 -20.5l-140 -96h-44z" />
    <glyph glyph-name="uni0155.rAcute" unicode="&#x155;" horiz-adv-x="389" 
d="M9 8q34 6 52 16.5t18 43.5v232q0 30 -20.5 37t-47.5 7v12l146 22v-57q12 8 27.5 21t33 25.5t35.5 21.5t35 9q39 0 58.5 -21.5t21.5 -59.5l-80 -42q2 7 4 14.5t2 19.5q0 14 -10 26.5t-27 12.5q-14 0 -28 -7t-27 -17.5t-24.5 -22.5t-20.5 -21v-212q0 -33 19 -43.5t57 -16.5
v-12q-34 2 -67.5 3t-67.5 1q-23 0 -44.5 -1t-44.5 -3v12zM244 563q17 19 29.5 30.5t26.5 11.5q41 0 41 -32q0 -11 -8.5 -23.5t-20.5 -20.5l-140 -96h-44z" />
    <glyph glyph-name="uni0156.RCommaaccent" unicode="&#x156;" horiz-adv-x="722" 
d="M738 0h-180q-63 69 -116.5 141.5t-95.5 153.5q-10 0 -25.5 2t-32 4.5t-32 6t-25.5 6.5v-156q0 -42 2.5 -69.5t13 -44.5t31.5 -25t58 -11v-12q-38 2 -76 3t-76 1q-37 0 -73 -1t-72 -3v12q36 3 56 11t30.5 25t13 44.5t2.5 69.5v334q0 42 -2.5 69.5t-13 44.5t-30.5 25
t-56 11v12q32 -2 64 -3t64 -1q14 0 35 1.5t44.5 3.5t47.5 3.5t43 1.5q43 0 88 -11t81 -35t59 -61t23 -88q0 -35 -12.5 -62t-33.5 -47t-49.5 -33t-59.5 -19q14 -24 33 -54t42.5 -61t50 -61.5t56 -55t60.5 -41t63 -19.5v-12zM231 348q45 -17 93 -17q78 0 121 36t43 117
q0 33 -12.5 59.5t-34.5 46t-50.5 30t-59.5 10.5q-25 0 -49 -2t-47 -9q-2 -48 -3 -97t-1 -106v-68zM343 -135q14 29 26 43.5t35 14.5q13 0 22 -8t9 -23q0 -22 -17 -42l-84 -99h-47z" />
    <glyph glyph-name="uni0157.rCommaaccent" unicode="&#x157;" horiz-adv-x="389" 
d="M9 8q34 6 52 16.5t18 43.5v232q0 30 -20.5 37t-47.5 7v12l146 22v-57q12 8 27.5 21t33 25.5t35.5 21.5t35 9q39 0 58.5 -21.5t21.5 -59.5l-80 -42q2 7 4 14.5t2 19.5q0 14 -10 26.5t-27 12.5q-14 0 -28 -7t-27 -17.5t-24.5 -22.5t-20.5 -21v-212q0 -33 19 -43.5t57 -16.5
v-12q-34 2 -67.5 3t-67.5 1q-23 0 -44.5 -1t-44.5 -3v12zM67 -135q14 29 26 43.5t35 14.5q13 0 22 -8t9 -23q0 -22 -17 -42l-84 -99h-47z" />
    <glyph glyph-name="uni0158.RCaron" unicode="&#x158;" horiz-adv-x="722" 
d="M738 0h-180q-63 69 -116.5 141.5t-95.5 153.5q-10 0 -25.5 2t-32 4.5t-32 6t-25.5 6.5v-156q0 -42 2.5 -69.5t13 -44.5t31.5 -25t58 -11v-12q-38 2 -76 3t-76 1q-37 0 -73 -1t-72 -3v12q36 3 56 11t30.5 25t13 44.5t2.5 69.5v334q0 42 -2.5 69.5t-13 44.5t-30.5 25
t-56 11v12q32 -2 64 -3t64 -1q14 0 35 1.5t44.5 3.5t47.5 3.5t43 1.5q43 0 88 -11t81 -35t59 -61t23 -88q0 -35 -12.5 -62t-33.5 -47t-49.5 -33t-59.5 -19q14 -24 33 -54t42.5 -61t50 -61.5t56 -55t60.5 -41t63 -19.5v-12zM231 348q45 -17 93 -17q78 0 121 36t43 117
q0 33 -12.5 59.5t-34.5 46t-50.5 30t-59.5 10.5q-25 0 -49 -2t-47 -9q-2 -48 -3 -97t-1 -106v-68zM374 719h-69l-111 172h39l107 -114l106 114h41z" />
    <glyph glyph-name="uni0159.rCaron" unicode="&#x159;" horiz-adv-x="389" 
d="M9 8q34 6 52 16.5t18 43.5v232q0 30 -20.5 37t-47.5 7v12l146 22v-57q12 8 27.5 21t33 25.5t35.5 21.5t35 9q39 0 58.5 -21.5t21.5 -59.5l-80 -42q2 7 4 14.5t2 19.5q0 14 -10 26.5t-27 12.5q-14 0 -28 -7t-27 -17.5t-24.5 -22.5t-20.5 -21v-212q0 -33 19 -43.5t57 -16.5
v-12q-34 2 -67.5 3t-67.5 1q-23 0 -44.5 -1t-44.5 -3v12zM228 433h-69l-111 172h39l107 -114l106 114h41z" />
    <glyph glyph-name="Sacute" unicode="&#x15a;" horiz-adv-x="593" 
d="M491 464q-13 32 -33.5 63.5t-47.5 56t-60 39.5t-72 15q-57 0 -93.5 -21t-36.5 -75q0 -32 16.5 -55.5t44 -41.5t62.5 -33t71.5 -30.5t71.5 -33.5t62.5 -43t44 -58t16.5 -79q0 -49 -18 -84.5t-48.5 -58.5t-71 -34t-86.5 -11q-25 0 -52 4.5t-52 10t-45.5 10t-32.5 4.5
q-11 0 -21 -3.5t-21 -7.5q-9 57 -21 111.5t-25 111.5l13 7q18 -35 43.5 -73t57.5 -69.5t70.5 -52.5t83.5 -21q29 0 56 6.5t47.5 20.5t32.5 36.5t12 55.5q0 47 -29 78.5t-72 55t-93.5 43.5t-93.5 45t-72 59t-29 86q0 39 15 71t40.5 54.5t59 34.5t71.5 12q37 0 66.5 -5
t57.5 -11q29 -6 57 -11.5t60 -5.5q0 -45 1.5 -87.5t6.5 -85.5h-14zM356 822q17 19 29.5 30.5t26.5 11.5q41 0 41 -32q0 -11 -8.5 -23.5t-20.5 -20.5l-140 -96h-44z" />
    <glyph glyph-name="sacute" unicode="&#x15b;" horiz-adv-x="389" 
d="M29 127h14q14 -21 31.5 -41t38.5 -36t45 -26t51 -10q13 0 26.5 2.5t24.5 8.5t18 16t7 25q0 25 -18.5 41t-45.5 28t-59.5 22.5t-59.5 25t-45.5 35.5t-18.5 54q0 54 33.5 83t84.5 29q38 0 73.5 -10t73.5 -12l6 -106h-13q-10 19 -25 36.5t-33.5 31t-39.5 22t-43 8.5
q-25 0 -45 -11t-20 -40q0 -21 18.5 -34.5t45.5 -25t59.5 -22.5t59.5 -26.5t45.5 -38t18.5 -55.5q0 -35 -11.5 -57.5t-31.5 -35.5t-46.5 -18.5t-56.5 -5.5q-24 0 -46 3.5t-41.5 8.5t-36.5 9t-30 6zM234 563q17 19 29.5 30.5t26.5 11.5q41 0 41 -32q0 -11 -8.5 -23.5
t-20.5 -20.5l-140 -96h-44z" />
    <glyph glyph-name="uni015C.SCircumflex" unicode="&#x15c;" horiz-adv-x="593" 
d="M491 464q-13 32 -33.5 63.5t-47.5 56t-60 39.5t-72 15q-57 0 -93.5 -21t-36.5 -75q0 -32 16.5 -55.5t44 -41.5t62.5 -33t71.5 -30.5t71.5 -33.5t62.5 -43t44 -58t16.5 -79q0 -49 -18 -84.5t-48.5 -58.5t-71 -34t-86.5 -11q-25 0 -52 4.5t-52 10t-45.5 10t-32.5 4.5
q-11 0 -21 -3.5t-21 -7.5q-9 57 -21 111.5t-25 111.5l13 7q18 -35 43.5 -73t57.5 -69.5t70.5 -52.5t83.5 -21q29 0 56 6.5t47.5 20.5t32.5 36.5t12 55.5q0 47 -29 78.5t-72 55t-93.5 43.5t-93.5 45t-72 59t-29 86q0 39 15 71t40.5 54.5t59 34.5t71.5 12q37 0 66.5 -5
t57.5 -11q29 -6 57 -11.5t60 -5.5q0 -45 1.5 -87.5t6.5 -85.5h-14zM261 891h69l113 -172h-41l-106 110l-107 -110h-39z" />
    <glyph glyph-name="uni015D.sCircumflex" unicode="&#x15d;" horiz-adv-x="389" 
d="M29 127h14q14 -21 31.5 -41t38.5 -36t45 -26t51 -10q13 0 26.5 2.5t24.5 8.5t18 16t7 25q0 25 -18.5 41t-45.5 28t-59.5 22.5t-59.5 25t-45.5 35.5t-18.5 54q0 54 33.5 83t84.5 29q38 0 73.5 -10t73.5 -12l6 -106h-13q-10 19 -25 36.5t-33.5 31t-39.5 22t-43 8.5
q-25 0 -45 -11t-20 -40q0 -21 18.5 -34.5t45.5 -25t59.5 -22.5t59.5 -26.5t45.5 -38t18.5 -55.5q0 -35 -11.5 -57.5t-31.5 -35.5t-46.5 -18.5t-56.5 -5.5q-24 0 -46 3.5t-41.5 8.5t-36.5 9t-30 6zM149 605h69l113 -172h-41l-106 110l-107 -110h-39z" />
    <glyph glyph-name="uni015E.SCedilla" unicode="&#x15e;" horiz-adv-x="593" 
d="M238 -169q27 -15 61 -15q10 0 20.5 1.5t19.5 6t14.5 12t5.5 19.5q0 20 -10 33t-30 13q-9 0 -19 -1.5t-18 -6.5l-13 6l34 81q-24 1 -49.5 5.5t-49 10t-43 9.5t-30.5 4t-21 -3.5t-21 -7.5q-9 57 -21 111.5t-25 111.5l13 7q18 -35 43.5 -73t57.5 -70t70.5 -52.5t83.5 -20.5
q29 0 56 6.5t47.5 20.5t32.5 36.5t12 55.5q0 47 -29 78.5t-72 55t-93.5 43.5t-93.5 45t-72 59t-29 86q0 39 15 71t40.5 54.5t59 34.5t71.5 12q37 0 66.5 -5t57.5 -11q29 -6 57 -11.5t60 -5.5q0 -45 1.5 -87.5t6.5 -85.5h-14q-13 32 -33.5 63.5t-47.5 56t-60 39.5t-72 15
q-57 0 -93.5 -21t-36.5 -75q0 -32 16.5 -55.5t44 -41.5t62.5 -33t71.5 -30.5t71.5 -33.5t62.5 -43t44 -58t16.5 -79t-15.5 -79.5t-42.5 -56.5t-63 -35.5t-78 -15.5l-19 -48q13 4 32 4q32 0 57 -16.5t25 -52.5q0 -26 -11 -42.5t-28 -27t-39 -14.5t-43 -4q-46 0 -88 18z" />
    <glyph glyph-name="uni015F.sCedilla" unicode="&#x15f;" horiz-adv-x="389" 
d="M112 -169q27 -15 61 -15q10 0 20.5 1.5t19.5 6t14.5 12t5.5 19.5q0 20 -10 33t-30 13q-9 0 -19 -1.5t-18 -6.5l-13 6l36 85q-44 2 -80.5 12.5t-61.5 14.5l-8 116h14q14 -21 31.5 -41t38.5 -36t45 -26t51 -10q13 0 26.5 2.5t24.5 8.5t18 16t7 25q0 25 -18.5 41t-45.5 28
t-59.5 22.5t-59.5 25t-45.5 35.5t-18.5 54q0 54 33.5 83t84.5 29q38 0 73.5 -10t73.5 -12l6 -106h-13q-10 19 -25 36.5t-33.5 31t-39.5 22t-43 8.5q-25 0 -45 -11t-20 -40q0 -21 18.5 -34.5t45.5 -25t59.5 -22.5t59.5 -26.5t45.5 -38t18.5 -55.5q0 -31 -9.5 -52.5t-26 -35
t-39 -20t-48.5 -8.5l-21 -52q13 4 32 4q32 0 57 -16.5t25 -52.5q0 -26 -11 -42.5t-28 -27t-39 -14.5t-43 -4q-46 0 -88 18z" />
    <glyph glyph-name="Scaron" unicode="&#x160;" horiz-adv-x="593" 
d="M491 464q-13 32 -33.5 63.5t-47.5 56t-60 39.5t-72 15q-57 0 -93.5 -21t-36.5 -75q0 -32 16.5 -55.5t44 -41.5t62.5 -33t71.5 -30.5t71.5 -33.5t62.5 -43t44 -58t16.5 -79q0 -49 -18 -84.5t-48.5 -58.5t-71 -34t-86.5 -11q-25 0 -52 4.5t-52 10t-45.5 10t-32.5 4.5
q-11 0 -21 -3.5t-21 -7.5q-9 57 -21 111.5t-25 111.5l13 7q18 -35 43.5 -73t57.5 -69.5t70.5 -52.5t83.5 -21q29 0 56 6.5t47.5 20.5t32.5 36.5t12 55.5q0 47 -29 78.5t-72 55t-93.5 43.5t-93.5 45t-72 59t-29 86q0 39 15 71t40.5 54.5t59 34.5t71.5 12q37 0 66.5 -5
t57.5 -11q29 -6 57 -11.5t60 -5.5q0 -45 1.5 -87.5t6.5 -85.5h-14zM331 692h-69l-111 172h39l107 -114l106 114h41z" />
    <glyph glyph-name="scaron" unicode="&#x161;" horiz-adv-x="389" 
d="M29 127h14q14 -21 31.5 -41t38.5 -36t45 -26t51 -10q13 0 26.5 2.5t24.5 8.5t18 16t7 25q0 25 -18.5 41t-45.5 28t-59.5 22.5t-59.5 25t-45.5 35.5t-18.5 54q0 54 33.5 83t84.5 29q38 0 73.5 -10t73.5 -12l6 -106h-13q-10 19 -25 36.5t-33.5 31t-39.5 22t-43 8.5
q-25 0 -45 -11t-20 -40q0 -21 18.5 -34.5t45.5 -25t59.5 -22.5t59.5 -26.5t45.5 -38t18.5 -55.5q0 -35 -11.5 -57.5t-31.5 -35.5t-46.5 -18.5t-56.5 -5.5q-24 0 -46 3.5t-41.5 8.5t-36.5 9t-30 6zM229 433h-69l-111 172h39l107 -114l106 114h41z" />
    <glyph glyph-name="uni0162.TCedilla" unicode="&#x162;" horiz-adv-x="648" 
d="M233 -169q27 -15 61 -15q10 0 20.5 1.5t19.5 6t14.5 12t5.5 19.5q0 20 -10 33t-30 13q-9 0 -19 -1.5t-18 -6.5l-13 6l43 101q-33 0 -66 -1t-65 -3v12q36 3 56 11t30.5 25t13 44.5t2.5 69.5v464q-53 0 -88.5 -4t-61.5 -20.5t-45.5 -50.5t-38.5 -93l-13 4l14 196
q42 -2 83 -3t83 -1h235q40 0 79 1t79 3l14 -196l-13 -4q-19 59 -38.5 93t-45.5 50.5t-62.5 20.5t-90.5 4v-464q0 -42 2.5 -69.5t13 -44.5t31.5 -25t58 -11v-12q-34 2 -66.5 3t-65.5 1l-27 -67q13 4 32 4q32 0 57 -16.5t25 -52.5q0 -26 -11 -42.5t-28 -27t-39 -14.5t-43 -4
q-46 0 -88 18z" />
    <glyph glyph-name="uni0163.tCedilla" unicode="&#x163;" horiz-adv-x="315" 
d="M47 -169q27 -15 61 -15q10 0 20.5 1.5t19.5 6t14.5 12t5.5 19.5q0 20 -10 33t-30 13q-9 0 -19 -1.5t-18 -6.5l-13 6l38 90q-23 9 -32 31t-9 50v267h-80v16q32 1 55 16t40 38t28.5 51t20.5 54h14v-145h137v-30h-137v-233q0 -13 1.5 -25.5t6 -22.5t13 -16t23.5 -6
q30 0 50 13t40 33l9 -10q-17 -15 -33.5 -30t-33.5 -27.5t-37 -20.5t-44 -8l-20 -51q13 4 32 4q32 0 57 -16.5t25 -52.5q0 -26 -11 -42.5t-28 -27t-39 -14.5t-43 -4q-46 0 -88 18z" />
    <glyph glyph-name="uni0164.TCaron" unicode="&#x164;" horiz-adv-x="648" 
d="M176 8q36 3 56 11t30.5 25t13 44.5t2.5 69.5v464q-53 0 -88.5 -4t-61.5 -20.5t-45.5 -50.5t-38.5 -93l-13 4l14 196q42 -2 83 -3t83 -1h235q40 0 79 1t79 3l14 -196l-13 -4q-19 59 -38.5 93t-45.5 50.5t-62.5 20.5t-90.5 4v-464q0 -42 2.5 -69.5t13 -44.5t31.5 -25
t58 -11v-12q-38 2 -76 3t-76 1q-37 0 -73 -1t-72 -3v12zM357 719h-69l-111 172h39l107 -114l106 114h41z" />
    <glyph glyph-name="uni0165.tCaron" unicode="&#x165;" horiz-adv-x="383" 
d="M-5 337v16q32 1 55 16t40 38t28.5 51t20.5 54h14v-145h137v-30h-137v-233q0 -13 1.5 -25.5t6 -22.5t13 -16t23.5 -6q30 0 50 13t40 33l9 -10q-17 -15 -33 -30.5t-33.5 -28t-38 -20t-44.5 -7.5q-42 0 -57 25.5t-15 60.5v267h-80zM278 624q14 29 26 43.5t35 14.5
q13 0 22 -8t9 -23q0 -22 -17 -42l-84 -99h-47z" />
    <glyph glyph-name="uni0166.Tbar" unicode="&#x166;" horiz-adv-x="648" 
d="M368 372v-214q0 -42 2.5 -69.5t13 -44.5t31.5 -25t58 -11v-12q-38 2 -76 3t-76 1q-37 0 -73 -1t-72 -3v12q36 3 56 11t30.5 25t13 44.5t2.5 69.5v214h-96v56h96v194q-53 0 -88.5 -4t-61.5 -20.5t-45.5 -50.5t-38.5 -93l-13 4l14 196q42 -2 83 -3t83 -1h235q40 0 79 1
t79 3l14 -196l-13 -4q-19 59 -38.5 93t-45.5 50.5t-62.5 20.5t-90.5 4v-194h98v-56h-98z" />
    <glyph glyph-name="uni0167.tbar" unicode="&#x167;" horiz-adv-x="315" 
d="M153 253v-149q0 -13 1.5 -25.5t6 -22.5t13 -16t23.5 -6q30 0 50 13t40 33l9 -10q-17 -15 -33.5 -30.5t-33.5 -27.5t-37 -20t-45 -8q-42 0 -57 25.5t-15 60.5v183h-71v29h71v55h-80v16q32 1 55 16t40 38t28.5 51t20.5 54h14v-145h137v-30h-137v-55h136v-29h-136z" />
    <glyph glyph-name="uni0168.UTilde" unicode="&#x168;" horiz-adv-x="796" 
d="M128 553q0 28 -5.5 43.5t-16.5 24.5t-27 13t-37 8v12q42 -2 82.5 -3t82.5 -1q30 0 59.5 1t59.5 3v-12q-32 -3 -53 -10t-33 -20t-17 -33.5t-5 -50.5v-326q0 -47 15.5 -79.5t42.5 -53t62.5 -30t75.5 -9.5q64 0 105 19t65 46.5t33 59t9 55.5v280q0 40 -3.5 67.5t-14 45
t-29.5 26.5t-49 13v12q31 -2 61.5 -3t61.5 -1q26 0 51 1t51 3v-12q-21 -3 -38.5 -8t-29.5 -18t-18.5 -37.5t-6.5 -66.5v-299q0 -60 -21.5 -103.5t-58.5 -72.5t-86.5 -43t-105.5 -14q-51 0 -98 13.5t-83.5 41t-58.5 68.5t-22 95v355zM573 857q-5 -21 -12 -41t-19 -36t-29 -26
t-42 -10q-17 0 -34.5 7.5t-34 16.5t-32.5 16.5t-29 7.5q-20 0 -33 -16t-16 -33h-29q4 21 11 41t18.5 35t29 24t41.5 9q16 0 31.5 -7.5t32.5 -16.5q16 -9 32 -16.5t32 -7.5q14 0 23 7t14.5 16t8.5 18t5 12h31z" />
    <glyph glyph-name="uni0169.uTilde" unicode="&#x169;" horiz-adv-x="537" 
d="M156 122q0 -42 21.5 -65t63.5 -23q32 0 63.5 15.5t46.5 32.5v211q0 13 -2 24t-10 19.5t-24 15t-43 10.5v11l157 11v-307q0 -38 19.5 -50.5t54.5 -14.5v-10q-38 -2 -76.5 -3t-75.5 -3v52q-35 -26 -73.5 -45t-83.5 -19q-48 0 -82 27t-34 83v207q0 30 -16.5 41t-58.5 16v13
l153 13v-262zM413 571q-5 -21 -12 -41t-19 -36t-29 -26t-42 -10q-17 0 -34.5 7.5t-34 16.5t-32.5 16.5t-29 7.5q-20 0 -33 -16t-16 -33h-29q4 21 11 41t18.5 35t29 24t41.5 9q16 0 31.5 -7.5t32.5 -16.5q16 -9 32 -16.5t32 -7.5q14 0 23 7t14.5 16t8.5 18t5 12h31z" />
    <glyph glyph-name="uni016A.UMacron" unicode="&#x16a;" horiz-adv-x="796" 
d="M128 553q0 28 -5.5 43.5t-16.5 24.5t-27 13t-37 8v12q42 -2 82.5 -3t82.5 -1q30 0 59.5 1t59.5 3v-12q-32 -3 -53 -10t-33 -20t-17 -33.5t-5 -50.5v-326q0 -47 15.5 -79.5t42.5 -53t62.5 -30t75.5 -9.5q64 0 105 19t65 46.5t33 59t9 55.5v280q0 40 -3.5 67.5t-14 45
t-29.5 26.5t-49 13v12q31 -2 61.5 -3t61.5 -1q26 0 51 1t51 3v-12q-21 -3 -38.5 -8t-29.5 -18t-18.5 -37.5t-6.5 -66.5v-299q0 -60 -21.5 -103.5t-58.5 -72.5t-86.5 -43t-105.5 -14q-51 0 -98 13.5t-83.5 41t-58.5 68.5t-22 95v355zM276 758v56h284v-56h-284z" />
    <glyph glyph-name="uni016B.uMacron" unicode="&#x16b;" horiz-adv-x="537" 
d="M156 122q0 -42 21.5 -65t63.5 -23q32 0 63.5 15.5t46.5 32.5v211q0 13 -2 24t-10 19.5t-24 15t-43 10.5v11l157 11v-307q0 -38 19.5 -50.5t54.5 -14.5v-10q-38 -2 -76.5 -3t-75.5 -3v52q-35 -26 -73.5 -45t-83.5 -19q-48 0 -82 27t-34 83v207q0 30 -16.5 41t-58.5 16v13
l153 13v-262zM116 472v56h284v-56h-284z" />
    <glyph glyph-name="uni016C.UBreve" unicode="&#x16c;" horiz-adv-x="796" 
d="M128 553q0 28 -5.5 43.5t-16.5 24.5t-27 13t-37 8v12q42 -2 82.5 -3t82.5 -1q30 0 59.5 1t59.5 3v-12q-32 -3 -53 -10t-33 -20t-17 -33.5t-5 -50.5v-326q0 -47 15.5 -79.5t42.5 -53t62.5 -30t75.5 -9.5q64 0 105 19t65 46.5t33 59t9 55.5v280q0 40 -3.5 67.5t-14 45
t-29.5 26.5t-49 13v12q31 -2 61.5 -3t61.5 -1q26 0 51 1t51 3v-12q-21 -3 -38.5 -8t-29.5 -18t-18.5 -37.5t-6.5 -66.5v-299q0 -60 -21.5 -103.5t-58.5 -72.5t-86.5 -43t-105.5 -14q-51 0 -98 13.5t-83.5 41t-58.5 68.5t-22 95v355zM321 867q5 -42 32 -64t65 -22t65 22
t32 64h32q-1 -29 -8.5 -56t-22.5 -47.5t-39 -32.5t-58 -12q-35 0 -58.5 12t-39 32.5t-23 47.5t-9.5 56h32z" />
    <glyph glyph-name="uni016D.uBreve" unicode="&#x16d;" horiz-adv-x="537" 
d="M156 122q0 -42 21.5 -65t63.5 -23q32 0 63.5 15.5t46.5 32.5v211q0 13 -2 24t-10 19.5t-24 15t-43 10.5v11l157 11v-307q0 -38 19.5 -50.5t54.5 -14.5v-10q-38 -2 -76.5 -3t-75.5 -3v52q-35 -26 -73.5 -45t-83.5 -19q-48 0 -82 27t-34 83v207q0 30 -16.5 41t-58.5 16v13
l153 13v-262zM161 581q5 -42 32 -64t65 -22t65 22t32 64h32q-1 -29 -8.5 -56t-22.5 -47.5t-39 -32.5t-58 -12q-35 0 -58.5 12t-39 32.5t-23 47.5t-9.5 56h32z" />
    <glyph glyph-name="uni016E.Uring" unicode="&#x16e;" horiz-adv-x="796" 
d="M128 553q0 28 -5.5 43.5t-16.5 24.5t-27 13t-37 8v12q42 -2 82.5 -3t82.5 -1q30 0 59.5 1t59.5 3v-12q-32 -3 -53 -10t-33 -20t-17 -33.5t-5 -50.5v-326q0 -47 15.5 -79.5t42.5 -53t62.5 -30t75.5 -9.5q64 0 105 19t65 46.5t33 59t9 55.5v280q0 40 -3.5 67.5t-14 45
t-29.5 26.5t-49 13v12q31 -2 61.5 -3t61.5 -1q26 0 51 1t51 3v-12q-21 -3 -38.5 -8t-29.5 -18t-18.5 -37.5t-6.5 -66.5v-299q0 -60 -21.5 -103.5t-58.5 -72.5t-86.5 -43t-105.5 -14q-51 0 -98 13.5t-83.5 41t-58.5 68.5t-22 95v355zM316 822q0 43 29.5 72.5t72.5 29.5
t72.5 -29.5t29.5 -72.5t-29.5 -72.5t-72.5 -29.5t-72.5 29.5t-29.5 72.5zM356 822q0 -26 18 -44t44 -18t44 18t18 44t-18 44t-44 18t-44 -18t-18 -44z" />
    <glyph glyph-name="uni016F.uring" unicode="&#x16f;" horiz-adv-x="537" 
d="M156 122q0 -42 21.5 -65t63.5 -23q32 0 63.5 15.5t46.5 32.5v211q0 13 -2 24t-10 19.5t-24 15t-43 10.5v11l157 11v-307q0 -38 19.5 -50.5t54.5 -14.5v-10q-38 -2 -76.5 -3t-75.5 -3v52q-35 -26 -73.5 -45t-83.5 -19q-48 0 -82 27t-34 83v207q0 30 -16.5 41t-58.5 16v13
l153 13v-262zM156 536q0 43 29.5 72.5t72.5 29.5t72.5 -29.5t29.5 -72.5t-29.5 -72.5t-72.5 -29.5t-72.5 29.5t-29.5 72.5zM196 536q0 -26 18 -44t44 -18t44 18t18 44t-18 44t-44 18t-44 -18t-18 -44z" />
    <glyph glyph-name="uni0170.UDoubleAcute" unicode="&#x170;" horiz-adv-x="796" 
d="M128 553q0 28 -5.5 43.5t-16.5 24.5t-27 13t-37 8v12q42 -2 82.5 -3t82.5 -1q30 0 59.5 1t59.5 3v-12q-32 -3 -53 -10t-33 -20t-17 -33.5t-5 -50.5v-326q0 -47 15.5 -79.5t42.5 -53t62.5 -30t75.5 -9.5q64 0 105 19t65 46.5t33 59t9 55.5v280q0 40 -3.5 67.5t-14 45
t-29.5 26.5t-49 13v12q31 -2 61.5 -3t61.5 -1q26 0 51 1t51 3v-12q-21 -3 -38.5 -8t-29.5 -18t-18.5 -37.5t-6.5 -66.5v-299q0 -60 -21.5 -103.5t-58.5 -72.5t-86.5 -43t-105.5 -14q-51 0 -98 13.5t-83.5 41t-58.5 68.5t-22 95v355zM419 719l114 130q17 19 29.5 30.5
t26.5 11.5q41 0 41 -32q0 -17 -8.5 -26.5t-20.5 -17.5l-140 -96h-42zM265 719l109 130q11 12 25 27t32 15q20 0 31.5 -10.5t11.5 -27.5q0 -12 -10 -23t-20 -19l-125 -92h-54z" />
    <glyph glyph-name="uni0171.uDoubleAcute" unicode="&#x171;" horiz-adv-x="537" 
d="M156 122q0 -42 21.5 -65t63.5 -23q32 0 63.5 15.5t46.5 32.5v211q0 13 -2 24t-10 19.5t-24 15t-43 10.5v11l157 11v-307q0 -38 19.5 -50.5t54.5 -14.5v-10q-38 -2 -76.5 -3t-75.5 -3v52q-35 -26 -73.5 -45t-83.5 -19q-48 0 -82 27t-34 83v207q0 30 -16.5 41t-58.5 16v13
l153 13v-262zM250 433l114 130q17 19 29.5 30.5t26.5 11.5q41 0 41 -32q0 -17 -8.5 -26.5t-20.5 -17.5l-140 -96h-42zM96 433l109 130q11 12 25 27t32 15q20 0 31.5 -10.5t11.5 -27.5q0 -12 -10 -23t-20 -19l-125 -92h-54z" />
    <glyph glyph-name="uni0172.UOgonek" unicode="&#x172;" horiz-adv-x="796" 
d="M128 553q0 28 -5.5 43.5t-16.5 24.5t-27 13t-37 8v12q42 -2 82.5 -3t82.5 -1q30 0 59.5 1t59.5 3v-12q-32 -3 -53 -10t-33 -20t-17 -33.5t-5 -50.5v-326q0 -47 15.5 -79.5t42.5 -53t62.5 -30t75.5 -9.5q64 0 105 19t65 46.5t33 59t9 55.5v280q0 40 -3.5 67.5t-14 45
t-29.5 26.5t-49 13v12q31 -2 61.5 -3t61.5 -1q26 0 51 1t51 3v-12q-21 -3 -38.5 -8t-29.5 -18t-18.5 -37.5t-6.5 -66.5v-299q0 -85 -41 -137t-111 -77q-19 -7 -40.5 -18t-40 -25.5t-30.5 -31.5t-12 -36q0 -23 14.5 -37.5t37.5 -14.5q29 0 54.5 12.5t48.5 28.5l17 -32
q-35 -23 -72 -40t-79 -17q-39 0 -67 23.5t-28 62.5q0 37 27.5 63t65.5 43h-16q-51 0 -98 13.5t-83.5 41t-58.5 68.5t-22 95v355z" />
    <glyph glyph-name="uni0173.uOgonek" unicode="&#x173;" horiz-adv-x="537" 
d="M156 122q0 -42 21.5 -65t63.5 -23q32 0 63.5 15.5t46.5 32.5v211q0 13 -2 24t-10 19.5t-24 15t-43 10.5v11l157 11v-307q0 -38 19.5 -50.5t54.5 -14.5v-10q-36 -3 -70 -3q-10 0 -32.5 -9t-46 -24t-41.5 -35t-18 -43t14.5 -37.5t37.5 -14.5q29 0 54.5 12.5t48.5 28.5
l17 -32q-35 -23 -72 -40t-79 -17q-39 0 -67 23.5t-28 62.5q0 23 11 41.5t29.5 33.5t42 26.5t47.5 19.5v53q-35 -26 -73.5 -45t-83.5 -19q-48 0 -82 27t-34 83v207q0 30 -16.5 41t-58.5 16v13l153 13v-262z" />
    <glyph glyph-name="uni0174.WCircumflex" unicode="&#x174;" horiz-adv-x="1000" 
d="M-11 654q36 -2 72 -3t71 -1q40 0 79 1t78 3v-12q-17 -2 -34 -5t-30.5 -10.5t-22 -20.5t-8.5 -34q0 -14 8 -34.5t19 -48.5l139 -367l124 307l-52 130q-32 79 -113 83v12q33 -2 66 -3t66 -1q42 0 83.5 1t83.5 3v-12q-13 -1 -29.5 -4.5t-31 -10t-24.5 -17.5t-10 -28
q0 -9 4.5 -24t14.5 -41l149 -395l152 383q8 20 14 44t6 36q0 15 -9.5 25.5t-23.5 17t-29.5 10t-27.5 4.5v12q33 -2 65.5 -3t64.5 -1q29 0 58 1t58 3v-12q-30 -3 -50.5 -15t-35 -29.5t-24 -37.5t-17.5 -38l-228 -532h-17l-146 397l-167 -397h-18l-203 539q-15 39 -30 60.5
t-30 32t-31 14t-33 6.5v12zM444 891h69l113 -172h-41l-106 110l-107 -110h-39z" />
    <glyph glyph-name="uni0175.wCircumflex" unicode="&#x175;" horiz-adv-x="741" 
d="M-27 372q19 -1 33.5 -2t27.5 -1.5t26.5 -0.5h30.5q27 0 54 1t54 3v-13q-21 -1 -38.5 -14.5t-17.5 -36.5q0 -18 12 -48.5t28 -64t32 -65t23 -50.5l101 198q-5 13 -12.5 27t-18 25.5t-24.5 19.5t-32 10v12q10 -1 19.5 -2t20.5 -1.5t25.5 -0.5h34.5q32 0 63 1t62 3v-12
q-26 -1 -44.5 -14.5t-18.5 -39.5q0 -14 12.5 -45.5t29 -67t32 -68.5t21.5 -49q8 15 24.5 47t32.5 67t28 66t12 45q0 30 -13 42.5t-42 16.5v12q23 -2 45 -3t45 -1q22 0 44 1t44 3v-12q-24 -3 -42 -18.5t-32.5 -37t-26 -47t-22.5 -47.5l-108 -222h-22l-121 263l-129 -263h-25
q-14 34 -30.5 71t-33.5 73.5t-33.5 71t-30.5 63.5q-17 35 -43 61t-57 32v12zM325 605h69l113 -172h-41l-106 110l-107 -110h-39z" />
    <glyph glyph-name="uni0176.YCircumflex" unicode="&#x176;" horiz-adv-x="722" 
d="M-20 654q42 -2 82 -3t82 -1q39 0 78.5 1t78.5 3v-12q-12 -2 -26.5 -6t-27 -11t-20.5 -18t-8 -27q0 -11 10.5 -29t30.5 -45l142 -192l118 185q26 42 26 77q0 29 -24 46.5t-54 19.5v12q35 -2 70.5 -3t70.5 -1q32 0 63.5 1t63.5 3v-12q-36 -7 -64 -25.5t-50.5 -42t-40 -49.5
t-32.5 -47l-137 -200v-147q0 -37 6 -59.5t19.5 -35.5t36.5 -19t58 -9v-12q-45 2 -89 3t-89 1q-37 0 -74 -1t-74 -3v12q33 3 55.5 9t36 19t19 35.5t5.5 59.5v157l-181 232q-14 18 -29 36.5t-33.5 35t-42.5 30t-56 20.5v12zM345 891h69l113 -172h-41l-106 110l-107 -110h-39z
" />
    <glyph glyph-name="uni0177.yCircumflex" unicode="&#x177;" 
d="M-25 372q30 -3 55.5 -3.5t56.5 -0.5q30 0 61 0.5t61 3.5v-12q-22 -2 -42 -13t-20 -36q0 -20 13 -53.5t30.5 -72t36 -78.5t29.5 -74q5 10 15.5 33t24 52.5t27 61.5t25 60t19 49t7.5 28q0 12 -5.5 19t-13.5 11.5t-19 7t-21 5.5v12q23 -3 46 -3.5t47 -0.5q23 0 45 0.5
t45 3.5v-12q-28 -4 -54.5 -34.5t-49 -69.5t-39.5 -76.5t-26 -55.5q-42 -87 -76 -149t-61.5 -103.5t-50 -65.5t-43 -36.5t-40 -16t-40.5 -3.5q-18 0 -35.5 5t-31 15.5t-22 26.5t-8.5 38q0 20 14.5 36t34.5 16q23 0 37 -11.5t14 -35.5q0 -17 -8 -28.5t-8 -16.5q0 -6 14.5 -7.5
t28.5 -1.5q30 0 59 24.5t51.5 56t36.5 60t14 36.5q0 3 -7 20.5t-19 45t-27 61.5t-30 67.5t-30 65t-26 53.5q-10 23 -17 37t-17 22.5t-24 13.5t-37 11v12zM224 605h69l113 -172h-41l-106 110l-107 -110h-39z" />
    <glyph glyph-name="Ydieresis" unicode="&#x178;" horiz-adv-x="722" 
d="M-20 654q42 -2 82 -3t82 -1q39 0 78.5 1t78.5 3v-12q-12 -2 -26.5 -6t-27 -11t-20.5 -18t-8 -27q0 -11 10.5 -29t30.5 -45l142 -192l118 185q26 42 26 77q0 29 -24 46.5t-54 19.5v12q35 -2 70.5 -3t70.5 -1q32 0 63.5 1t63.5 3v-12q-36 -7 -64 -25.5t-50.5 -42t-40 -49.5
t-32.5 -47l-137 -200v-147q0 -37 6 -59.5t19.5 -35.5t36.5 -19t58 -9v-12q-45 2 -89 3t-89 1q-37 0 -74 -1t-74 -3v12q33 3 55.5 9t36 19t19 35.5t5.5 59.5v157l-181 232q-14 18 -29 36.5t-33.5 35t-42.5 30t-56 20.5v12zM269 812q23 0 38 -15t15 -38t-15 -38t-38 -15
t-38 15t-15 38t15 38t38 15zM454 812q23 0 38 -15t15 -38t-15 -38t-38 -15t-38 15t-15 38t15 38t38 15z" />
    <glyph glyph-name="Zacute" unicode="&#x179;" horiz-adv-x="704" 
d="M659 642q-63 -73 -129 -153.5t-129 -161t-121 -156t-106 -139.5q15 -4 41 -5t71 -1q58 0 113 8t102 29.5t83 59.5t57 97h20l-76 -224q-88 2 -175.5 3t-175.5 1q-46 0 -91.5 -1t-91.5 -3l-8 12l487 616h-134q-44 0 -88 -7.5t-81 -26.5t-63 -51.5t-35 -82.5h-14
q-1 18 0.5 36t1.5 35q0 32 3 63.5t8 63.5q31 -1 65.5 -2t68 -1.5t64.5 -0.5h57q69 0 134.5 1t134.5 3zM431 822q17 19 29.5 30.5t26.5 11.5q41 0 41 -32q0 -11 -8.5 -23.5t-20.5 -20.5l-140 -96h-44z" />
    <glyph glyph-name="zacute" unicode="&#x17a;" horiz-adv-x="444" 
d="M16 14l270 328h-71q-58 0 -98 -19.5t-66 -73.5l-14 4l14 119q42 -2 82 -3t82 -1t81.5 1t81.5 3l11 -16l-272 -330h64q34 0 64.5 3t56 13.5t44.5 31t31 56.5l15 -5l-22 -129q-45 2 -90 3t-90 1q-42 0 -82.5 -1t-82.5 -3zM261 563q17 19 29.5 30.5t26.5 11.5q41 0 41 -32
q0 -11 -8.5 -23.5t-20.5 -20.5l-140 -96h-44z" />
    <glyph glyph-name="Zdotaccent" unicode="&#x17b;" horiz-adv-x="704" 
d="M659 642q-63 -73 -129 -153.5t-129 -161t-121 -156t-106 -139.5q15 -4 41 -5t71 -1q58 0 113 8t102 29.5t83 59.5t57 97h20l-76 -224q-88 2 -175.5 3t-175.5 1q-46 0 -91.5 -1t-91.5 -3l-8 12l487 616h-134q-44 0 -88 -7.5t-81 -26.5t-63 -51.5t-35 -82.5h-14
q-1 18 0.5 36t1.5 35q0 32 3 63.5t8 63.5q31 -1 65.5 -2t68 -1.5t64.5 -0.5h57q69 0 134.5 1t134.5 3zM387 812q23 0 38 -15t15 -38t-15 -38t-38 -15t-38 15t-15 38t15 38t38 15z" />
    <glyph glyph-name="zdotaccent" unicode="&#x17c;" horiz-adv-x="444" 
d="M16 14l270 328h-71q-58 0 -98 -19.5t-66 -73.5l-14 4l14 119q42 -2 82 -3t82 -1t81.5 1t81.5 3l11 -16l-272 -330h64q34 0 64.5 3t56 13.5t44.5 31t31 56.5l15 -5l-22 -129q-45 2 -90 3t-90 1q-42 0 -82.5 -1t-82.5 -3zM222 553q23 0 38 -15t15 -38t-15 -38t-38 -15
t-38 15t-15 38t15 38t38 15z" />
    <glyph glyph-name="Zcaron" unicode="&#x17d;" horiz-adv-x="704" 
d="M659 642q-63 -73 -129 -153.5t-129 -161t-121 -156t-106 -139.5q15 -4 41 -5t71 -1q58 0 113 8t102 29.5t83 59.5t57 97h20l-76 -224q-88 2 -175.5 3t-175.5 1q-46 0 -91.5 -1t-91.5 -3l-8 12l487 616h-134q-44 0 -88 -7.5t-81 -26.5t-63 -51.5t-35 -82.5h-14
q-1 18 0.5 36t1.5 35q0 32 3 63.5t8 63.5q31 -1 65.5 -2t68 -1.5t64.5 -0.5h57q69 0 134.5 1t134.5 3zM387 692h-69l-111 172h39l107 -114l106 114h41z" />
    <glyph glyph-name="zcaron" unicode="&#x17e;" horiz-adv-x="444" 
d="M16 14l270 328h-71q-58 0 -98 -19.5t-66 -73.5l-14 4l14 119q42 -2 82 -3t82 -1t81.5 1t81.5 3l11 -16l-272 -330h64q34 0 64.5 3t56 13.5t44.5 31t31 56.5l15 -5l-22 -129q-45 2 -90 3t-90 1q-42 0 -82.5 -1t-82.5 -3zM257 433h-69l-111 172h39l107 -114l106 114h41z
" />
    <glyph glyph-name="uni017F.longs" unicode="&#x17f;" horiz-adv-x="315" 
d="M7 8q26 1 40.5 8t22 20t9 31t1.5 41v362q0 34 9.5 76t30.5 79t55 62t83 25q48 0 81.5 -25t33.5 -67q0 -24 -8 -33t-31 -9q-15 0 -21 9t-6 41q0 7 -3 18t-10.5 21.5t-20 17.5t-30.5 7q-26 0 -42 -15t-26 -36.5t-13.5 -45.5t-3.5 -41v-446q0 -23 2.5 -41t13.5 -31t33.5 -20
t63.5 -8v-12q-35 2 -69 3t-69 1q-32 0 -63 -1t-63 -3v12z" />
    <glyph glyph-name="uni018F" unicode="&#x18f;" horiz-adv-x="768" 
d="M372 -20q-70 0 -129.5 21.5t-103 64t-68.5 106t-25 148.5h570v5q0 61 -18.5 114t-51.5 92t-80 61t-104 22q-79 0 -140 -34.5t-109 -96.5l-25 20q30 40 61.5 71t68 52.5t79 32.5t95.5 11q67 0 127 -25.5t105 -71t71.5 -109t26.5 -139.5q0 -81 -26 -145t-72.5 -108.5
t-111 -68t-140.5 -23.5zM382 16q55 0 96.5 21.5t70 59t44.5 86.5t21 105h-462q1 -56 17.5 -105t46 -86.5t71.5 -59t95 -21.5z" />
    <glyph glyph-name="florin" unicode="&#x192;" 
d="M130 344l7 30h99q4 24 8.5 58.5t12.5 72t19 74.5t29 66.5t42.5 48t58.5 18.5q86 0 86 -88q0 -20 -7 -29t-34 -9q-14 0 -23.5 4t-9.5 12q0 11 3 23.5t3 35.5q0 27 -28 27q-14 0 -25 -14t-19.5 -37t-14.5 -53t-10 -62l-17 -148h118l-4 -30h-117l-19 -146q-2 -20 -6 -59.5
t-12.5 -86.5t-21.5 -97t-33 -90.5t-48 -66.5t-65 -26q-42 0 -68 23t-26 62q0 20 8 33.5t28 13.5q17 0 27.5 -12.5t10.5 -23.5t-1.5 -18.5t-1.5 -15.5q0 -16 6.5 -27t24.5 -11q15 0 26.5 12.5t20.5 32.5t15 44t10 47.5t6.5 43t3.5 30.5l39 338h-101z" />
    <glyph glyph-name="uni01A0.OHorn" unicode="&#x1a0;" horiz-adv-x="878" 
d="M873 666q2 -4 3.5 -14.5t1.5 -33.5q0 -45 -17.5 -69t-40.5 -24q-19 0 -51.5 9t-65.5 20q39 -44 61.5 -101t22.5 -128q0 -81 -29.5 -145t-79.5 -108.5t-117.5 -68t-143.5 -23.5t-143.5 23.5t-117.5 68t-79.5 108.5t-29.5 145t29.5 145t79.5 108.5t117.5 68t143.5 23.5
q60 0 114 -14.5t99 -41.5q15 -9 34.5 -16.5t38.5 -13t36 -8.5t28 -3q23 0 33 12.5t10 41.5q0 23 -1 38.5t-4 24.5zM153 325q0 -61 18 -117t52 -98.5t83 -68t111 -25.5t111 25.5t83 68t52 98.5t18 117t-18 117t-52 98.5t-83 68t-111 25.5t-111 -25.5t-83 -68t-52 -98.5
t-18 -117z" />
    <glyph glyph-name="uni01A1.oHorn" unicode="&#x1a1;" horiz-adv-x="596" 
d="M587 384q2 -4 3.5 -14.5t1.5 -33.5q0 -45 -17.5 -69t-40.5 -24q-16 0 -41.5 6t-53.5 15q15 -36 15 -80q0 -45 -15.5 -82t-44 -63t-68 -40.5t-87.5 -14.5t-87.5 14.5t-68 40.5t-44 63t-15.5 82t15.5 82t44 63t68 40.5t87.5 14.5q54 0 95.5 -17.5t71.5 -49.5q7 -8 17.5 -13
t21 -8t20.5 -4t16 -1q23 0 33 12.5t10 41.5q0 23 -1 38.5t-4 24.5zM221 354q-28 0 -48.5 -14t-34 -36.5t-20 -51t-6.5 -56.5q0 -32 8.5 -64t26.5 -58.5t45 -43t65 -16.5q28 0 48.5 14t34 36.5t20 50.5t6.5 57q0 31 -9 63.5t-27 59t-45 43t-64 16.5z" />
    <glyph glyph-name="uni01A2" unicode="&#x1a2;" horiz-adv-x="934" 
d="M607 -232q36 3 56 11t30.5 25t13 44.5t2.5 69.5v699q-28 0 -47 -5.5t-30.5 -18.5t-16.5 -34.5t-5 -53.5v-458q-52 -35 -110.5 -51t-121.5 -16q-67 0 -127 25.5t-105 71t-71.5 109t-26.5 139.5t26.5 139.5t71.5 109t105 71t127 25.5q37 0 69 -4.5t61.5 -9.5t57 -10
t54.5 -6q52 1 97 11.5t82 18.5v-752q0 -42 2.5 -69.5t13 -44.5t31.5 -25t58 -11v-12q-38 2 -76 3t-76 1q-37 0 -73 -1t-72 -3v12zM408 32q61 0 112 21v537q-28 21 -61.5 32.5t-74.5 11.5q-62 0 -105 -24t-70.5 -65t-40 -95t-12.5 -114t16 -115t47.5 -97t79 -67t109.5 -25z
" />
    <glyph glyph-name="uni01A3" unicode="&#x1a3;" horiz-adv-x="631" 
d="M379 -232q20 1 34 4t23 10.5t13 22t4 39.5v502q-35 0 -60 -18.5t-25 -61.5v-246q-32 -11 -72.5 -21t-85.5 -10q-39 0 -73 15t-58.5 41.5t-39 62t-14.5 76.5t16 77.5t42.5 63.5t62 43t74.5 16q42 0 81 -8t67 -8q44 0 81 4t82 12v-540q0 -25 4 -39.5t13.5 -22t24.5 -10.5
t37 -4v-12q-35 2 -70.5 3t-70.5 1q-23 0 -45 -1t-45 -3v12zM229 26q17 0 35.5 2.5t26.5 4.5v302q-14 11 -32 17t-39 6q-31 0 -53 -15t-35.5 -38.5t-20 -53t-6.5 -58.5q0 -33 9 -63t25.5 -53.5t39.5 -37t50 -13.5z" />
    <glyph glyph-name="uni01AF.UHorn" unicode="&#x1af;" horiz-adv-x="883" 
d="M878 666q2 -4 3.5 -14.5t1.5 -33.5q0 -45 -17.5 -69t-40.5 -24q-12 0 -31.5 4t-41 10.5t-44.5 14t-42 15.5q-2 -12 -3 -26t-1 -31v-299q0 -60 -21.5 -103.5t-58.5 -72.5t-86.5 -43t-105.5 -14q-51 0 -98 13.5t-83.5 41t-58.5 68.5t-22 95v355q0 28 -5.5 43.5t-16.5 24.5
t-27 13t-37 8v12q42 -2 82.5 -3t82.5 -1q30 0 59.5 1t59.5 3v-12q-32 -3 -53 -10t-33 -20t-17 -33.5t-5 -50.5v-326q0 -47 15.5 -79.5t42.5 -53t62.5 -30t75.5 -9.5q64 0 105 19t65 46.5t33 59t9 55.5v280q0 40 -3.5 67.5t-14 45t-29.5 26.5t-49 13v12q31 -2 61.5 -3
t61.5 -1q26 0 51 1t51 3v-12q-28 -4 -49 -12t-32 -34q28 -11 55.5 -17t42.5 -6q23 0 33 12.5t10 41.5q0 23 -1 38.5t-4 24.5z" />
    <glyph glyph-name="uni01B0.uHorn" unicode="&#x1b0;" horiz-adv-x="628" 
d="M617 384q2 -4 3.5 -14.5t1.5 -33.5q0 -45 -17.5 -69t-40.5 -24q-11 0 -26.5 3t-33.5 8t-37.5 11t-37.5 13v-201q0 -38 19.5 -50.5t54.5 -14.5v-10q-38 -2 -76.5 -3t-75.5 -3v52q-35 -26 -73.5 -45t-83.5 -19q-48 0 -82 27t-34 83v207q0 30 -16.5 41t-58.5 16v13l153 13
v-262q0 -42 21.5 -65t63.5 -23q32 0 63.5 15.5t46.5 32.5v211q0 13 -2 24t-10 19.5t-24 15t-43 10.5v11l157 11v-75q24 -8 46.5 -13t35.5 -5q23 0 33 12.5t10 41.5q0 23 -1 38.5t-4 24.5z" />
    <glyph glyph-name="uni01B5" unicode="&#x1b5;" horiz-adv-x="704" 
d="M43 8l235 298h-139v32h165l226 286h-134q-44 0 -88 -7.5t-81 -26.5t-63 -51.5t-35 -82.5h-14q2 48 6 99t7 99q31 -1 65.5 -2t68 -1.5t64.5 -0.5h57q69 0 134.5 1t134.5 3l7 -12q-62 -72 -125 -149t-125 -155h161v-32h-186q-59 -75 -112 -144.5t-98 -129.5q15 -4 41 -5
t71 -1q58 0 113 8t102 29.5t83 59.5t57 97h20l-76 -224q-88 2 -175.5 3t-175.5 1q-46 0 -91.5 -1t-91.5 -3z" />
    <glyph glyph-name="uni01B6" unicode="&#x1b6;" horiz-adv-x="444" 
d="M16 14l136 166h-82v30h107l109 132h-71q-58 0 -98 -19.5t-66 -73.5l-14 4l14 119q42 -2 82 -3t82 -1t81.5 1t81.5 3l11 -16l-121 -146h96v-30h-120l-127 -154h64q34 0 64.5 3t56 13.5t44.5 31t31 56.5l15 -5l-22 -129q-45 2 -90 3t-90 1q-42 0 -82.5 -1t-82.5 -3z" />
    <glyph glyph-name="uni01C0.clickDental" unicode="&#x1c0;" horiz-adv-x="222" 
d="M61 712h100v-772h-100v772z" />
    <glyph glyph-name="uni01C1.clickLateral" unicode="&#x1c1;" horiz-adv-x="442" 
d="M281 712h100v-772h-100v772zM61 712h100v-772h-100v772z" />
    <glyph glyph-name="uni01C3.clickRetroflex" unicode="&#x1c3;" horiz-adv-x="389" 
d="M189 154q-1 7 -3 16t-4 20q-10 51 -16 100t-6 100q0 23 3 47t3 47q0 61 -10 94.5t-38 53.5v8l115 20q2 -18 5.5 -36t3.5 -36q0 -47 -6 -92t-13 -85t-13 -74t-6 -60q0 -31 -1 -61.5t-1 -61.5h-13zM196 106q23 0 39.5 -16t16.5 -40t-16.5 -40t-39.5 -16t-39.5 16t-16.5 40
t16.5 40t39.5 16z" />
    <glyph glyph-name="uni01C4.DZCaron" unicode="&#x1c4;" horiz-adv-x="1537" 
d="M39 8q33 3 52.5 11t30 18.5t13.5 22.5t3 24v462q0 22 -2.5 38.5t-12.5 28.5t-30 19t-54 10v12q26 -2 52 -3t52 -1q70 0 130 7t123 7q81 0 152 -25t124.5 -71.5t84.5 -112.5t31 -148q0 -83 -30 -141.5t-80 -96t-114.5 -54.5t-134.5 -17q-54 0 -92.5 0.5t-67.5 0.5t-52 0.5
t-44 0.5q-34 0 -67 -1t-67 -3v12zM228 76q32 -30 73.5 -42t83.5 -12q154 0 224.5 79t70.5 229q0 65 -23.5 121.5t-65 98.5t-99 66t-125.5 24q-70 0 -133 -28q-4 -52 -5 -103.5t-1 -105.5v-327zM1492 642q-63 -73 -129 -153.5t-129 -161t-121 -156t-106 -139.5q15 -4 41 -5
t71 -1q58 0 113 8t102 29.5t83 59.5t57 97h20l-76 -224q-88 2 -175.5 3t-175.5 1q-46 0 -91.5 -1t-91.5 -3l-8 12l487 616h-134q-44 0 -88 -7.5t-81 -26.5t-63 -51.5t-35 -82.5h-14q-1 18 0.5 36t1.5 35q0 32 3 63.5t8 63.5q31 -1 65.5 -2t68 -1.5t64.5 -0.5h57
q69 0 134.5 1t134.5 3z" />
    <glyph glyph-name="uni01C5.DzCaron" unicode="&#x1c5;" horiz-adv-x="1277" 
d="M39 8q33 3 52.5 11t30 18.5t13.5 22.5t3 24v462q0 22 -2.5 38.5t-12.5 28.5t-30 19t-54 10v12q26 -2 52 -3t52 -1q70 0 130 7t123 7q81 0 152 -25t124.5 -71.5t84.5 -112.5t31 -148q0 -83 -30 -141.5t-80 -96t-114.5 -54.5t-134.5 -17q-54 0 -92.5 0.5t-67.5 0.5t-52 0.5
t-44 0.5q-34 0 -67 -1t-67 -3v12zM228 76q32 -30 73.5 -42t83.5 -12q154 0 224.5 79t70.5 229q0 65 -23.5 121.5t-65 98.5t-99 66t-125.5 24q-70 0 -133 -28q-4 -52 -5 -103.5t-1 -105.5v-327zM849 14l270 328h-71q-58 0 -98 -19.5t-66 -73.5l-14 4l14 119q42 -2 82 -3
t82 -1t81.5 1t81.5 3l11 -16l-272 -330h64q34 0 64.5 3t56 13.5t44.5 31t31 56.5l15 -5l-22 -129q-45 2 -90 3t-90 1q-42 0 -82.5 -1t-82.5 -3z" />
    <glyph glyph-name="uni01C6.dzCaron" unicode="&#x1c6;" horiz-adv-x="981" 
d="M432 101q0 -26 3 -43t12 -27.5t25.5 -14.5t43.5 -4v-12q-40 0 -79.5 -1t-81.5 -3v37q-23 -20 -64.5 -34.5t-89.5 -14.5q-41 0 -74.5 15.5t-57 42t-36.5 61.5t-13 73q0 45 16 83t44.5 66t67 43.5t83.5 15.5q33 0 64 -12t59 -29v259q0 24 -3.5 39t-13.5 24t-26.5 13
t-41.5 6v12l163 16v-611zM354 276q-3 13 -14.5 27.5t-28.5 26t-38.5 19t-43.5 7.5q-34 0 -57.5 -15t-38.5 -39.5t-22 -55t-7 -60.5t7 -60.5t22 -55t38.5 -39.5t57.5 -15q23 0 44 7t38 17.5t28.5 22.5t14.5 21v192zM553 14l270 328h-71q-58 0 -98 -19.5t-66 -73.5l-14 4
l14 119q42 -2 82 -3t82 -1t81.5 1t81.5 3l11 -16l-272 -330h64q34 0 64.5 3t56 13.5t44.5 31t31 56.5l15 -5l-22 -129q-45 2 -90 3t-90 1q-42 0 -82.5 -1t-82.5 -3z" />
    <glyph glyph-name="uni01C7.LJ" unicode="&#x1c7;" horiz-adv-x="1278" 
d="M361 642q-48 -7 -75 -16t-39.5 -22.5t-15.5 -34t-3 -50.5v-480q27 -5 52.5 -9t51.5 -4q59 0 103 12t79 36t64.5 60.5t59.5 85.5h15l-77 -224q-36 2 -72.5 3t-72.5 1h-294q-25 0 -50 -1t-50 -3v12q33 3 52.5 10t30.5 17.5t14.5 25.5t3.5 35v396q0 42 -2.5 69.5t-12.5 44.5
t-30 25t-56 11v12q39 -2 77.5 -3t77.5 -1q42 0 84.5 1t84.5 3v-12zM924 654q37 -2 72.5 -3t72.5 -1q42 0 82 1t82 3v-12q-26 -3 -43.5 -8t-28.5 -15t-16 -26t-5 -41v-380q0 -48 -22 -84t-58 -60t-82 -36t-94 -12q-26 0 -61.5 8t-68.5 26t-56 48t-23 74q0 27 16 51t51 24
q24 0 42.5 -16.5t18.5 -34.5q0 -14 -3.5 -33t-13.5 -30q4 -26 15 -42.5t26.5 -26t34 -13t37.5 -3.5q50 0 80 18t45.5 45.5t20.5 61t5 65.5v332q0 33 -7.5 52.5t-23 31t-39.5 16.5t-56 8v12z" />
    <glyph glyph-name="uni01C8.Lj" unicode="&#x1c8;" horiz-adv-x="907" 
d="M361 642q-48 -7 -75 -16t-39.5 -22.5t-15.5 -34t-3 -50.5v-480q27 -5 52.5 -9t51.5 -4q59 0 103 12t79 36t64.5 60.5t59.5 85.5h15l-77 -224q-36 2 -72.5 3t-72.5 1h-294q-25 0 -50 -1t-50 -3v12q33 3 52.5 10t30.5 17.5t14.5 25.5t3.5 35v396q0 42 -2.5 69.5t-12.5 44.5
t-30 25t-56 11v12q39 -2 77.5 -3t77.5 -1q42 0 84.5 1t84.5 3v-12zM662 368l152 10v-344q0 -48 -17 -88t-45 -74.5t-64 -64.5t-73 -57l-12 14q40 35 66 66.5t41 65t20.5 73.5t5.5 93v196q0 48 -16 72t-58 24v14zM765 674q22 0 37.5 -16.5t15.5 -38.5t-15.5 -38.5
t-37.5 -16.5t-37.5 16.5t-15.5 38.5t15.5 38.5t37.5 16.5z" />
    <glyph glyph-name="uni01C9.lj" unicode="&#x1c9;" horiz-adv-x="518" 
d="M-1 8q25 2 40 7.5t23 16.5t10 30t2 48v502q0 39 -12 54.5t-57 15.5v12l147 18v-602q0 -29 2 -48t10.5 -30t24 -16.5t42.5 -7.5v-12q-29 2 -59.5 3t-60.5 1q-29 0 -56.5 -1t-55.5 -3v12zM273 368l152 10v-344q0 -48 -17 -88t-45 -74.5t-64 -64.5t-73 -57l-12 14
q40 35 66 66.5t41 65t20.5 73.5t5.5 93v196q0 48 -16 72t-58 24v14zM376 674q22 0 37.5 -16.5t15.5 -38.5t-15.5 -38.5t-37.5 -16.5t-37.5 16.5t-15.5 38.5t15.5 38.5t37.5 16.5z" />
    <glyph glyph-name="uni01CA.NJ" unicode="&#x1ca;" horiz-adv-x="1445" 
d="M16 654q35 -2 66.5 -3t73.5 -1q22 0 43 1t43 3q13 -18 43 -54.5t68.5 -83.5t82.5 -100t85 -103.5t75.5 -94t54.5 -71.5h2q0 30 0.5 59.5t0.5 59.5v116q0 64 -4.5 111.5t-18 79.5t-38 49t-64.5 20v12q35 -2 70.5 -3t70.5 -1q32 0 65 1t65 3v-12q-63 -8 -86.5 -36.5
t-23.5 -87.5v-530h-37q-55 86 -116.5 167t-122 154t-117 135.5t-101.5 111.5q-1 -26 -1.5 -51t-0.5 -51v-175q0 -89 3.5 -140.5t17 -79t40 -37t73.5 -14.5v-12q-51 2 -99 3t-99 1q-29 0 -57 -1t-57 -3v12q34 5 59.5 9.5t42 15t25 30t9.5 54.5l12 459q-32 26 -70 41t-78 25
v12zM1091 654q37 -2 72.5 -3t72.5 -1q42 0 82 1t82 3v-12q-26 -3 -43.5 -8t-28.5 -15t-16 -26t-5 -41v-380q0 -48 -22 -84t-58 -60t-82 -36t-94 -12q-26 0 -61.5 8t-68.5 26t-56 48t-23 74q0 27 16 51t51 24q24 0 42.5 -16.5t18.5 -34.5q0 -14 -3.5 -33t-13.5 -30
q4 -26 15 -42.5t26.5 -26t34 -13t37.5 -3.5q50 0 80 18t45.5 45.5t20.5 61t5 65.5v332q0 33 -7.5 52.5t-23 31t-39.5 16.5t-56 8v12z" />
    <glyph glyph-name="uni01CB.Nj" unicode="&#x1cb;" horiz-adv-x="1074" 
d="M16 654q35 -2 66.5 -3t73.5 -1q22 0 43 1t43 3q13 -18 43 -54.5t68.5 -83.5t82.5 -100t85 -103.5t75.5 -94t54.5 -71.5h2q0 30 0.5 59.5t0.5 59.5v116q0 64 -4.5 111.5t-18 79.5t-38 49t-64.5 20v12q35 -2 70.5 -3t70.5 -1q32 0 65 1t65 3v-12q-63 -8 -86.5 -36.5
t-23.5 -87.5v-530h-37q-55 86 -116.5 167t-122 154t-117 135.5t-101.5 111.5q-1 -26 -1.5 -51t-0.5 -51v-175q0 -89 3.5 -140.5t17 -79t40 -37t73.5 -14.5v-12q-51 2 -99 3t-99 1q-29 0 -57 -1t-57 -3v12q34 5 59.5 9.5t42 15t25 30t9.5 54.5l12 459q-32 26 -70 41t-78 25
v12zM829 368l152 10v-344q0 -48 -17 -88t-45 -74.5t-64 -64.5t-73 -57l-12 14q40 35 66 66.5t41 65t20.5 73.5t5.5 93v196q0 48 -16 72t-58 24v14zM932 674q22 0 37.5 -16.5t15.5 -38.5t-15.5 -38.5t-37.5 -16.5t-37.5 16.5t-15.5 38.5t15.5 38.5t37.5 16.5z" />
    <glyph glyph-name="uni01CC.nj" unicode="&#x1cc;" horiz-adv-x="796" 
d="M14 356l146 22v-53q27 21 62 40t67 19q28 0 53.5 -7t45.5 -23t32 -43t12 -67v-176q0 -33 18 -43.5t52 -16.5v-12q-29 2 -62 3t-67 1q-23 0 -44.5 -1t-41.5 -3v12q32 6 49.5 16.5t17.5 43.5v161q0 51 -21.5 79t-69.5 28q-17 0 -35 -5t-33 -13.5t-25 -18.5t-10 -19v-212
q0 -33 19 -43.5t57 -16.5v-12q-34 2 -67.5 3t-67.5 1q-23 0 -44.5 -1t-44.5 -3v12q34 6 52 16.5t18 43.5v232q0 30 -20.5 37t-47.5 7v12zM551 368l152 10v-344q0 -48 -17 -88t-45 -74.5t-64 -64.5t-73 -57l-12 14q40 35 66 66.5t41 65t20.5 73.5t5.5 93v196q0 48 -16 72
t-58 24v14zM654 674q22 0 37.5 -16.5t15.5 -38.5t-15.5 -38.5t-37.5 -16.5t-37.5 16.5t-15.5 38.5t15.5 38.5t37.5 16.5z" />
    <glyph glyph-name="uni01CE.aCaron" unicode="&#x1ce;" horiz-adv-x="463" 
d="M54 292q8 31 22.5 49.5t33.5 28t43 12t51 2.5q26 0 51.5 -5.5t46 -18.5t33 -34.5t12.5 -52.5v-185q0 -19 10 -33.5t31 -14.5q20 0 35.5 11.5t29.5 22.5l10 -11l-23.5 -23.5t-28.5 -26t-30.5 -21t-30.5 -8.5q-10 0 -21 6.5t-21.5 15.5t-19.5 19t-16 17q-32 -22 -72 -40
t-78 -18q-21 0 -40.5 7t-34.5 20t-24 31t-9 41q0 41 23 65.5t59.5 37.5t83 17.5t93.5 5.5v76q0 37 -23 57t-58 20q-26 0 -41 -26t-15 -59zM271 170q-33 9 -67 9q-19 0 -38 -4.5t-34 -14.5t-24.5 -25.5t-9.5 -37.5q0 -34 23.5 -48.5t52.5 -14.5q32 0 58.5 13t38.5 22v101z
M245 433h-69l-111 172h39l107 -114l106 114h41z" />
    <glyph glyph-name="uni01CF.ICaron" unicode="&#x1cf;" horiz-adv-x="389" 
d="M47 8q36 3 56 11t30.5 25t13 44.5t2.5 69.5v334q0 42 -2.5 69.5t-13 44.5t-31.5 25t-57 11v12q42 -2 81.5 -3t81.5 -1q33 0 66 1t65 3v-12q-35 -3 -55 -11t-30 -25t-12.5 -44.5t-2.5 -69.5v-334q0 -42 2.5 -69.5t13 -44.5t31.5 -25t58 -11v-12q-38 2 -76 3t-76 1
q-37 0 -73 -1t-72 -3v12zM228 719h-69l-111 172h39l107 -114l106 114h41z" />
    <glyph glyph-name="uni01D0.iCaron" unicode="&#x1d0;" horiz-adv-x="259" 
d="M81 249q0 24 -1.5 42.5t-9 31t-22.5 20.5t-41 11v14l152 10v-294q0 -25 4 -39.5t13.5 -22t24.5 -10.5t37 -4v-12q-35 2 -70.5 3t-70.5 1q-23 0 -45 -1t-45 -3v12q20 1 34 4t23 10.5t13 22t4 39.5v165zM154 433h-69l-111 172h39l107 -114l106 114h41z" />
    <glyph glyph-name="uni01D1.OCaron" unicode="&#x1d1;" horiz-adv-x="833" 
d="M47 325q0 81 29.5 145t79.5 108.5t117.5 68t143.5 23.5t143.5 -23.5t117.5 -68t79.5 -108.5t29.5 -145t-29.5 -145t-79.5 -108.5t-117.5 -68t-143.5 -23.5t-143.5 23.5t-117.5 68t-79.5 108.5t-29.5 145zM153 325q0 -61 18 -117t52 -98.5t83 -68t111 -25.5t111 25.5
t83 68t52 98.5t18 117t-18 117t-52 98.5t-83 68t-111 25.5t-111 -25.5t-83 -68t-52 -98.5t-18 -117zM450 719h-69l-111 172h39l107 -114l106 114h41z" />
    <glyph glyph-name="uni01D2.oCaron" unicode="&#x1d2;" 
d="M239 384q48 0 87.5 -14.5t68 -40.5t44 -63t15.5 -82t-15.5 -82t-44 -63t-68 -40.5t-87.5 -14.5t-87.5 14.5t-68 40.5t-44 63t-15.5 82t15.5 82t44 63t68 40.5t87.5 14.5zM221 354q-28 0 -48.5 -14t-34 -36.5t-20 -51t-6.5 -56.5q0 -32 8.5 -64t26.5 -58.5t45 -43
t65 -16.5q28 0 48.5 14t34 36.5t20 50.5t6.5 57q0 31 -9 63.5t-27 59t-45 43t-64 16.5zM283 433h-69l-111 172h39l107 -114l106 114h41z" />
    <glyph glyph-name="uni01D3.UCaron" unicode="&#x1d3;" horiz-adv-x="796" 
d="M128 553q0 28 -5.5 43.5t-16.5 24.5t-27 13t-37 8v12q42 -2 82.5 -3t82.5 -1q30 0 59.5 1t59.5 3v-12q-32 -3 -53 -10t-33 -20t-17 -33.5t-5 -50.5v-326q0 -47 15.5 -79.5t42.5 -53t62.5 -30t75.5 -9.5q64 0 105 19t65 46.5t33 59t9 55.5v280q0 40 -3.5 67.5t-14 45
t-29.5 26.5t-49 13v12q31 -2 61.5 -3t61.5 -1q26 0 51 1t51 3v-12q-21 -3 -38.5 -8t-29.5 -18t-18.5 -37.5t-6.5 -66.5v-299q0 -60 -21.5 -103.5t-58.5 -72.5t-86.5 -43t-105.5 -14q-51 0 -98 13.5t-83.5 41t-58.5 68.5t-22 95v355zM451 719h-69l-111 172h39l107 -114
l106 114h41z" />
    <glyph glyph-name="uni01D4.uCaron" unicode="&#x1d4;" horiz-adv-x="537" 
d="M156 122q0 -42 21.5 -65t63.5 -23q32 0 63.5 15.5t46.5 32.5v211q0 13 -2 24t-10 19.5t-24 15t-43 10.5v11l157 11v-307q0 -38 19.5 -50.5t54.5 -14.5v-10q-38 -2 -76.5 -3t-75.5 -3v52q-35 -26 -73.5 -45t-83.5 -19q-48 0 -82 27t-34 83v207q0 30 -16.5 41t-58.5 16v13
l153 13v-262zM292 433h-69l-111 172h39l107 -114l106 114h41z" />
    <glyph glyph-name="uni01D5.UDiaeresisMacron" unicode="&#x1d5;" horiz-adv-x="796" 
d="M128 553q0 28 -5.5 43.5t-16.5 24.5t-27 13t-37 8v12q42 -2 82.5 -3t82.5 -1q30 0 59.5 1t59.5 3v-12q-32 -3 -53 -10t-33 -20t-17 -33.5t-5 -50.5v-326q0 -47 15.5 -79.5t42.5 -53t62.5 -30t75.5 -9.5q64 0 105 19t65 46.5t33 59t9 55.5v280q0 40 -3.5 67.5t-14 45
t-29.5 26.5t-49 13v12q31 -2 61.5 -3t61.5 -1q26 0 51 1t51 3v-12q-21 -3 -38.5 -8t-29.5 -18t-18.5 -37.5t-6.5 -66.5v-299q0 -60 -21.5 -103.5t-58.5 -72.5t-86.5 -43t-105.5 -14q-51 0 -98 13.5t-83.5 41t-58.5 68.5t-22 95v355zM325 839q23 0 38 -15t15 -38t-15 -38
t-38 -15t-38 15t-15 38t15 38t38 15zM510 839q23 0 38 -15t15 -38t-15 -38t-38 -15t-38 15t-15 38t15 38t38 15zM276 944v56h284v-56h-284z" />
    <glyph glyph-name="uni01D6.uDiaeresisMacron" unicode="&#x1d6;" horiz-adv-x="537" 
d="M156 122q0 -42 21.5 -65t63.5 -23q32 0 63.5 15.5t46.5 32.5v211q0 13 -2 24t-10 19.5t-24 15t-43 10.5v11l157 11v-307q0 -38 19.5 -50.5t54.5 -14.5v-10q-38 -2 -76.5 -3t-75.5 -3v52q-35 -26 -73.5 -45t-83.5 -19q-48 0 -82 27t-34 83v207q0 30 -16.5 41t-58.5 16v13
l153 13v-262zM176 553q23 0 38 -15t15 -38t-15 -38t-38 -15t-38 15t-15 38t15 38t38 15zM361 553q23 0 38 -15t15 -38t-15 -38t-38 -15t-38 15t-15 38t15 38t38 15zM126 652v56h284v-56h-284z" />
    <glyph glyph-name="uni01D7.UDiaeresisAcute" unicode="&#x1d7;" horiz-adv-x="796" 
d="M128 553q0 28 -5.5 43.5t-16.5 24.5t-27 13t-37 8v12q42 -2 82.5 -3t82.5 -1q30 0 59.5 1t59.5 3v-12q-32 -3 -53 -10t-33 -20t-17 -33.5t-5 -50.5v-326q0 -47 15.5 -79.5t42.5 -53t62.5 -30t75.5 -9.5q64 0 105 19t65 46.5t33 59t9 55.5v280q0 40 -3.5 67.5t-14 45
t-29.5 26.5t-49 13v12q31 -2 61.5 -3t61.5 -1q26 0 51 1t51 3v-12q-21 -3 -38.5 -8t-29.5 -18t-18.5 -37.5t-6.5 -66.5v-299q0 -60 -21.5 -103.5t-58.5 -72.5t-86.5 -43t-105.5 -14q-51 0 -98 13.5t-83.5 41t-58.5 68.5t-22 95v355zM325 839q23 0 38 -15t15 -38t-15 -38
t-38 -15t-38 15t-15 38t15 38t38 15zM510 839q23 0 38 -15t15 -38t-15 -38t-38 -15t-38 15t-15 38t15 38t38 15zM511 958q17 19 29.5 30.5t26.5 11.5q41 0 41 -32q0 -11 -8.5 -23.5t-20.5 -20.5l-140 -96h-44z" />
    <glyph glyph-name="uni01D8.uDiaeresisAcute" unicode="&#x1d8;" horiz-adv-x="537" 
d="M156 122q0 -42 21.5 -65t63.5 -23q32 0 63.5 15.5t46.5 32.5v211q0 13 -2 24t-10 19.5t-24 15t-43 10.5v11l157 11v-307q0 -38 19.5 -50.5t54.5 -14.5v-10q-38 -2 -76.5 -3t-75.5 -3v52q-35 -26 -73.5 -45t-83.5 -19q-48 0 -82 27t-34 83v207q0 30 -16.5 41t-58.5 16v13
l153 13v-262zM166 553q23 0 38 -15t15 -38t-15 -38t-38 -15t-38 15t-15 38t15 38t38 15zM351 553q23 0 38 -15t15 -38t-15 -38t-38 -15t-38 15t-15 38t15 38t38 15zM308 763q17 19 29.5 30.5t26.5 11.5q41 0 41 -32q0 -11 -8.5 -23.5t-20.5 -20.5l-140 -96h-44z" />
    <glyph glyph-name="uni01D9.UDiaeresisCaron" unicode="&#x1d9;" horiz-adv-x="796" 
d="M128 553q0 28 -5.5 43.5t-16.5 24.5t-27 13t-37 8v12q42 -2 82.5 -3t82.5 -1q30 0 59.5 1t59.5 3v-12q-32 -3 -53 -10t-33 -20t-17 -33.5t-5 -50.5v-326q0 -47 15.5 -79.5t42.5 -53t62.5 -30t75.5 -9.5q64 0 105 19t65 46.5t33 59t9 55.5v280q0 40 -3.5 67.5t-14 45
t-29.5 26.5t-49 13v12q31 -2 61.5 -3t61.5 -1q26 0 51 1t51 3v-12q-21 -3 -38.5 -8t-29.5 -18t-18.5 -37.5t-6.5 -66.5v-299q0 -60 -21.5 -103.5t-58.5 -72.5t-86.5 -43t-105.5 -14q-51 0 -98 13.5t-83.5 41t-58.5 68.5t-22 95v355zM325 799q23 0 38 -15t15 -38t-15 -38
t-38 -15t-38 15t-15 38t15 38t38 15zM510 799q23 0 38 -15t15 -38t-15 -38t-38 -15t-38 15t-15 38t15 38t38 15zM451 828h-69l-111 172h39l107 -114l106 114h41z" />
    <glyph glyph-name="uni01DA.uDiaeresisCaron" unicode="&#x1da;" horiz-adv-x="537" 
d="M156 122q0 -42 21.5 -65t63.5 -23q32 0 63.5 15.5t46.5 32.5v211q0 13 -2 24t-10 19.5t-24 15t-43 10.5v11l157 11v-307q0 -38 19.5 -50.5t54.5 -14.5v-10q-38 -2 -76.5 -3t-75.5 -3v52q-35 -26 -73.5 -45t-83.5 -19q-48 0 -82 27t-34 83v207q0 30 -16.5 41t-58.5 16v13
l153 13v-262zM166 553q23 0 38 -15t15 -38t-15 -38t-38 -15t-38 15t-15 38t15 38t38 15zM351 553q23 0 38 -15t15 -38t-15 -38t-38 -15t-38 15t-15 38t15 38t38 15zM292 633h-69l-111 172h39l107 -114l106 114h41z" />
    <glyph glyph-name="uni01DB.UDiaeresisGrave" unicode="&#x1db;" horiz-adv-x="796" 
d="M128 553q0 28 -5.5 43.5t-16.5 24.5t-27 13t-37 8v12q42 -2 82.5 -3t82.5 -1q30 0 59.5 1t59.5 3v-12q-32 -3 -53 -10t-33 -20t-17 -33.5t-5 -50.5v-326q0 -47 15.5 -79.5t42.5 -53t62.5 -30t75.5 -9.5q64 0 105 19t65 46.5t33 59t9 55.5v280q0 40 -3.5 67.5t-14 45
t-29.5 26.5t-49 13v12q31 -2 61.5 -3t61.5 -1q26 0 51 1t51 3v-12q-21 -3 -38.5 -8t-29.5 -18t-18.5 -37.5t-6.5 -66.5v-299q0 -60 -21.5 -103.5t-58.5 -72.5t-86.5 -43t-105.5 -14q-51 0 -98 13.5t-83.5 41t-58.5 68.5t-22 95v355zM325 839q23 0 38 -15t15 -38t-15 -38
t-38 -15t-38 15t-15 38t15 38t38 15zM510 839q23 0 38 -15t15 -38t-15 -38t-38 -15t-38 15t-15 38t15 38t38 15zM392 828l-140 96q-12 8 -20.5 20.5t-8.5 23.5q0 32 41 32q14 0 26.5 -11.5t29.5 -30.5l116 -130h-44z" />
    <glyph glyph-name="uni01DC.uDiaeresisGrave" unicode="&#x1dc;" horiz-adv-x="537" 
d="M156 122q0 -42 21.5 -65t63.5 -23q32 0 63.5 15.5t46.5 32.5v211q0 13 -2 24t-10 19.5t-24 15t-43 10.5v11l157 11v-307q0 -38 19.5 -50.5t54.5 -14.5v-10q-38 -2 -76.5 -3t-75.5 -3v52q-35 -26 -73.5 -45t-83.5 -19q-48 0 -82 27t-34 83v207q0 30 -16.5 41t-58.5 16v13
l153 13v-262zM166 553q23 0 38 -15t15 -38t-15 -38t-38 -15t-38 15t-15 38t15 38t38 15zM351 553q23 0 38 -15t15 -38t-15 -38t-38 -15t-38 15t-15 38t15 38t38 15zM281 633l-140 96q-12 8 -20.5 20.5t-8.5 23.5q0 32 41 32q14 0 26.5 -11.5t29.5 -30.5l116 -130h-44z" />
    <glyph glyph-name="uni01DE.ADiaeresisMacron" unicode="&#x1de;" horiz-adv-x="704" 
d="M218 289l-66 -181q-3 -8 -5.5 -14t-2.5 -13q0 -18 10.5 -31t25.5 -21.5t31 -13.5t27 -7v-12q-30 2 -60 3t-61 1q-30 0 -58.5 -1t-60.5 -3v12q31 7 51.5 21.5t34.5 34.5t24.5 44t20.5 50l173 425q3 7 5.5 13t2.5 11t-3.5 15t-8.5 18q26 5 45 13t42 17l208 -572
q14 -39 39 -61.5t74 -28.5v-12q-40 2 -78.5 3t-80.5 1h-47t-36 -0.5t-30.5 -1.5t-31.5 -2v12q42 5 70.5 21.5t28.5 44.5q0 8 -3.5 16t-5.5 15l-65 184h-209zM326 573l-98 -254h188zM259 839q23 0 38 -15t15 -38t-15 -38t-38 -15t-38 15t-15 38t15 38t38 15zM444 839
q23 0 38 -15t15 -38t-15 -38t-38 -15t-38 15t-15 38t15 38t38 15zM210 944v56h284v-56h-284z" />
    <glyph glyph-name="uni01DF.aDiaeresisMacron" unicode="&#x1df;" horiz-adv-x="463" 
d="M54 292q8 31 22.5 49.5t33.5 28t43 12t51 2.5q26 0 51.5 -5.5t46 -18.5t33 -34.5t12.5 -52.5v-185q0 -19 10 -33.5t31 -14.5q20 0 35.5 11.5t29.5 22.5l10 -11l-23.5 -23.5t-28.5 -26t-30.5 -21t-30.5 -8.5q-10 0 -21 6.5t-21.5 15.5t-19.5 19t-16 17q-32 -22 -72 -40
t-78 -18q-21 0 -40.5 7t-34.5 20t-24 31t-9 41q0 41 23 65.5t59.5 37.5t83 17.5t93.5 5.5v76q0 37 -23 57t-58 20q-26 0 -41 -26t-15 -59zM271 170q-33 9 -67 9q-19 0 -38 -4.5t-34 -14.5t-24.5 -25.5t-9.5 -37.5q0 -34 23.5 -48.5t52.5 -14.5q32 0 58.5 13t38.5 22v101z
M119 553q23 0 38 -15t15 -38t-15 -38t-38 -15t-38 15t-15 38t15 38t38 15zM304 553q23 0 38 -15t15 -38t-15 -38t-38 -15t-38 15t-15 38t15 38t38 15zM69 652v56h284v-56h-284z" />
    <glyph glyph-name="uni01E0.ADotMacron" unicode="&#x1e0;" horiz-adv-x="704" 
d="M218 289l-66 -181q-3 -8 -5.5 -14t-2.5 -13q0 -18 10.5 -31t25.5 -21.5t31 -13.5t27 -7v-12q-30 2 -60 3t-61 1q-30 0 -58.5 -1t-60.5 -3v12q31 7 51.5 21.5t34.5 34.5t24.5 44t20.5 50l173 425q3 7 5.5 13t2.5 11t-3.5 15t-8.5 18q26 5 45 13t42 17l208 -572
q14 -39 39 -61.5t74 -28.5v-12q-40 2 -78.5 3t-80.5 1h-47t-36 -0.5t-30.5 -1.5t-31.5 -2v12q42 5 70.5 21.5t28.5 44.5q0 8 -3.5 16t-5.5 15l-65 184h-209zM326 573l-98 -254h188zM352 839q23 0 38 -15t15 -38t-15 -38t-38 -15t-38 15t-15 38t15 38t38 15zM210 944v56h284
v-56h-284z" />
    <glyph glyph-name="uni01E1.aDotMacron" unicode="&#x1e1;" horiz-adv-x="463" 
d="M54 292q8 31 22.5 49.5t33.5 28t43 12t51 2.5q26 0 51.5 -5.5t46 -18.5t33 -34.5t12.5 -52.5v-185q0 -19 10 -33.5t31 -14.5q20 0 35.5 11.5t29.5 22.5l10 -11l-23.5 -23.5t-28.5 -26t-30.5 -21t-30.5 -8.5q-10 0 -21 6.5t-21.5 15.5t-19.5 19t-16 17q-32 -22 -72 -40
t-78 -18q-21 0 -40.5 7t-34.5 20t-24 31t-9 41q0 41 23 65.5t59.5 37.5t83 17.5t93.5 5.5v76q0 37 -23 57t-58 20q-26 0 -41 -26t-15 -59zM271 170q-33 9 -67 9q-19 0 -38 -4.5t-34 -14.5t-24.5 -25.5t-9.5 -37.5q0 -34 23.5 -48.5t52.5 -14.5q32 0 58.5 13t38.5 22v101z
M211 553q23 0 38 -15t15 -38t-15 -38t-38 -15t-38 15t-15 38t15 38t38 15zM69 672v56h284v-56h-284z" />
    <glyph glyph-name="uni01E2.AEMacron" unicode="&#x1e2;" horiz-adv-x="963" 
d="M866 480q-13 43 -33 71t-47 44.5t-61.5 22.5t-76.5 6h-137v-250h41q11 0 21 0.5t20 1.5q33 2 58.5 8t44.5 19.5t30.5 35.5t15.5 55h12q-2 -34 -3 -65t-1 -62q0 -42 1 -81t3 -76h-12q-7 36 -18 62.5t-29 43t-45.5 24.5t-66.5 8h-72v-311q23 -6 48 -8.5t51 -2.5
q57 0 105.5 8.5t90.5 28t78 52.5t67 82l13 -6l-87 -195q-30 2 -59.5 3t-59.5 1h-326q-28 0 -55.5 -1t-54.5 -3v12q35 2 55 11t29.5 25t12 39t2.5 52v197h-168l-94 -186q-23 -48 -23 -73q0 -19 9 -30.5t23 -18.5t30 -10.5t31 -5.5v-12q-42 2 -82.5 3t-82.5 1q-26 0 -51 -1
t-51 -3v12q31 3 56.5 20t46 41.5t37.5 52.5t31 53l164 291q13 23 27 49.5t14 53.5q0 21 -11.5 34t-28.5 20.5t-36 11.5t-35 7v12q51 -2 91.5 -3t85.5 -1h344q34 0 67.5 1.5t59.5 3.5q-1 -19 -1.5 -38t-0.5 -38q0 -25 1.5 -49.5t5.5 -49.5h-14zM421 354v266h-4l-152 -266h156
zM409 758v56h284v-56h-284z" />
    <glyph glyph-name="uni01E3.aeMacron" unicode="&#x1e3;" horiz-adv-x="685" 
d="M535 242q1 20 -4.5 40t-17.5 36t-29.5 26t-39.5 10q-21 0 -38.5 -10t-30 -26t-19 -36t-6.5 -40h185zM50 291q12 46 44 69.5t80 23.5q26 0 46.5 -2.5t39.5 -8.5t37 -16t39 -25q25 24 51.5 38t61.5 14q38 0 69.5 -13t54.5 -36.5t37 -55t18 -67.5h-280q-3 -32 4.5 -64
t24 -57.5t41.5 -41t58 -15.5q42 0 77 14.5t58 39.5l17 -15q-35 -38 -85.5 -63.5t-104.5 -25.5q-43 0 -82 17.5t-62 55.5q-38 -27 -81.5 -50t-91.5 -23q-46 0 -77.5 27.5t-31.5 75.5q0 37 21.5 60.5t57.5 36t83 17.5t98 6v70q-1 39 -22 58t-60 19q-15 0 -26 -7t-18 -18.5
t-10.5 -25t-3.5 -26.5zM96 98q0 -32 21 -48t50 -16q33 0 62.5 14.5t55.5 33.5q-12 40 -12 84q-20 6 -38.5 8.5t-38.5 2.5q-19 0 -37 -4.5t-32 -14t-22.5 -24.5t-8.5 -36zM200 472v56h284v-56h-284z" />
    <glyph glyph-name="uni01E6.GCaron" unicode="&#x1e6;" horiz-adv-x="778" 
d="M644 440q-19 38 -40.5 74t-49.5 64t-64.5 45t-85.5 17q-57 0 -101.5 -28t-76 -73t-48 -101t-16.5 -112q0 -63 16.5 -119.5t48 -98.5t76 -67t101.5 -25q48 0 94 9.5t86 38.5v129q0 68 -103 71v12q38 -1 70 -2.5t72 -1.5q37 0 74 1t74 3v-12q-21 -1 -39 -5t-30.5 -13
t-20 -24.5t-7.5 -39.5v-140q-69 -23 -136.5 -42.5t-130.5 -19.5q-67 0 -131 22.5t-114.5 66.5t-81 108t-30.5 148q0 73 30.5 136.5t81 109.5t114.5 72.5t131 26.5q41 0 74 -3.5t60 -9t49 -11.5t42 -11q0 -16 2.5 -42.5t6.5 -55t8 -55t7 -42.5h-12zM442 719h-69l-111 172h39
l107 -114l106 114h41z" />
    <glyph glyph-name="uni01E7.gCaron" unicode="&#x1e7;" 
d="M416 287q4 15 4 33q0 11 -10 16.5t-24 5.5q-8 0 -19 -5t-17 -8q8 -21 12.5 -40t4.5 -42q0 -27 -10 -50t-29 -40.5t-48 -27.5t-66 -10q-50 0 -92 24q-17 -10 -32.5 -23.5t-15.5 -36.5t16.5 -31t61.5 -8q10 0 24.5 1t30.5 2l32 2t30 1q34 0 63 -5.5t49 -19.5t31.5 -39
t11.5 -64q0 -47 -21.5 -79.5t-55 -53t-74.5 -30t-81 -9.5q-31 0 -64 7t-60 22.5t-44.5 41.5t-17.5 64q0 29 12.5 54t33.5 45q-30 23 -30 65q0 40 21.5 67.5t56.5 42.5q-20 14 -29.5 38t-9.5 53t10.5 53.5t29.5 42.5t45.5 28t58.5 10q35 0 67 -7.5t60 -29.5q23 11 46.5 22
t49.5 11q18 0 31 -12t13 -22v-24q0 -10 -2 -16zM219 -188q21 0 50.5 3.5t56 13.5t45.5 28t19 47q0 43 -34 59.5t-100 16.5q-73 0 -114 -1.5t-69 -1.5q-8 -13 -11.5 -30.5t-3.5 -34.5q0 -29 16.5 -48t41 -30.5t52.5 -16.5t51 -5zM135 252q0 -21 5 -40t14.5 -34t24.5 -24
t35 -9t35 9t24.5 24t14.5 34t5 40t-5 40t-14.5 33.5t-24.5 23.5t-35 9t-35 -9t-24.5 -23.5t-14.5 -33.5t-5 -40zM253 433h-69l-111 172h39l107 -114l106 114h41z" />
    <glyph glyph-name="uni01E8.KCaron" unicode="&#x1e8;" horiz-adv-x="741" 
d="M228 158q0 -42 2.5 -69.5t13 -44.5t31.5 -25t58 -11v-12q-38 2 -76 3t-76 1q-37 0 -73 -1t-72 -3v12q36 3 56 11t30.5 25t13 44.5t2.5 69.5v334q0 42 -2.5 69.5t-13 44.5t-31.5 25t-57 11v12q42 -2 81.5 -3t81.5 -1q33 0 66 1t65 3v-12q-35 -3 -55 -11t-30 -25
t-12.5 -44.5t-2.5 -69.5v-169l152 124q21 17 40 35.5t33.5 37.5t23 36t8.5 31q0 15 -6.5 25.5t-17 17t-23.5 9.5t-26 3v12q38 -2 74.5 -3t74.5 -1q40 0 79.5 1t79.5 3v-12q-26 -3 -48.5 -10t-46 -20.5t-50 -34t-61.5 -50.5l-124 -106l202 -297q31 -44 70.5 -78t92.5 -38v-12
q-43 2 -86 3t-86 1q-39 0 -77.5 -1t-77.5 -3v12q36 2 62.5 15t26.5 46q0 14 -11 30t-31 45l-151 222l-96 -75v-133zM404 719h-69l-111 172h39l107 -114l106 114h41z" />
    <glyph glyph-name="uni01E9.kCaron" unicode="&#x1e9;" horiz-adv-x="537" 
d="M5 8q27 3 41.5 10t21 20t8 33.5t1.5 50.5v464q0 29 -4.5 47.5t-13.5 29t-23.5 14.5t-33.5 5v12l153 18v-537q11 10 35.5 28.5t49.5 40t44 43t19 38.5q0 16 -7.5 22.5t-22.5 8.5v12h195v-12q-30 -5 -56 -17.5t-50 -29t-46.5 -35.5t-44.5 -37q23 -27 49 -64t56 -72
t64.5 -61.5t73.5 -31.5v-12q-30 2 -60.5 3t-61.5 1q-32 0 -63 -1t-63 -3v12q17 -1 35 7t18 29q0 13 -12.5 33.5t-29 42t-33.5 42t-25 32.5l-64 -48v-74q0 -32 14 -45.5t56 -18.5v-12q-33 2 -65.5 3t-65.5 1q-23 0 -44.5 -1t-44.5 -3v12zM252 719h-69l-111 172h39l107 -114
l106 114h41z" />
    <glyph glyph-name="uni01EA.OOgonek" unicode="&#x1ea;" horiz-adv-x="833" 
d="M47 325q0 81 29.5 145t79.5 108.5t117.5 68t143.5 23.5t143.5 -23.5t117.5 -68t79.5 -108.5t29.5 -145q0 -62 -17 -113t-48 -92t-73.5 -70.5t-93.5 -47.5q-19 -7 -42 -18t-42.5 -26t-33 -32.5t-13.5 -37.5q0 -23 14.5 -37.5t37.5 -14.5q29 0 54.5 12.5t48.5 28.5l17 -32
q-35 -23 -72 -40t-79 -17q-39 0 -67 23.5t-28 62.5q0 38 28 64t66 43q-7 0 -13.5 -0.5t-13.5 -0.5q-76 0 -143.5 23.5t-117.5 68t-79.5 108.5t-29.5 145zM153 325q0 -61 18 -117t52 -98.5t83 -68t111 -25.5t111 25.5t83 68t52 98.5t18 117t-18 117t-52 98.5t-83 68
t-111 25.5t-111 -25.5t-83 -68t-52 -98.5t-18 -117z" />
    <glyph glyph-name="uni01EB.oOgonek" unicode="&#x1eb;" 
d="M239 384q48 0 87.5 -14.5t68 -40.5t44 -63t15.5 -82q0 -71 -37 -119t-100 -70q-19 -7 -39.5 -18t-37 -25t-27 -30t-10.5 -34q0 -23 14.5 -37.5t37.5 -14.5q29 0 54.5 12.5t48.5 28.5l17 -32q-35 -23 -72 -40t-79 -17q-39 0 -67 23.5t-28 62.5t30 66t71 44q-46 1 -84 16
t-65 41t-42 62.5t-15 80.5q0 45 15.5 82t44 63t68 40.5t87.5 14.5zM221 354q-28 0 -48.5 -14t-34 -36.5t-20 -51t-6.5 -56.5q0 -32 8.5 -64t26.5 -58.5t45 -43t65 -16.5q28 0 48.5 14t34 36.5t20 50.5t6.5 57q0 31 -9 63.5t-27 59t-45 43t-64 16.5z" />
    <glyph glyph-name="uni01EC.OOgonekMacron" unicode="&#x1ec;" horiz-adv-x="833" 
d="M47 325q0 81 29.5 145t79.5 108.5t117.5 68t143.5 23.5t143.5 -23.5t117.5 -68t79.5 -108.5t29.5 -145q0 -62 -17 -113t-48 -92t-73.5 -70.5t-93.5 -47.5q-19 -7 -42 -18t-42.5 -26t-33 -32.5t-13.5 -37.5q0 -23 14.5 -37.5t37.5 -14.5q29 0 54.5 12.5t48.5 28.5l17 -32
q-35 -23 -72 -40t-79 -17q-39 0 -67 23.5t-28 62.5q0 38 28 64t66 43q-7 0 -13.5 -0.5t-13.5 -0.5q-76 0 -143.5 23.5t-117.5 68t-79.5 108.5t-29.5 145zM153 325q0 -61 18 -117t52 -98.5t83 -68t111 -25.5t111 25.5t83 68t52 98.5t18 117t-18 117t-52 98.5t-83 68
t-111 25.5t-111 -25.5t-83 -68t-52 -98.5t-18 -117zM274 758v56h284v-56h-284z" />
    <glyph glyph-name="uni01ED.oOgonekMacron" unicode="&#x1ed;" 
d="M239 384q48 0 87.5 -14.5t68 -40.5t44 -63t15.5 -82q0 -71 -37 -119t-100 -70q-19 -7 -39.5 -18t-37 -25t-27 -30t-10.5 -34q0 -23 14.5 -37.5t37.5 -14.5q29 0 54.5 12.5t48.5 28.5l17 -32q-35 -23 -72 -40t-79 -17q-39 0 -67 23.5t-28 62.5t30 66t71 44q-46 1 -84 16
t-65 41t-42 62.5t-15 80.5q0 45 15.5 82t44 63t68 40.5t87.5 14.5zM221 354q-28 0 -48.5 -14t-34 -36.5t-20 -51t-6.5 -56.5q0 -32 8.5 -64t26.5 -58.5t45 -43t65 -16.5q28 0 48.5 14t34 36.5t20 50.5t6.5 57q0 31 -9 63.5t-27 59t-45 43t-64 16.5zM108 472v56h284v-56h-284
z" />
    <glyph glyph-name="uni01F1.DZ" unicode="&#x1f1;" horiz-adv-x="1537" 
d="M39 8q33 3 52.5 11t30 18.5t13.5 22.5t3 24v462q0 22 -2.5 38.5t-12.5 28.5t-30 19t-54 10v12q26 -2 52 -3t52 -1q70 0 130 7t123 7q81 0 152 -25t124.5 -71.5t84.5 -112.5t31 -148q0 -83 -30 -141.5t-80 -96t-114.5 -54.5t-134.5 -17q-54 0 -92.5 0.5t-67.5 0.5t-52 0.5
t-44 0.5q-34 0 -67 -1t-67 -3v12zM228 76q32 -30 73.5 -42t83.5 -12q154 0 224.5 79t70.5 229q0 65 -23.5 121.5t-65 98.5t-99 66t-125.5 24q-70 0 -133 -28q-4 -52 -5 -103.5t-1 -105.5v-327zM1492 642q-63 -73 -129 -153.5t-129 -161t-121 -156t-106 -139.5q15 -4 41 -5
t71 -1q58 0 113 8t102 29.5t83 59.5t57 97h20l-76 -224q-88 2 -175.5 3t-175.5 1q-46 0 -91.5 -1t-91.5 -3l-8 12l487 616h-134q-44 0 -88 -7.5t-81 -26.5t-63 -51.5t-35 -82.5h-14q-1 18 0.5 36t1.5 35q0 32 3 63.5t8 63.5q31 -1 65.5 -2t68 -1.5t64.5 -0.5h57
q69 0 134.5 1t134.5 3z" />
    <glyph glyph-name="uni01F2.Dz" unicode="&#x1f2;" horiz-adv-x="1277" 
d="M39 8q33 3 52.5 11t30 18.5t13.5 22.5t3 24v462q0 22 -2.5 38.5t-12.5 28.5t-30 19t-54 10v12q26 -2 52 -3t52 -1q70 0 130 7t123 7q81 0 152 -25t124.5 -71.5t84.5 -112.5t31 -148q0 -83 -30 -141.5t-80 -96t-114.5 -54.5t-134.5 -17q-54 0 -92.5 0.5t-67.5 0.5t-52 0.5
t-44 0.5q-34 0 -67 -1t-67 -3v12zM228 76q32 -30 73.5 -42t83.5 -12q154 0 224.5 79t70.5 229q0 65 -23.5 121.5t-65 98.5t-99 66t-125.5 24q-70 0 -133 -28q-4 -52 -5 -103.5t-1 -105.5v-327zM849 14l270 328h-71q-58 0 -98 -19.5t-66 -73.5l-14 4l14 119q42 -2 82 -3
t82 -1t81.5 1t81.5 3l11 -16l-272 -330h64q34 0 64.5 3t56 13.5t44.5 31t31 56.5l15 -5l-22 -129q-45 2 -90 3t-90 1q-42 0 -82.5 -1t-82.5 -3z" />
    <glyph glyph-name="uni01F3.dz" unicode="&#x1f3;" horiz-adv-x="981" 
d="M432 101q0 -26 3 -43t12 -27.5t25.5 -14.5t43.5 -4v-12q-40 0 -79.5 -1t-81.5 -3v37q-23 -20 -64.5 -34.5t-89.5 -14.5q-41 0 -74.5 15.5t-57 42t-36.5 61.5t-13 73q0 45 16 83t44.5 66t67 43.5t83.5 15.5q33 0 64 -12t59 -29v259q0 24 -3.5 39t-13.5 24t-26.5 13
t-41.5 6v12l163 16v-611zM354 276q-3 13 -14.5 27.5t-28.5 26t-38.5 19t-43.5 7.5q-34 0 -57.5 -15t-38.5 -39.5t-22 -55t-7 -60.5t7 -60.5t22 -55t38.5 -39.5t57.5 -15q23 0 44 7t38 17.5t28.5 22.5t14.5 21v192zM553 14l270 328h-71q-58 0 -98 -19.5t-66 -73.5l-14 4
l14 119q42 -2 82 -3t82 -1t81.5 1t81.5 3l11 -16l-272 -330h64q34 0 64.5 3t56 13.5t44.5 31t31 56.5l15 -5l-22 -129q-45 2 -90 3t-90 1q-42 0 -82.5 -1t-82.5 -3z" />
    <glyph glyph-name="uni01F4.GAcute" unicode="&#x1f4;" horiz-adv-x="778" 
d="M644 440q-19 38 -40.5 74t-49.5 64t-64.5 45t-85.5 17q-57 0 -101.5 -28t-76 -73t-48 -101t-16.5 -112q0 -63 16.5 -119.5t48 -98.5t76 -67t101.5 -25q48 0 94 9.5t86 38.5v129q0 68 -103 71v12q38 -1 70 -2.5t72 -1.5q37 0 74 1t74 3v-12q-21 -1 -39 -5t-30.5 -13
t-20 -24.5t-7.5 -39.5v-140q-69 -23 -136.5 -42.5t-130.5 -19.5q-67 0 -131 22.5t-114.5 66.5t-81 108t-30.5 148q0 73 30.5 136.5t81 109.5t114.5 72.5t131 26.5q41 0 74 -3.5t60 -9t49 -11.5t42 -11q0 -16 2.5 -42.5t6.5 -55t8 -55t7 -42.5h-12zM458 849q17 19 29.5 30.5
t26.5 11.5q41 0 41 -32q0 -11 -8.5 -23.5t-20.5 -20.5l-140 -96h-44z" />
    <glyph glyph-name="uni01F5.gAcute" unicode="&#x1f5;" 
d="M416 287q4 15 4 33q0 11 -10 16.5t-24 5.5q-8 0 -19 -5t-17 -8q8 -21 12.5 -40t4.5 -42q0 -27 -10 -50t-29 -40.5t-48 -27.5t-66 -10q-50 0 -92 24q-17 -10 -32.5 -23.5t-15.5 -36.5t16.5 -31t61.5 -8q10 0 24.5 1t30.5 2l32 2t30 1q34 0 63 -5.5t49 -19.5t31.5 -39
t11.5 -64q0 -47 -21.5 -79.5t-55 -53t-74.5 -30t-81 -9.5q-31 0 -64 7t-60 22.5t-44.5 41.5t-17.5 64q0 29 12.5 54t33.5 45q-30 23 -30 65q0 40 21.5 67.5t56.5 42.5q-20 14 -29.5 38t-9.5 53t10.5 53.5t29.5 42.5t45.5 28t58.5 10q35 0 67 -7.5t60 -29.5q23 11 46.5 22
t49.5 11q18 0 31 -12t13 -22v-24q0 -10 -2 -16zM219 -188q21 0 50.5 3.5t56 13.5t45.5 28t19 47q0 43 -34 59.5t-100 16.5q-73 0 -114 -1.5t-69 -1.5q-8 -13 -11.5 -30.5t-3.5 -34.5q0 -29 16.5 -48t41 -30.5t52.5 -16.5t51 -5zM135 252q0 -21 5 -40t14.5 -34t24.5 -24
t35 -9t35 9t24.5 24t14.5 34t5 40t-5 40t-14.5 33.5t-24.5 23.5t-35 9t-35 -9t-24.5 -23.5t-14.5 -33.5t-5 -40zM269 563q17 19 29.5 30.5t26.5 11.5q41 0 41 -32q0 -11 -8.5 -23.5t-20.5 -20.5l-140 -96h-44z" />
    <glyph glyph-name="uni01F8.NGrave" unicode="&#x1f8;" horiz-adv-x="815" 
d="M16 654q35 -2 66.5 -3t73.5 -1q22 0 43 1t43 3q13 -18 43 -54.5t68.5 -83.5t82.5 -100t85 -103.5t75.5 -94t54.5 -71.5h2q0 30 0.5 59.5t0.5 59.5v116q0 64 -4.5 111.5t-18 79.5t-38 49t-64.5 20v12q35 -2 70.5 -3t70.5 -1q32 0 65 1t65 3v-12q-63 -8 -86.5 -36.5
t-23.5 -87.5v-530h-37q-55 86 -116.5 167t-122 154t-117 135.5t-101.5 111.5q-1 -26 -1.5 -51t-0.5 -51v-175q0 -89 3.5 -140.5t17 -79t40 -37t73.5 -14.5v-12q-51 2 -99 3t-99 1q-29 0 -57 -1t-57 -3v12q34 5 59.5 9.5t42 15t25 30t9.5 54.5l12 459q-32 26 -70 41t-78 25
v12zM430 719l-140 96q-12 8 -20.5 20.5t-8.5 23.5q0 32 41 32q14 0 26.5 -11.5t29.5 -30.5l116 -130h-44z" />
    <glyph glyph-name="uni01F9.ngrave" unicode="&#x1f9;" horiz-adv-x="537" 
d="M14 356l146 22v-53q27 21 62 40t67 19q28 0 53.5 -7t45.5 -23t32 -43t12 -67v-176q0 -33 18 -43.5t52 -16.5v-12q-29 2 -62 3t-67 1q-23 0 -44.5 -1t-41.5 -3v12q32 6 49.5 16.5t17.5 43.5v161q0 51 -21.5 79t-69.5 28q-17 0 -35 -5t-33 -13.5t-25 -18.5t-10 -19v-212
q0 -33 19 -43.5t57 -16.5v-12q-34 2 -67.5 3t-67.5 1q-23 0 -44.5 -1t-44.5 -3v12q34 6 52 16.5t18 43.5v232q0 30 -20.5 37t-47.5 7v12zM291 433l-140 96q-12 8 -20.5 20.5t-8.5 23.5q0 32 41 32q14 0 26.5 -11.5t29.5 -30.5l116 -130h-44z" />
    <glyph glyph-name="uni01FA.ARingAcute" unicode="&#x1fa;" horiz-adv-x="704" 
d="M218 289l-66 -181q-3 -8 -5.5 -14t-2.5 -13q0 -18 10.5 -31t25.5 -21.5t31 -13.5t27 -7v-12q-30 2 -60 3t-61 1q-30 0 -58.5 -1t-60.5 -3v12q31 7 51.5 21.5t34.5 34.5t24.5 44t20.5 50l173 425q3 7 5.5 13t2.5 11t-3.5 15t-8.5 18q26 5 45 13t42 17l208 -572
q14 -39 39 -61.5t74 -28.5v-12q-40 2 -78.5 3t-80.5 1h-47t-36 -0.5t-30.5 -1.5t-31.5 -2v12q42 5 70.5 21.5t28.5 44.5q0 8 -3.5 16t-5.5 15l-65 184h-209zM326 573l-98 -254h188zM250 782q0 43 29.5 72.5t72.5 29.5t72.5 -29.5t29.5 -72.5t-29.5 -72.5t-72.5 -29.5
t-72.5 29.5t-29.5 72.5zM290 782q0 -26 18 -44t44 -18t44 18t18 44t-18 44t-44 18t-44 -18t-18 -44zM598 958q17 19 29.5 30.5t26.5 11.5q41 0 41 -32q0 -11 -8.5 -23.5t-20.5 -20.5l-140 -96h-44z" />
    </font>
</defs>
</svg>
