<?xml version="1.0" standalone="no"?>
<!DOCTYPE svg PUBLIC "-//W3C//DTD SVG 1.1//EN" "http://www.w3.org/Graphics/SVG/1.1/DTD/svg11.dtd" >
<svg xmlns="http://www.w3.org/2000/svg" xmlns:xlink="http://www.w3.org/1999/xlink" version="1.1">
<metadata>
Created by FontForge 20161003 at Mon Dec 12 09:39:57 2016
 By www-data
HTF Gotham  Copr. 2003 The Hoefler Type Foundry, Inc. Info: www.typography.com
</metadata>
<defs>
<font id="GOTHAMTHIN" horiz-adv-x="500" >
  <font-face 
    font-family="GOTHAMTHIN"
    font-weight="100"
    font-stretch="normal"
    units-per-em="1000"
    panose-1="2 0 6 3 3 0 0 2 0 4"
    ascent="800"
    descent="-200"
    x-height="500"
    cap-height="700"
    bbox="-45 -167 1111 889"
    underline-thickness="20"
    underline-position="-153"
    unicode-range="U+0020-FB02"
  />
<missing-glyph 
 />
    <glyph glyph-name="fi" unicode="fi" horiz-adv-x="544" 
d="M424 500h21v-500h-21v500zM128 481h-79v19h79v72q0 43 10.5 74.5t30.5 51.5q35 35 95 35q23 0 39 -3.5t31 -10.5v-21q-30 14 -70 14q-54 0 -84.5 -34.5t-30.5 -109.5v-68h183v-19h-183v-481h-21v481zM419 700h31v-57h-31v57z" />
    <glyph glyph-name="fl" unicode="fl" horiz-adv-x="544" 
d="M424 730h21v-730h-21v730zM128 481h-79v19h79v72q0 43 10.5 74.5t30.5 51.5q35 35 95 35q23 0 39 -3.5t31 -10.5v-21q-30 14 -70 14q-54 0 -84.5 -34.5t-30.5 -109.5v-68h183v-19h-183v-481h-21v481z" />
    <glyph glyph-name=".notdef" 
 />
    <glyph glyph-name=".null" horiz-adv-x="0" 
 />
    <glyph glyph-name="nonmarkingreturn" horiz-adv-x="280" 
 />
    <glyph glyph-name="space" unicode=" " horiz-adv-x="280" 
 />
    <glyph glyph-name="exclam" unicode="!" horiz-adv-x="194" 
d="M79 52h36v-52h-36v52zM86 592v108h22v-108l-6 -409h-10z" />
    <glyph glyph-name="quotedbl" unicode="&#x22;" horiz-adv-x="304" 
d="M95 700h25v-2l-48 -252h-12zM223 700h25v-2l-48 -252h-12z" />
    <glyph glyph-name="numbersign" unicode="#" horiz-adv-x="660" 
d="M426 219l46 268h-238l-47 -268h239zM164 201h-115v19h118l46 266h-124v19h127l34 195h20l-34 -195h239l34 195h20l-34 -195h115v-19h-118l-45 -266h123v-19h-127l-34 -201h-20l34 201h-239l-34 -201h-20z" />
    <glyph glyph-name="dollar" unicode="$" horiz-adv-x="622" 
d="M321 18h10q44 0 80 12.5t61.5 34.5t39 51.5t13.5 63.5v2q0 35 -13 60t-38.5 43.5t-63.5 32.5t-89 26v-326zM302 681q-43 0 -78 -12.5t-59.5 -33.5t-37.5 -49t-13 -59v-2q0 -65 45.5 -98.5t142.5 -56.5v311zM302 1q-67 5 -127.5 33.5t-107.5 73.5l15 15q45 -45 101 -72
t119 -32v330q-52 12 -91 27t-65.5 35.5t-40 48t-13.5 64.5v2q0 36 15 67.5t42.5 55t66 37t86.5 13.5v59h19v-59q63 -3 112.5 -24t91.5 -58l-14 -16q-41 35 -85 56t-105 24v-317q55 -12 97.5 -27.5t71 -37t43 -50t14.5 -66.5v-2q0 -39 -15 -72t-43.5 -57t-68.5 -38t-90 -14
h-9v-98h-19v99z" />
    <glyph glyph-name="percent" unicode="%" horiz-adv-x="794" 
d="M586 11q31 0 55.5 13t41.5 35t26 50.5t9 60.5v2q0 31 -9.5 60t-27 51.5t-42 36t-55.5 13.5q-30 0 -54.5 -13t-42 -35t-26.5 -51t-9 -60v-2q0 -32 9.5 -61t27 -51t42.5 -35.5t55 -13.5zM210 367q31 0 55.5 13t41.5 35t26 50.5t9 60.5v2q0 31 -9.5 60t-27 51.5t-42 36
t-55.5 13.5q-30 0 -54.5 -13t-42 -35t-26.5 -51t-9 -60v-2q0 -32 9.5 -61t27 -51t42.5 -35.5t55 -13.5zM585 -8q-35 0 -63.5 14.5t-49 39.5t-31.5 57t-11 68v2q0 35 11 67.5t31.5 57t49 39.5t63.5 15t63.5 -15t49 -39.5t31.5 -57t11 -67.5v-2q0 -36 -11 -68t-31.5 -57
t-49 -39.5t-63.5 -14.5zM643 700h22l-514 -700h-22zM209 348q-35 0 -63.5 14.5t-49 39.5t-31.5 57t-11 68v2q0 35 11 67.5t31.5 57t49 39.5t63.5 15t63.5 -15t49 -39.5t31.5 -57t11 -67.5v-2q0 -36 -11 -68t-31.5 -57t-49 -39.5t-63.5 -14.5z" />
    <glyph glyph-name="ampersand" unicode="&#x26;" horiz-adv-x="666" 
d="M259 10q66 0 122.5 33t101.5 90l-223 240q-35 -16 -68.5 -33.5t-59.5 -41t-42 -53.5t-16 -72v-2q0 -32 13 -61t37.5 -51.5t58.5 -35.5t76 -13zM265 396q51 22 85.5 42.5t55.5 41t29.5 42.5t8.5 47v2q0 22 -9.5 44t-26.5 39.5t-42 28t-56 10.5q-33 0 -58.5 -11t-43 -29
t-27 -40.5t-9.5 -44.5v-2q0 -35 20 -75.5t73 -94.5zM496 119q-48 -60 -107 -94.5t-130 -34.5q-46 0 -84 14.5t-65.5 39.5t-42.5 58t-15 69v2q0 44 16.5 77t43.5 58t62 44t71 36q-53 55 -73.5 97t-20.5 80v2q0 25 10.5 51t30.5 47t49.5 34t68.5 13q36 0 64.5 -12t48.5 -32
t31 -45t11 -52v-2q0 -27 -9.5 -51t-31 -46.5t-57.5 -44.5t-88 -45l216 -233q29 41 52 88t46 108l19 -6q-22 -60 -47.5 -111t-56.5 -93l122 -132l-15 -13z" />
    <glyph glyph-name="quotesingle" unicode="'" horiz-adv-x="176" 
d="M95 700h25v-2l-48 -252h-12z" />
    <glyph glyph-name="parenleft" unicode="(" horiz-adv-x="390" 
d="M329 -140q-131 75 -196.5 184t-65.5 243t65.5 243t196.5 184l10 -16q-125 -70 -187 -176.5t-62 -234.5t62 -234.5t187 -176.5z" />
    <glyph glyph-name="parenright" unicode=")" horiz-adv-x="390" 
d="M51 -124q125 70 187 176.5t62 234.5t-62 234.5t-187 176.5l10 16q131 -75 196.5 -184t65.5 -243t-65.5 -243t-196.5 -184z" />
    <glyph glyph-name="asterisk" unicode="*" horiz-adv-x="430" 
d="M210 546l-118 -76l-12 19l126 65l-126 65l12 19l118 -76l-6 140h22l-6 -140l118 76l12 -19l-126 -65l126 -65l-12 -19l-118 76l6 -140h-22z" />
    <glyph glyph-name="plus" unicode="+" horiz-adv-x="552" 
d="M266 343h-199v18h199v210h20v-210h199v-18h-199v-210h-20v210z" />
    <glyph glyph-name="comma" unicode="," horiz-adv-x="164" 
d="M56 -68q17 8 22 24.5t4 43.5h-18v52h36v-46q0 -43 -8.5 -61t-28.5 -26z" />
    <glyph glyph-name="hyphen" unicode="-" horiz-adv-x="388" 
d="M70 308h248v-21h-248v21z" />
    <glyph glyph-name="hyphen" unicode="&#xad;" horiz-adv-x="388" 
d="M70 308h248v-21h-248v21z" />
    <glyph glyph-name="period" unicode="." horiz-adv-x="164" 
d="M64 52h36v-52h-36v52z" />
    <glyph glyph-name="slash" unicode="/" horiz-adv-x="471" 
d="M452 798h23l-470 -926h-23z" />
    <glyph glyph-name="zero" unicode="0" horiz-adv-x="710" 
d="M356 8q63 0 112 28t82.5 75t51 108.5t17.5 128.5v2q0 67 -17.5 128.5t-51.5 109t-83.5 76t-112.5 28.5t-112 -28t-82.5 -75t-51 -108.5t-17.5 -128.5v-2q0 -67 17.5 -128.5t51.5 -109t83.5 -76t112.5 -28.5zM355 -12q-68 0 -121.5 29.5t-90 79t-55.5 115t-19 137.5v2
q0 72 19 137t55.5 115t90 79.5t121.5 29.5t121.5 -29.5t90 -79t55.5 -115t19 -137.5v-2q0 -72 -19 -137t-55.5 -115t-90 -79.5t-121.5 -29.5z" />
    <glyph glyph-name="one" unicode="1" horiz-adv-x="315" 
d="M173 680l-131 -59l-9 19l143 65h18v-705h-21v680z" />
    <glyph glyph-name="two" unicode="2" horiz-adv-x="567" 
d="M40 13l317 307q40 39 65 70t38 56t17.5 46t4.5 40q0 32 -13.5 60.5t-38 50.5t-58.5 34.5t-75 12.5q-77 0 -131 -40t-87 -101l-19 11q35 65 94 107.5t144 42.5q46 0 84 -14t65 -38t42 -56t15 -68v-2q0 -23 -4.5 -45.5t-19 -49t-41 -59t-69.5 -74.5l-294 -284h438v-20h-474
v13z" />
    <glyph glyph-name="three" unicode="3" horiz-adv-x="537" 
d="M261 -12q-82 0 -145.5 35t-105.5 90l18 14q38 -52 98 -85.5t136 -33.5q42 0 79 13t64.5 35.5t44 54t16.5 69.5v2q0 46 -19 79t-53.5 54t-82 31t-105.5 10h-24l-7 14l272 310h-399v20h428v-16l-270 -308q65 0 117 -12t89 -35.5t56.5 -60t19.5 -85.5v-2q0 -42 -18 -77.5
t-49 -61t-72.5 -40t-87.5 -14.5z" />
    <glyph glyph-name="four" unicode="4" horiz-adv-x="620" 
d="M453 203v468l-387 -468h387zM453 183h-412l-6 13l421 509h18v-502h115v-20h-115v-183h-21v183z" />
    <glyph glyph-name="five" unicode="5" horiz-adv-x="591" 
d="M294 -12q-36 0 -70.5 9t-66 24t-57.5 35.5t-45 43.5l17 15q18 -22 42.5 -41.5t53 -34t60.5 -23t67 -8.5q48 0 88 14.5t69 41t45 62.5t16 80v2q0 42 -16.5 76.5t-45.5 59t-68 38t-84 13.5q-42 0 -88.5 -10t-97.5 -37l-13 7l21 345h373v-20h-353l-18 -304q42 20 86 29.5
t92 9.5q50 0 92.5 -15t74 -42t49.5 -65t18 -84v-2q0 -48 -17.5 -88t-49.5 -69.5t-76.5 -45.5t-97.5 -16z" />
    <glyph glyph-name="six" unicode="6" horiz-adv-x="626" 
d="M329 8q46 0 85.5 17t68.5 45t46 64.5t17 76.5v2q0 42 -17 78t-47 62.5t-70.5 41t-88.5 14.5q-44 0 -82.5 -15.5t-68 -42.5t-46.5 -62t-17 -74v-2q0 -41 17 -78.5t47 -65.5t70 -44.5t86 -16.5zM328 -12q-57 0 -100.5 20t-74.5 51q-41 41 -62 106.5t-21 162.5v2
q0 82 18.5 152t53.5 121t86.5 80t116.5 29q56 0 105 -21t91 -60l-14 -16q-39 36 -85.5 56.5t-97.5 20.5q-60 0 -107 -28t-79.5 -77t-49 -115t-16.5 -142v-2q0 -20 0.5 -42.5t1.5 -45.5q4 38 23.5 72.5t50.5 60.5t71 41t85 15q52 0 96.5 -16t77.5 -45t51.5 -68.5t18.5 -85.5
v-2q0 -45 -18.5 -85.5t-50.5 -71.5t-76 -49t-95 -18z" />
    <glyph glyph-name="seven" unicode="7" horiz-adv-x="533" 
d="M482 680h-430v20h455v-13l-345 -687h-24z" />
    <glyph glyph-name="eight" unicode="8" horiz-adv-x="626" 
d="M314 10q54 0 97.5 13.5t73.5 36t46 53t16 64.5v2q0 37 -18.5 69t-50.5 54.5t-75 35.5t-91 13t-90.5 -12.5t-74 -35t-50 -54t-18.5 -68.5v-2q0 -34 16.5 -64.5t47 -54t74 -37t97.5 -13.5zM314 371q42 0 79.5 11t65.5 31.5t44 49.5t16 65v2q0 34 -16 63.5t-44 51t-66 33.5
t-81 12t-80.5 -12t-65 -33t-43.5 -50t-16 -63v-2q0 -36 16.5 -65.5t44.5 -50t66 -32t80 -11.5zM313 -10q-60 0 -107.5 15t-80.5 41t-50.5 60t-17.5 72v2q0 34 14 64t39 53.5t58 39.5t72 24q-70 18 -112.5 61t-42.5 107v2q0 38 17.5 70.5t48 56.5t72.5 38t90 14t90 -14
t72.5 -38t48 -56.5t17.5 -70.5v-2q0 -64 -42.5 -107t-112.5 -61q39 -8 72 -25t58 -40.5t39 -53t14 -62.5v-2q0 -38 -17.5 -72t-50.5 -60t-80.5 -41t-107.5 -15z" />
    <glyph glyph-name="nine" unicode="9" horiz-adv-x="626" 
d="M303 285q43 0 82 15.5t68.5 42t46.5 62.5t17 77v2q0 43 -17 81t-47 66.5t-70 44.5t-86 16q-45 0 -84.5 -16.5t-69 -45t-46.5 -65.5t-17 -79v-2q0 -45 17 -81.5t47 -62.5t70.5 -40.5t88.5 -14.5zM281 -12q-56 0 -109 23.5t-93 63.5l15 16q39 -38 88 -60.5t100 -22.5
q60 0 107 28t79.5 77t49 115t16.5 142v2q0 17 -0.5 42t-1.5 43q-4 -40 -23.5 -75t-50.5 -61t-71 -41t-85 -15q-52 0 -96.5 16t-77.5 44.5t-51.5 68.5t-18.5 89v2q0 47 18.5 88.5t51 72t76.5 48.5t94 18q57 0 100.5 -20t74.5 -51q41 -41 62 -106.5t21 -162.5v-2
q0 -82 -18.5 -152t-54 -121t-86.5 -80t-116 -29z" />
    <glyph glyph-name="colon" unicode=":" horiz-adv-x="168" 
d="M66 52h36v-52h-36v52zM66 500h36v-52h-36v52z" />
    <glyph glyph-name="semicolon" unicode=";" horiz-adv-x="168" 
d="M58 -68q17 8 22 24.5t4 43.5h-18v52h36v-46q0 -43 -8.5 -61t-28.5 -26zM66 500h36v-52h-36v52z" />
    <glyph glyph-name="semicolon" unicode="&#x37e;" horiz-adv-x="168" 
d="M58 -68q17 8 22 24.5t4 43.5h-18v52h36v-46q0 -43 -8.5 -61t-28.5 -26zM66 500h36v-52h-36v52z" />
    <glyph glyph-name="less" unicode="&#x3c;" horiz-adv-x="600" 
d="M57 347v10l460 235v-23l-428 -217l428 -217v-23z" />
    <glyph glyph-name="equal" unicode="=" horiz-adv-x="600" 
d="M93 245h414v-20h-414v20zM93 480h414v-20h-414v20z" />
    <glyph glyph-name="greater" unicode="&#x3e;" horiz-adv-x="600" 
d="M83 135l428 217l-428 217v23l460 -235v-10l-460 -235v23z" />
    <glyph glyph-name="question" unicode="?" horiz-adv-x="499" 
d="M200 52h36v-52h-36v52zM205 340l3 3q46 3 86 16.5t69 35.5t45.5 53.5t16.5 70.5v2q0 35 -14 66t-38.5 53.5t-59.5 35.5t-77 13q-62 0 -112.5 -32.5t-81.5 -84.5l-18 12q35 56 88 90.5t125 34.5q47 0 86 -14.5t66.5 -40t42.5 -59.5t15 -73v-2q0 -45 -18.5 -80t-49 -59
t-69.5 -38t-80 -18l-7 -142h-10z" />
    <glyph glyph-name="at" unicode="@" horiz-adv-x="949" 
d="M439 101q39 0 72.5 18t58.5 47.5t39.5 67.5t14.5 78q0 31 -11 58.5t-30 47t-45 31t-56 11.5q-37 0 -71 -16.5t-59.5 -45t-40.5 -67.5t-15 -84q0 -35 10.5 -62t29.5 -45.5t45.5 -28.5t57.5 -10zM489 -163q-89 0 -166.5 30.5t-135 86.5t-90.5 134t-33 174q0 88 31.5 169.5
t87 144t132 99.5t166.5 37q87 0 161 -31.5t128 -84.5t84.5 -123t30.5 -148q0 -65 -16 -111t-40.5 -75.5t-53.5 -43.5t-55 -14q-30 0 -50.5 10.5t-33 28t-18 39t-4.5 43.5q-26 -53 -72.5 -87t-102.5 -34q-35 0 -65.5 11.5t-52.5 32.5t-34.5 51.5t-12.5 69.5q0 50 17.5 92.5
t46 74t66 49.5t78.5 18q58 0 100 -33t53 -89l18 99l20 -4l-35 -191q-3 -15 -4 -29t-1 -27q0 -47 20 -77t67 -30q24 0 49.5 13t47 40t35 69.5t13.5 102.5q0 75 -29 142t-80.5 117.5t-122 80.5t-153.5 30q-87 0 -159.5 -35.5t-125 -95t-82 -137.5t-29.5 -163q0 -92 31.5 -167
t86.5 -128.5t129 -83t159 -29.5q131 0 232 67l11 -16q-52 -35 -112 -52t-132 -17z" />
    <glyph glyph-name="A" unicode="A" horiz-adv-x="767" 
d="M596 230l-213 446l-213 -446h426zM374 705h19l337 -705h-24l-100 210h-446l-100 -210h-23z" />
    <glyph glyph-name="B" unicode="B" horiz-adv-x="725" 
d="M407 20q109 0 168.5 42t59.5 118v2q0 40 -17 70t-45.5 50.5t-67 31t-81.5 10.5h-298v-324h281zM407 364q39 0 73.5 9.5t61 29t41.5 49t15 69.5v2q0 72 -54.5 114.5t-153.5 42.5h-264v-316h281zM104 700h287q124 0 184 -60q45 -45 45 -116v-2q0 -65 -37.5 -108t-97.5 -57
q36 -5 67.5 -20t54.5 -37.5t36.5 -52t13.5 -64.5v-2q0 -87 -65.5 -134t-184.5 -47h-303v700z" />
    <glyph glyph-name="C" unicode="C" horiz-adv-x="726" 
d="M415 -12q-74 0 -136.5 28.5t-108.5 77.5t-71.5 114.5t-25.5 139.5v2q0 74 25.5 139.5t71.5 115t109 78.5t138 29q49 0 88 -8.5t70.5 -23.5t57.5 -35.5t50 -43.5l-15 -15q-21 20 -45.5 39t-54.5 34t-67.5 24t-84.5 9q-70 0 -129 -27.5t-101.5 -74.5t-66.5 -108.5
t-24 -130.5v-2q0 -69 24.5 -131t67 -108.5t101.5 -74t128 -27.5q43 0 80 9.5t69 25t58.5 36t47.5 43.5l16 -15q-23 -24 -51 -45.5t-62 -38t-73.5 -26t-85.5 -9.5z" />
    <glyph glyph-name="D" unicode="D" horiz-adv-x="774" 
d="M330 20q77 0 141.5 25.5t110.5 70t71.5 104t25.5 128.5v2q0 69 -25.5 129t-72 105t-111 70.5t-142.5 25.5h-202v-660h204zM104 700h225q82 0 150.5 -27t118 -74t76.5 -110.5t27 -137.5v-2q0 -74 -27 -137.5t-76.5 -110.5t-118 -74t-150.5 -27h-225v700z" />
    <glyph glyph-name="E" unicode="E" horiz-adv-x="661" 
d="M104 700h489v-20h-467v-318h424v-20h-424v-322h472v-20h-494v700z" />
    <glyph glyph-name="F" unicode="F" horiz-adv-x="624" 
d="M104 700h484v-20h-462v-325h419v-20h-419v-335h-22v700z" />
    <glyph glyph-name="G" unicode="G" horiz-adv-x="779" 
d="M418 -12q-82 0 -146 29t-108.5 78t-67.5 114.5t-23 138.5v2q0 70 24 135.5t69 115.5t109 80.5t144 30.5q40 0 73 -6t62 -17.5t55.5 -28t52.5 -38.5l-14 -17q-49 40 -102 63.5t-128 23.5q-74 0 -133.5 -29t-101.5 -76.5t-65 -109t-23 -126.5v-2q0 -68 22 -130t63.5 -109
t101.5 -74.5t137 -27.5q39 0 74.5 8t67 21.5t58.5 30.5t49 36v225h-258v22h280v-255q-50 -45 -118.5 -76.5t-153.5 -31.5z" />
    <glyph glyph-name="H" unicode="H" horiz-adv-x="752" 
d="M104 700h22v-337h500v337h22v-700h-22v343h-500v-343h-22v700z" />
    <glyph glyph-name="I" unicode="I" horiz-adv-x="244" 
d="M111 700h22v-700h-22v700z" />
    <glyph glyph-name="J" unicode="J" horiz-adv-x="534" 
d="M230 -11q-66 0 -120 37t-80 103l20 9q24 -61 72 -95t110 -34q38 0 72 13.5t59 41.5t39.5 71.5t14.5 102.5v462h22v-459q0 -69 -17.5 -117t-48.5 -79q-29 -29 -65 -42.5t-78 -13.5z" />
    <glyph glyph-name="K" unicode="K" horiz-adv-x="705" 
d="M104 700h22v-473l484 473h31l-304 -295l315 -405h-27l-303 390l-196 -191v-199h-22v700z" />
    <glyph glyph-name="L" unicode="L" horiz-adv-x="584" 
d="M104 700h22v-680h430v-20h-452v700z" />
    <glyph glyph-name="M" unicode="M" horiz-adv-x="859" 
d="M104 700h21l305 -434l305 434h20v-700h-22v663l-303 -432h-1l-303 432v-663h-22v700z" />
    <glyph glyph-name="N" unicode="N" horiz-adv-x="780" 
d="M104 700h19l532 -664v664h21v-700h-19l-532 664v-664h-21v700z" />
    <glyph glyph-name="O" unicode="O" horiz-adv-x="842" 
d="M422 8q73 0 133 28t103 74.5t66 108t23 129.5v2q0 67 -23.5 129t-66.5 109t-103.5 75.5t-133.5 28.5q-74 0 -133.5 -28t-102.5 -74.5t-66 -108.5t-23 -129v-2q0 -67 23.5 -129t66.5 -109t103.5 -75.5t133.5 -28.5zM421 -12q-80 0 -144 29.5t-109.5 79.5t-70 115
t-24.5 137v2q0 72 24.5 137t70 115t109.5 79.5t144 29.5q79 0 143.5 -29.5t110 -79.5t70 -115t24.5 -137v-2q0 -72 -24.5 -137t-70 -115t-110 -79.5t-143.5 -29.5z" />
    <glyph glyph-name="P" unicode="P" horiz-adv-x="668" 
d="M345 295q117 0 184 49t67 143v2q0 90 -65.5 140.5t-183.5 50.5h-222v-385h220zM103 700h246q129 0 199 -55.5t70 -154.5v-2q0 -102 -73 -157.5t-200 -55.5h-220v-275h-22v700z" />
    <glyph glyph-name="Q" unicode="Q" horiz-adv-x="842" 
d="M422 8q67 0 122.5 23t97.5 63l-155 135l14 16l156 -136q44 48 67 109.5t23 129.5v2q0 67 -23.5 129t-66.5 109t-103.5 75.5t-133.5 28.5q-74 0 -133.5 -28t-102.5 -74.5t-66 -108.5t-23 -129v-2q0 -67 23.5 -129t66.5 -109t103.5 -75.5t133.5 -28.5zM658 80
q-45 -42 -104.5 -67t-132.5 -25q-80 0 -144 29.5t-109.5 79.5t-70 115t-24.5 137v2q0 72 24.5 137t70 115t109.5 79.5t144 29.5q79 0 143.5 -29.5t110 -79.5t70 -115t24.5 -137v-2q0 -72 -25 -137.5t-71 -116.5l101 -88l-14 -16z" />
    <glyph glyph-name="R" unicode="R" horiz-adv-x="724" 
d="M379 325q61 0 106 13.5t75 37.5t44.5 56t14.5 69v2q0 84 -61 130.5t-170 46.5h-262v-355h253zM104 700h286q135 0 201 -66q50 -50 50 -130v-2q0 -44 -17 -79t-47 -60t-72 -39.5t-93 -17.5l233 -306h-27l-232 305h-3h-257v-305h-22v700z" />
    <glyph glyph-name="S" unicode="S" horiz-adv-x="642" 
d="M336 -10q-81 0 -150.5 29t-126.5 83l16 16q54 -52 120 -80t143 -28q49 0 89 12.5t68 34.5t43 52.5t15 65.5v2q0 32 -11 57.5t-37 45.5t-70.5 35.5t-110.5 29.5q-65 13 -110.5 29.5t-74 38.5t-41.5 50.5t-13 65.5v2q0 37 17 69.5t47.5 57t72 38.5t91.5 14
q69 0 129.5 -21.5t108.5 -58.5l-14 -18q-47 35 -104 56.5t-122 21.5q-46 0 -83.5 -13t-64.5 -35t-41.5 -50.5t-14.5 -59.5v-2q0 -32 11 -57t37.5 -44.5t69.5 -35t108 -28.5q68 -14 114.5 -31.5t75 -40t40.5 -51t12 -64.5v-2q0 -39 -16.5 -73t-47.5 -59t-75.5 -39.5
t-99.5 -14.5z" />
    <glyph glyph-name="T" unicode="T" horiz-adv-x="582" 
d="M280 680h-253v20h528v-20h-253v-680h-22v680z" />
    <glyph glyph-name="U" unicode="U" horiz-adv-x="752" 
d="M376 -11q-63 0 -115 20t-89.5 60t-58 100t-20.5 141v390h22v-390q0 -75 19 -131.5t53.5 -94t83 -56.5t106.5 -19q59 0 107 18.5t82 56t52.5 94t18.5 131.5v391h22v-390q0 -80 -20.5 -140.5t-57.5 -100.5t-89.5 -60t-115.5 -20z" />
    <glyph glyph-name="V" unicode="V" horiz-adv-x="727" 
d="M37 700h24l303 -674l303 674h23l-318 -705h-17z" />
    <glyph glyph-name="W" unicode="W" horiz-adv-x="1017" 
d="M44 700h23l220 -670l213 672h17l214 -673l220 671h22l-233 -705h-19l-213 666l-212 -666h-19z" />
    <glyph glyph-name="X" unicode="X" horiz-adv-x="672" 
d="M323 356l-276 344h26l263 -329l262 329h27l-276 -344l286 -356h-26l-273 342l-272 -342h-27z" />
    <glyph glyph-name="Y" unicode="Y" horiz-adv-x="657" 
d="M318 293l-296 407h26l282 -388l279 388h26l-295 -407v-293h-22v293z" />
    <glyph glyph-name="Z" unicode="Z" horiz-adv-x="678" 
d="M66 13l507 667h-490v20h521v-13l-507 -667h504v-20h-535v13z" />
    <glyph glyph-name="bracketleft" unicode="[" horiz-adv-x="410" 
d="M98 700h263v-17h-241v-796h241v-17h-263v830z" />
    <glyph glyph-name="backslash" unicode="\" horiz-adv-x="471" 
d="M-4 798h23l470 -926h-23z" />
    <glyph glyph-name="bracketright" unicode="]" horiz-adv-x="410" 
d="M49 -113h241v796h-241v17h263v-830h-263v17z" />
    <glyph glyph-name="asciicircum" unicode="^" 
d="M244 703h12l156 -209h-17l-145 183l-145 -183h-17z" />
    <glyph glyph-name="underscore" unicode="_" horiz-adv-x="550" 
d="M-2 -129h554v-20h-554v20z" />
    <glyph glyph-name="grave" unicode="`" 
d="M172 707l25 12l96 -124h-14z" />
    <glyph glyph-name="a" unicode="a" horiz-adv-x="566" 
d="M239 8q50 0 91 15t70.5 39.5t45.5 56t16 64.5v64q-40 15 -85 23.5t-102 8.5q-42 0 -79 -8.5t-64.5 -26t-43 -43.5t-15.5 -60v-2q0 -33 13.5 -57.5t36.5 -41t53 -24.5t63 -8zM238 -12q-37 0 -70.5 9.5t-59.5 28.5t-41.5 47t-15.5 65v2q0 39 17.5 69t47.5 50t70.5 30
t87.5 10q53 0 101.5 -8.5t86.5 -22.5v42q0 91 -50.5 134.5t-138.5 43.5q-47 0 -87 -11.5t-79 -30.5l-8 18q42 20 84 32t91 12q105 0 160 -55q23 -23 36 -59t13 -83v-311h-21v118q-8 -22 -26 -45t-46 -42t-66 -31t-86 -12z" />
    <glyph glyph-name="b" unicode="b" horiz-adv-x="655" 
d="M344 8q51 0 93.5 18.5t72.5 51t46.5 76.5t16.5 94v2q0 50 -16.5 94t-46.5 77t-72.5 52t-93.5 19t-93.5 -19.5t-73 -52.5t-47.5 -76.5t-17 -92.5v-2q0 -48 17 -92t48 -77t73 -52.5t93 -19.5zM345 -12q-44 0 -81 12.5t-67 35t-51 53t-32 66.5v-155h-21v730h21v-385
q11 36 32 66.5t51 53t67 35t81 12.5q54 0 100 -20.5t79.5 -55.5t52 -83t18.5 -102v-2q0 -54 -18.5 -102t-52 -83t-79.5 -55.5t-100 -20.5z" />
    <glyph glyph-name="c" unicode="c" horiz-adv-x="561" 
d="M313 -12q-54 0 -100.5 21t-81 56.5t-54 83t-19.5 100.5v2q0 53 19.5 100.5t54 83t81.5 56.5t101 21q69 0 115.5 -26.5t84.5 -66.5l-15 -14q-34 36 -78.5 61.5t-107.5 25.5q-50 0 -92.5 -19t-74 -52t-49 -76.5t-17.5 -92.5v-2q0 -49 18 -93t49.5 -77t74.5 -52.5t92 -19.5
q64 0 109.5 27.5t78.5 65.5l15 -14q-35 -41 -84.5 -70t-119.5 -29z" />
    <glyph glyph-name="d" unicode="d" horiz-adv-x="655" 
d="M311 8q51 0 93.5 19.5t73 52.5t47.5 76.5t17 92.5v2q0 48 -17 92t-48 77t-73 52.5t-93 19.5t-93.5 -18.5t-72.5 -51t-46.5 -76.5t-16.5 -94v-2q0 -50 16.5 -94t46.5 -77t72.5 -52t93.5 -19zM310 -12q-54 0 -100 20.5t-79.5 55.5t-52 83t-18.5 102v2q0 54 18.5 102t52 83
t79.5 55.5t100 20.5q43 0 80.5 -12.5t67.5 -35t51 -53t32 -66.5v385h21v-730h-21v155q-11 -36 -32 -66.5t-51 -53t-67.5 -35t-80.5 -12.5z" />
    <glyph glyph-name="e" unicode="e" horiz-adv-x="583" 
d="M505 263q-2 43 -16 84t-40 73t-64.5 52t-87.5 20q-47 0 -85.5 -17.5t-67 -48t-45 -72.5t-18.5 -91h424zM308 -12q-51 0 -96.5 18.5t-79.5 52.5t-54 82.5t-20 108.5v2q0 55 18 103t50 82.5t76 54.5t96 20q59 0 102.5 -23.5t72 -61.5t42 -85t13.5 -94v-4h-447
q1 -54 20 -97.5t49.5 -74.5t71.5 -47.5t87 -16.5q58 0 106.5 29.5t78.5 71.5l17 -12q-32 -47 -84.5 -78t-118.5 -31z" />
    <glyph glyph-name="f" unicode="f" horiz-adv-x="325" 
d="M128 481h-79v19h79v72q0 43 10.5 74.5t30.5 51.5q35 35 95 35q23 0 39 -3.5t31 -10.5v-21q-30 14 -70 14q-54 0 -84.5 -34.5t-30.5 -109.5v-68h183v-19h-183v-481h-21v481z" />
    <glyph glyph-name="g" unicode="g" horiz-adv-x="646" 
d="M308 57q47 0 88 17t72 46.5t48.5 68.5t17.5 83v2q0 44 -17.5 83.5t-48.5 69.5t-72 47.5t-88 17.5t-88 -17t-71.5 -46.5t-48 -68.5t-17.5 -84v-2q0 -45 17.5 -84.5t48 -69t71.5 -46.5t88 -17zM310 -163q-63 0 -119 19.5t-108 57.5l13 17q48 -37 101 -55.5t113 -18.5
q50 0 91 14t70 42t45 70t16 97v102q-28 -64 -88 -104.5t-137 -40.5q-51 0 -96 18.5t-78.5 50.5t-53 75t-19.5 92v2q0 49 19.5 92t53 75t78.5 51t96 19q77 0 137 -40.5t88 -104.5v133h21v-424q0 -57 -16.5 -100.5t-47.5 -74.5q-32 -32 -77.5 -48t-101.5 -16z" />
    <glyph glyph-name="h" unicode="h" horiz-adv-x="608" 
d="M93 730h21v-367q6 23 21.5 49t40.5 48.5t59.5 37t79.5 14.5q51 0 90 -16.5t65.5 -46.5t40.5 -72t14 -94v-283h-21v281q0 47 -12 86t-36 66.5t-60 43t-83 15.5q-42 0 -78 -16.5t-63 -46t-42.5 -68.5t-15.5 -84v-277h-21v730z" />
    <glyph glyph-name="i" unicode="i" horiz-adv-x="219" 
d="M99 500h21v-500h-21v500zM94 700h31v-57h-31v57z" />
    <glyph glyph-name="j" unicode="j" horiz-adv-x="221" 
d="M23 -167q-15 0 -21 1t-15 3v20q8 -2 15 -3t21 -1q35 0 56.5 24.5t21.5 72.5v550h21v-548q0 -60 -27 -89.5t-72 -29.5zM96 700h31v-57h-31v57z" />
    <glyph glyph-name="k" unicode="k" horiz-adv-x="543" 
d="M93 730h21v-555l347 325h28l-238 -221l254 -279h-26l-241 266l-124 -115v-151h-21v730z" />
    <glyph glyph-name="l" unicode="l" horiz-adv-x="219" 
d="M99 730h21v-730h-21v730z" />
    <glyph glyph-name="m" unicode="m" horiz-adv-x="923" 
d="M93 500h21v-128q6 24 21 49t37.5 45t51.5 33t63 13q41 0 72 -12t53 -32t36 -47.5t21 -57.5q7 27 23.5 53.5t39.5 48t52.5 34.5t63.5 13q42 0 76.5 -14t59 -41t38.5 -67.5t14 -93.5v-296h-21v294q0 97 -47 147.5t-121 50.5q-32 0 -63 -15t-55 -42t-39 -63.5t-15 -79.5
v-292h-21v294q0 97 -47 147.5t-121 50.5q-32 0 -63 -15t-55 -42t-39 -63.5t-15 -79.5v-292h-21v500z" />
    <glyph glyph-name="n" unicode="n" horiz-adv-x="608" 
d="M93 500h21v-137q6 23 21.5 49t40.5 48.5t59.5 37t79.5 14.5q51 0 90 -16.5t65.5 -46.5t40.5 -72t14 -94v-283h-21v281q0 47 -12 86t-36 66.5t-60 43t-83 15.5q-42 0 -78 -16.5t-63 -46t-42.5 -68.5t-15.5 -84v-277h-21v500z" />
    <glyph glyph-name="o" unicode="o" horiz-adv-x="634" 
d="M318 8q53 0 96.5 19t75 52t48.5 77t17 93v2q0 49 -17.5 93t-49.5 77t-76 52t-96 19q-53 0 -96.5 -19t-75 -52t-48.5 -77t-17 -93v-2q0 -49 17.5 -93t49.5 -77t75.5 -52t96.5 -19zM317 -12q-59 0 -106.5 21t-82 56.5t-53 82.5t-18.5 100v2q0 52 18.5 99.5t52.5 83.5
t82 57.5t107 21.5q58 0 106 -21t82.5 -56.5t53 -83t18.5 -99.5v-2q0 -53 -18.5 -100.5t-52.5 -83.5t-82 -57t-107 -21z" />
    <glyph glyph-name="p" unicode="p" horiz-adv-x="655" 
d="M344 8q51 0 93.5 18.5t72.5 51t46.5 76.5t16.5 94v2q0 50 -16.5 94t-46.5 77t-72.5 52t-93.5 19t-93.5 -19.5t-73 -52.5t-47.5 -76.5t-17 -92.5v-2q0 -48 17 -92t48 -77t73 -52.5t93 -19.5zM93 500h21v-155q11 36 32 66.5t51 53t67 35t81 12.5q54 0 100 -20.5t79.5 -55.5
t52 -83t18.5 -102v-2q0 -54 -18.5 -102t-52 -83t-79.5 -55.5t-100 -20.5q-44 0 -81 12.5t-67 35t-51 53t-32 66.5v-315h-21v660z" />
    <glyph glyph-name="q" unicode="q" horiz-adv-x="655" 
d="M311 8q51 0 93.5 19.5t73 52.5t47.5 76.5t17 92.5v2q0 48 -17 92t-48 77t-73 52.5t-93 19.5t-93.5 -18.5t-72.5 -51t-46.5 -76.5t-16.5 -94v-2q0 -50 16.5 -94t46.5 -77t72.5 -52t93.5 -19zM541 155q-11 -36 -32 -66.5t-51 -53t-67.5 -35t-80.5 -12.5q-54 0 -100 20.5
t-79.5 55.5t-52 83t-18.5 102v2q0 54 18.5 102t52 83t79.5 55.5t100 20.5q43 0 80.5 -12.5t67.5 -35t51 -53t32 -66.5v155h21v-660h-21v315z" />
    <glyph glyph-name="r" unicode="r" horiz-adv-x="335" 
d="M93 500h21v-160q9 31 26.5 62t43.5 55.5t60 39.5t76 15v-20h-5q-47 0 -84 -23t-63 -57.5t-40 -75.5t-14 -77v-259h-21v500z" />
    <glyph glyph-name="s" unicode="s" horiz-adv-x="490" 
d="M246 -9q-53 0 -106.5 19.5t-95.5 54.5l13 17q42 -35 91.5 -53t98.5 -18q34 0 63 8t50 23t33 35.5t12 44.5v2q0 29 -14 48.5t-37.5 33t-53 22.5t-59.5 18q-38 11 -70.5 22t-55.5 26t-36 35.5t-13 50.5v2q0 26 12.5 49t35 40.5t55 27.5t71.5 10q42 0 88 -14t86 -42l-12 -18
q-37 26 -79.5 40t-82.5 14q-69 0 -110.5 -30.5t-41.5 -75.5v-2q0 -25 12.5 -42.5t34.5 -30.5t50.5 -23t61.5 -19q37 -10 70 -21.5t57.5 -27t38.5 -38t14 -54.5v-2q0 -29 -13.5 -53.5t-38 -42t-57.5 -27t-72 -9.5z" />
    <glyph glyph-name="t" unicode="t" horiz-adv-x="373" 
d="M248 -9q-63 0 -95.5 35.5t-32.5 101.5v353h-79v19h79v173h21v-173h185v-19h-185v-351q0 -57 26.5 -88t80.5 -31q40 0 76 18v-22q-35 -16 -76 -16z" />
    <glyph glyph-name="u" unicode="u" horiz-adv-x="608" 
d="M293 -12q-51 0 -90 16.5t-65.5 46.5t-40.5 72t-14 94v283h21v-281q0 -47 12 -86t36 -66.5t60 -43t83 -15.5q42 0 78 16.5t63 46t42.5 68.5t15.5 84v277h21v-500h-21v137q-6 -23 -21.5 -49t-40.5 -48.5t-59.5 -37t-79.5 -14.5z" />
    <glyph glyph-name="v" unicode="v" horiz-adv-x="560" 
d="M41 500h23l217 -478l216 478h22l-230 -504h-16z" />
    <glyph glyph-name="w" unicode="w" horiz-adv-x="804" 
d="M48 500h22l161 -472l163 475h17l162 -475l162 472h21l-175 -504h-17l-162 476l-162 -476h-17z" />
    <glyph glyph-name="x" unicode="x" horiz-adv-x="530" 
d="M253 254l-211 246h25l198 -233l199 233h24l-211 -246l219 -254h-25l-206 241l-207 -241h-24z" />
    <glyph glyph-name="y" unicode="y" horiz-adv-x="569" 
d="M138 -163q-26 0 -51.5 8t-42.5 19l10 17q17 -10 40 -17.5t44 -7.5q22 0 39.5 5.5t34 21.5t33.5 44t38 73l-241 500h23l228 -478l215 478h22l-232 -510q-22 -48 -40.5 -78t-37 -46.5t-38.5 -22.5t-44 -6z" />
    <glyph glyph-name="z" unicode="z" horiz-adv-x="487" 
d="M36 12l381 469h-369v19h400v-12l-381 -469h383v-19h-414v12z" />
    <glyph glyph-name="braceleft" unicode="{" horiz-adv-x="440" 
d="M371 -141q-66 13 -102.5 32t-54 44.5t-21.5 58t-4 71.5v80q0 26 -6.5 50t-21.5 42t-39 29t-58 11h-20v20h20q34 0 58 11t39 29t21.5 42t6.5 50v80q0 39 4 71.5t21.5 58t54 44.5t102.5 32l4 -19q-59 -11 -92 -28.5t-49 -40.5t-19.5 -52.5t-3.5 -65.5v-80
q0 -57 -26.5 -96.5t-84.5 -45.5q58 -6 84.5 -45.5t26.5 -96.5v-80q0 -36 3.5 -65.5t19.5 -52.5t49 -40.5t92 -28.5z" />
    <glyph glyph-name="bar" unicode="|" horiz-adv-x="257" 
d="M119 798h19v-926h-19v926z" />
    <glyph glyph-name="braceright" unicode="}" horiz-adv-x="440" 
d="M65 -122q59 11 92 28.5t49 40.5t19.5 52.5t3.5 65.5v80q0 57 26.5 96.5t84.5 45.5q-58 6 -84.5 45.5t-26.5 96.5v80q0 36 -3.5 65.5t-19.5 52.5t-49 40.5t-92 28.5l4 19q66 -13 102.5 -32t54 -44.5t21.5 -58t4 -71.5v-80q0 -26 6.5 -50t21.5 -42t38.5 -29t58.5 -11h20
v-20h-20q-35 0 -58.5 -11t-38.5 -29t-21.5 -42t-6.5 -50v-80q0 -39 -4 -71.5t-21.5 -58t-54 -44.5t-102.5 -32z" />
    <glyph glyph-name="asciitilde" unicode="~" horiz-adv-x="440" 
d="M84 256q9 44 28.5 62t43.5 18q15 0 32.5 -9t35 -20t33.5 -20t29 -9q18 0 32 13t25 50l13 -3q-9 -44 -28.5 -62t-43.5 -18q-15 0 -32.5 9t-35 20t-33.5 20t-29 9q-18 0 -32 -13t-25 -50z" />
    <glyph glyph-name="nonbreakingspace" unicode="&#xa0;" horiz-adv-x="280" 
 />
    <glyph glyph-name="exclamdown" unicode="&#xa1;" horiz-adv-x="194" 
d="M86 108l6 409h10l6 -409v-108h-22v108zM79 700h36v-52h-36v52z" />
    <glyph glyph-name="cent" unicode="&#xa2;" horiz-adv-x="561" 
d="M350 597q-7 1 -13.5 1h-13.5q-50 0 -92.5 -19.5t-74 -52.5t-49.5 -77t-18 -92v-2q0 -40 12.5 -77.5t34.5 -68.5t53 -54t68 -34zM253 102q-41 11 -75 35.5t-58.5 57.5t-38 74t-13.5 85v2q0 52 20 99.5t54.5 83.5t81 57t100.5 21h14t15 -1l18 90h20l-18 -93
q51 -10 86.5 -34.5t64.5 -54.5l-14 -14q-26 27 -60.5 51t-80.5 33l-94 -478q11 -2 22.5 -3t22.5 -1q63 0 110.5 26t82.5 66l14 -12q-38 -45 -88.5 -72t-119.5 -27q-12 0 -24 1.5t-24 3.5l-20 -104h-19z" />
    <glyph glyph-name="sterling" unicode="&#xa3;" horiz-adv-x="599" 
d="M65 13l91 8v298h-91v20h91v117q0 68 17.5 116t49.5 80q28 28 63 43t83 15q64 0 111.5 -31.5t79.5 -79.5l-18 -12q-29 45 -71.5 74t-102.5 29q-43 0 -73.5 -13t-56.5 -39t-43 -71.5t-17 -107.5v-120h302v-20h-302v-299h375v-20h-488v13z" />
    <glyph glyph-name="currency" unicode="&#xa4;" horiz-adv-x="720" 
d="M424 -12q-54 0 -101 19.5t-83.5 55.5t-61.5 86t-36 111h-93v20h90q-2 17 -3 34t-1 34v2q0 20 1.5 40t5.5 40h-93v20h96q12 57 37 105t60.5 83t79.5 54.5t95 19.5q44 0 80 -10.5t65 -29.5t52 -45t42 -57l-19 -11q-35 58 -86.5 95.5t-133.5 37.5q-47 0 -87.5 -18.5
t-73 -50.5t-55.5 -76.5t-35 -96.5h312v-20h-316q-3 -20 -5 -40t-2 -40v-2q0 -17 1 -34t3 -34h319v-20h-315q11 -56 34.5 -102.5t57 -79.5t76.5 -51.5t93 -18.5q39 0 71 11t58 29.5t47.5 44.5t39.5 56l18 -10q-20 -32 -43 -60t-51.5 -48t-63 -31.5t-76.5 -11.5z" />
    <glyph glyph-name="yen" unicode="&#xa5;" horiz-adv-x="617" 
d="M298 120h-206v20h206v150h-206v20h194q-19 28 -41 61q-19 27 -42.5 62t-48.5 72q-58 85 -132 195h28l260 -388l259 388h26l-264 -390h194v-20h-205v-150h205v-20h-205v-120h-22v120z" />
    <glyph glyph-name="section" unicode="&#xa7;" horiz-adv-x="632" 
d="M386 243q31 0 58.5 7t48.5 19t33 28.5t12 36.5v2q0 40 -41.5 66t-132.5 43q-35 7 -62 9.5t-55 2.5q-31 0 -58.5 -7t-48.5 -19t-33 -28.5t-12 -36.5v-2q0 -40 41.5 -66t132.5 -43q35 -7 62 -9.5t55 -2.5zM315 -10q-30 0 -59.5 5.5t-56 15t-49 22t-37.5 25.5l14 17
q15 -12 36 -24t46 -21t52 -14.5t54 -5.5q75 0 117.5 27.5t42.5 70.5v2q0 50 -54 77.5t-156 46.5q-95 17 -143.5 48t-48.5 80v2q0 23 12.5 44t37 36t60.5 23.5t83 5.5q-56 14 -93 42t-37 75v2q0 24 12.5 45.5t35.5 37.5t57 25.5t77 9.5q30 0 59.5 -5.5t56 -15t49 -22
t37.5 -25.5l-14 -17q-15 12 -36 24t-46 21t-52 14.5t-54 5.5q-75 0 -117.5 -27.5t-42.5 -70.5v-2q0 -50 54 -77.5t156 -46.5q95 -17 143.5 -48t48.5 -80v-2q0 -23 -12.5 -44t-37 -36t-60.5 -23.5t-83 -5.5q28 -7 51.5 -17.5t41 -24.5t27.5 -32.5t10 -42.5v-2
q0 -24 -12.5 -45.5t-35.5 -37.5t-57 -25.5t-77 -9.5z" />
    <glyph glyph-name="dieresis" unicode="&#xa8;" 
d="M163 666h36v-52h-36v52zM301 666h36v-52h-36v52z" />
    <glyph glyph-name="copyright" unicode="&#xa9;" horiz-adv-x="830" 
d="M422 164q-39 0 -72.5 15t-57.5 41t-37.5 60.5t-13.5 72.5v2q0 39 13.5 73.5t37.5 60.5t57.5 41t73.5 15q53 0 85 -18t56 -41l-14 -14q-21 21 -51 38t-77 17q-35 0 -64.5 -14t-51 -37t-33.5 -54.5t-12 -65.5q-1 -1 0 -2q0 -35 12 -66t34 -54.5t51.5 -37.5t64.5 -14
q46 0 76 17.5t53 41.5l14 -13q-24 -26 -57.5 -45t-86.5 -19zM415 5q71 0 134 27t109.5 74t73.5 109.5t27 133.5v2q0 71 -27 133.5t-73.5 109.5t-109.5 74t-134 27t-134 -27t-109.5 -74t-73.5 -109.5t-27 -133.5v-2q0 -71 27 -133.5t73.5 -109.5t109.5 -74t134 -27zM415 -12
q-75 0 -141 28.5t-115 77.5t-77.5 114.5t-28.5 140.5v2q0 75 28.5 140.5t77.5 114.5t115 77.5t141 28.5t141 -28.5t115 -77.5t77.5 -114.5t28.5 -140.5v-2q0 -75 -28.5 -140.5t-77.5 -114.5t-115 -77.5t-141 -28.5z" />
    <glyph glyph-name="ordfeminine" unicode="&#xaa;" horiz-adv-x="420" 
d="M190 431q51 0 83.5 27t32.5 65v34q-20 6 -44.5 10.5t-55.5 4.5q-45 0 -73.5 -18.5t-28.5 -52.5v-2q0 -33 26 -50.5t60 -17.5zM82 333h247v-15h-247v15zM189 414q-20 0 -39 5t-33.5 15.5t-23.5 26.5t-9 37v2q0 44 34.5 66t88.5 22q29 0 53.5 -4t45.5 -11v19
q0 48 -26.5 70.5t-73.5 22.5q-27 0 -48 -6.5t-41 -16.5l-7 16q23 11 45.5 17.5t51.5 6.5q59 0 90 -31q27 -27 27 -78v-173h-18v57q-12 -23 -40.5 -43t-76.5 -20z" />
    <glyph glyph-name="guillemotleft" unicode="&#xab;" horiz-adv-x="462" 
d="M44 252v6l176 205l12 -10l-164 -198l164 -198l-12 -10zM214 252v6l176 205l12 -10l-164 -198l164 -198l-12 -10z" />
    <glyph glyph-name="registered" unicode="&#xae;" horiz-adv-x="830" 
d="M434 350q54 0 84.5 23.5t30.5 64.5v2q0 40 -30 62.5t-84 22.5h-130v-175h129zM285 543h152q69 0 104 -35q27 -27 27 -67v-2q0 -47 -30.5 -73t-81.5 -32l121 -157h-24l-119 155h-4h-125v-155h-20v366zM415 5q71 0 134 27t109.5 74t73.5 109.5t27 133.5v2q0 71 -27 133.5
t-73.5 109.5t-109.5 74t-134 27t-134 -27t-109.5 -74t-73.5 -109.5t-27 -133.5v-2q0 -71 27 -133.5t73.5 -109.5t109.5 -74t134 -27zM415 -12q-75 0 -141 28.5t-115 77.5t-77.5 114.5t-28.5 140.5v2q0 75 28.5 140.5t77.5 114.5t115 77.5t141 28.5t141 -28.5t115 -77.5
t77.5 -114.5t28.5 -140.5v-2q0 -75 -28.5 -140.5t-77.5 -114.5t-115 -77.5t-141 -28.5z" />
    <glyph glyph-name="macron" unicode="&#xaf;" 
d="M115 640h270v-19h-270v19z" />
    <glyph glyph-name="macron" unicode="&#x2c9;" 
d="M115 640h270v-19h-270v19z" />
    <glyph glyph-name="degree" unicode="&#xb0;" horiz-adv-x="430" 
d="M215 444q25 0 47.5 9.5t39 26t26.5 38.5t10 47v2q0 25 -10 47t-26.5 38.5t-39 26t-47.5 9.5t-47.5 -9.5t-39 -26t-26.5 -38.5t-10 -47v-2q0 -25 10 -47t26.5 -38.5t39 -26t47.5 -9.5zM215 426q-29 0 -55 11t-45.5 30t-31 44t-11.5 54v2q0 28 11.5 53.5t31 44.5t45.5 30
t55 11t55 -11t45.5 -30t31 -44.5t11.5 -53.5v-2q0 -29 -11.5 -54t-31 -44t-45.5 -30t-55 -11z" />
    <glyph glyph-name="plusminus" unicode="&#xb1;" horiz-adv-x="560" 
d="M281 -12q-82 0 -146 35.5t-107 92.5l19 13q38 -54 98.5 -87.5t136.5 -33.5q42 0 80.5 12t67 35t45.5 55t17 73v2q0 42 -17 72.5t-47.5 49.5t-72.5 28t-91 9h-78v20h79q46 0 84 11.5t66 33t43.5 51.5t15.5 68v2q0 33 -15 62.5t-41.5 51.5t-63 35t-80.5 13
q-72 0 -125 -34.5t-89 -88.5l-18 12q38 57 97 94t136 37q49 0 89.5 -14.5t70 -39.5t45.5 -57.5t16 -69.5v-2q0 -37 -13 -66.5t-35 -51.5t-51.5 -36t-61.5 -19q35 -5 67.5 -17t57 -32t39.5 -50t15 -71v-2q0 -44 -19 -80t-51 -61.5t-74 -40t-89 -14.5z" />
    <glyph glyph-name="acute" unicode="&#xb4;" 
d="M303 719l25 -12l-107 -112h-14z" />
    <glyph glyph-name="mu" unicode="&#xb5;" horiz-adv-x="842" 
d="M422 8q73 0 133 28t103 74.5t66 108t23 129.5v2q0 67 -23.5 129t-66.5 109t-103.5 75.5t-133.5 28.5q-74 0 -133.5 -28t-102.5 -74.5t-66 -108.5t-23 -129v-2q0 -67 23.5 -129t66.5 -109t103.5 -75.5t133.5 -28.5zM611 43q-40 -26 -87.5 -40.5t-102.5 -14.5
q-80 0 -144 29.5t-109.5 79.5t-70 115t-24.5 137v2q0 72 24.5 137t70 115t109.5 79.5t144 29.5q79 0 143.5 -29.5t110 -79.5t70 -115t24.5 -137v-2q0 -89 -37 -166.5t-105 -128.5l162 -152v-3h-22z" />
    <glyph glyph-name="mu" unicode="&#x3bc;" horiz-adv-x="842" 
d="M422 8q73 0 133 28t103 74.5t66 108t23 129.5v2q0 67 -23.5 129t-66.5 109t-103.5 75.5t-133.5 28.5q-74 0 -133.5 -28t-102.5 -74.5t-66 -108.5t-23 -129v-2q0 -67 23.5 -129t66.5 -109t103.5 -75.5t133.5 -28.5zM611 43q-40 -26 -87.5 -40.5t-102.5 -14.5
q-80 0 -144 29.5t-109.5 79.5t-70 115t-24.5 137v2q0 72 24.5 137t70 115t109.5 79.5t144 29.5q79 0 143.5 -29.5t110 -79.5t70 -115t24.5 -137v-2q0 -89 -37 -166.5t-105 -128.5l162 -152v-3h-22z" />
    <glyph glyph-name="paragraph" unicode="&#xb6;" horiz-adv-x="458" 
d="M332 277h-11q-56 0 -105 14t-85.5 41t-57.5 66t-21 90v2q0 49 19 88t53 66t80.5 41.5t101.5 14.5h48v-700h-22v277z" />
    <glyph glyph-name="periodcentered" unicode="&#xb7;" horiz-adv-x="164" 
d="M64 318h36v-52h-36v52z" />
    <glyph glyph-name="periodcentered" unicode="&#x2219;" horiz-adv-x="164" 
d="M64 318h36v-52h-36v52z" />
    <glyph glyph-name="cedilla" unicode="&#xb8;" 
d="M175 -130l87 135h14l-79 -146z" />
    <glyph glyph-name="ordmasculine" unicode="&#xba;" horiz-adv-x="421" 
d="M212 432q27 0 49.5 10t38.5 27t25 40t9 49v2q0 26 -9.5 49t-26 40.5t-39 27.5t-49.5 10t-49.5 -10t-39 -27t-25.5 -40t-9 -49v-2q0 -26 9.5 -49.5t26 -40.5t39.5 -27t50 -10zM72 333h277v-15h-277v15zM210 414q-32 0 -58.5 11.5t-45 31.5t-29 46t-10.5 55v2
q0 29 10.5 55.5t29.5 46.5t45.5 31.5t58.5 11.5t58.5 -11.5t45 -31t29 -46t10.5 -55.5v-2q0 -29 -10.5 -55t-29.5 -46t-45.5 -32t-58.5 -12z" />
    <glyph glyph-name="guillemotright" unicode="&#xbb;" horiz-adv-x="462" 
d="M60 57l164 198l-164 198l12 10l176 -205v-6l-176 -205zM230 57l164 198l-164 198l12 10l176 -205v-6l-176 -205z" />
    <glyph glyph-name="questiondown" unicode="&#xbf;" horiz-adv-x="499" 
d="M262 -9q-47 0 -86 14.5t-66.5 40t-42.5 59.5t-15 73v2q0 45 18.5 80t49 59t69.5 38t80 18l7 142h10l8 -157l-3 -3q-47 -3 -86.5 -16.5t-68.5 -35.5t-45.5 -53.5t-16.5 -70.5v-2q0 -35 14 -66t38.5 -53.5t59.5 -35.5t77 -13q62 0 112.5 32.5t81.5 84.5l18 -12
q-35 -56 -88 -90.5t-125 -34.5zM263 700h36v-52h-36v52z" />
    <glyph glyph-name="Agrave" unicode="&#xc0;" horiz-adv-x="767" 
d="M277 877l25 12l96 -124h-14zM596 230l-213 446l-213 -446h426zM374 705h19l337 -705h-24l-100 210h-446l-100 -210h-23z" />
    <glyph glyph-name="Aacute" unicode="&#xc1;" horiz-adv-x="767" 
d="M468 889l25 -12l-107 -112h-14zM596 230l-213 446l-213 -446h426zM374 705h19l337 -705h-24l-100 210h-446l-100 -210h-23z" />
    <glyph glyph-name="Acircumflex" unicode="&#xc2;" horiz-adv-x="767" 
d="M377 887h12l106 -122h-17l-95 96l-95 -96h-17zM596 230l-213 446l-213 -446h426zM374 705h19l337 -705h-24l-100 210h-446l-100 -210h-23z" />
    <glyph glyph-name="Atilde" unicode="&#xc3;" horiz-adv-x="767" 
d="M247 774q9 44 28.5 62t43.5 18q15 0 32.5 -9t35 -20t33.5 -20t29 -9q18 0 32 13t25 50l13 -3q-9 -44 -28.5 -62t-43.5 -18q-15 0 -32.5 9t-35 20t-33.5 20t-29 9q-18 0 -32 -13t-25 -50zM596 230l-213 446l-213 -446h426zM374 705h19l337 -705h-24l-100 210h-446
l-100 -210h-23z" />
    <glyph glyph-name="Adieresis" unicode="&#xc4;" horiz-adv-x="767" 
d="M297 836h36v-52h-36v52zM435 836h36v-52h-36v52zM596 230l-213 446l-213 -446h426zM374 705h19l337 -705h-24l-100 210h-446l-100 -210h-23z" />
    <glyph glyph-name="Aring" unicode="&#xc5;" horiz-adv-x="767" 
d="M596 230l-213 446l-213 -446h426zM383 687q16 0 30.5 6t25 16.5t17 24t6.5 29.5v2q0 16 -6.5 29.5t-17 24t-25 16.5t-30.5 6t-30.5 -6t-25 -16.5t-17 -24t-6.5 -29.5v-2q0 -16 6.5 -29.5t17 -24t25 -16.5t30.5 -6zM359 674q-30 8 -51.5 32.5t-21.5 56.5v2q0 19 8 35.5
t21.5 29t31 20t36.5 7.5t36.5 -7.5t31 -20t21.5 -29t8 -35.5v-2q0 -32 -21 -56t-51 -32l322 -675h-24l-100 210h-446l-100 -210h-23z" />
    <glyph glyph-name="AE" unicode="&#xc6;" horiz-adv-x="1014" 
d="M472 230v450h-12l-289 -450h301zM449 700h497v-20h-452v-318h409v-20h-409v-322h457v-20h-479v210h-314l-134 -210h-24z" />
    <glyph glyph-name="Ccedilla" unicode="&#xc7;" horiz-adv-x="726" 
d="M329 -130l76 118q-72 2 -133 31t-105 77.5t-69 113.5t-25 138v2q0 74 25.5 139.5t71.5 115t109 78.5t138 29q49 0 88 -8.5t70.5 -23.5t57.5 -35.5t50 -43.5l-15 -15q-21 20 -45.5 39t-54.5 34t-67.5 24t-84.5 9q-70 0 -129 -27.5t-101.5 -74.5t-66.5 -108.5t-24 -130.5
v-2q0 -69 24.5 -131t67 -108.5t101.5 -74t128 -27.5q43 0 80 9.5t69 25t58.5 36t47.5 43.5l16 -15q-23 -24 -50.5 -45t-60.5 -37.5t-71.5 -26t-83.5 -10.5l-70 -129z" />
    <glyph glyph-name="Egrave" unicode="&#xc8;" horiz-adv-x="661" 
d="M260 877l25 12l96 -124h-14zM104 700h489v-20h-467v-318h424v-20h-424v-322h472v-20h-494v700z" />
    <glyph glyph-name="Eacute" unicode="&#xc9;" horiz-adv-x="661" 
d="M413 889l25 -12l-107 -112h-14zM104 700h489v-20h-467v-318h424v-20h-424v-322h472v-20h-494v700z" />
    <glyph glyph-name="Ecircumflex" unicode="&#xca;" horiz-adv-x="661" 
d="M343 887h12l106 -122h-17l-95 96l-95 -96h-17zM104 700h489v-20h-467v-318h424v-20h-424v-322h472v-20h-494v700z" />
    <glyph glyph-name="Edieresis" unicode="&#xcb;" horiz-adv-x="661" 
d="M262 836h36v-52h-36v52zM400 836h36v-52h-36v52zM104 700h489v-20h-467v-318h424v-20h-424v-322h472v-20h-494v700z" />
    <glyph glyph-name="Igrave" unicode="&#xcc;" horiz-adv-x="244" 
d="M17 877l25 12l96 -124h-14zM111 700h22v-700h-22v700z" />
    <glyph glyph-name="Iacute" unicode="&#xcd;" horiz-adv-x="244" 
d="M204 889l25 -12l-107 -112h-14zM111 700h22v-700h-22v700z" />
    <glyph glyph-name="Icircumflex" unicode="&#xce;" horiz-adv-x="244" 
d="M116 887h12l106 -122h-17l-95 96l-95 -96h-17zM111 700h22v-700h-22v700z" />
    <glyph glyph-name="Idieresis" unicode="&#xcf;" horiz-adv-x="244" 
d="M35 836h36v-52h-36v52zM173 836h36v-52h-36v52zM111 700h22v-700h-22v700z" />
    <glyph glyph-name="Eth" unicode="&#xd0;" horiz-adv-x="804" 
d="M360 20q77 0 141.5 25.5t110.5 70t71.5 104t25.5 128.5v2q0 69 -25.5 129t-72 105t-111 70.5t-142.5 25.5h-202v-318h252v-20h-252v-322h204zM134 342h-75v20h75v338h225q82 0 150.5 -27t118 -74t76.5 -110.5t27 -137.5v-2q0 -74 -27 -137.5t-76.5 -110.5t-118 -74
t-150.5 -27h-225v342z" />
    <glyph glyph-name="Ntilde" unicode="&#xd1;" horiz-adv-x="780" 
d="M254 774q9 44 28.5 62t43.5 18q15 0 32.5 -9t35 -20t33.5 -20t29 -9q18 0 32 13t25 50l13 -3q-9 -44 -28.5 -62t-43.5 -18q-15 0 -32.5 9t-35 20t-33.5 20t-29 9q-18 0 -32 -13t-25 -50zM104 700h19l532 -664v664h21v-700h-19l-532 664v-664h-21v700z" />
    <glyph glyph-name="Ograve" unicode="&#xd2;" horiz-adv-x="842" 
d="M308 877l25 12l96 -124h-14zM422 8q73 0 133 28t103 74.5t66 108t23 129.5v2q0 67 -23.5 129t-66.5 109t-103.5 75.5t-133.5 28.5q-74 0 -133.5 -28t-102.5 -74.5t-66 -108.5t-23 -129v-2q0 -67 23.5 -129t66.5 -109t103.5 -75.5t133.5 -28.5zM421 -12q-80 0 -144 29.5
t-109.5 79.5t-70 115t-24.5 137v2q0 72 24.5 137t70 115t109.5 79.5t144 29.5q79 0 143.5 -29.5t110 -79.5t70 -115t24.5 -137v-2q0 -72 -24.5 -137t-70 -115t-110 -79.5t-143.5 -29.5z" />
    <glyph glyph-name="Oacute" unicode="&#xd3;" horiz-adv-x="842" 
d="M510 889l25 -12l-107 -112h-14zM422 8q73 0 133 28t103 74.5t66 108t23 129.5v2q0 67 -23.5 129t-66.5 109t-103.5 75.5t-133.5 28.5q-74 0 -133.5 -28t-102.5 -74.5t-66 -108.5t-23 -129v-2q0 -67 23.5 -129t66.5 -109t103.5 -75.5t133.5 -28.5zM421 -12
q-80 0 -144 29.5t-109.5 79.5t-70 115t-24.5 137v2q0 72 24.5 137t70 115t109.5 79.5t144 29.5q79 0 143.5 -29.5t110 -79.5t70 -115t24.5 -137v-2q0 -72 -24.5 -137t-70 -115t-110 -79.5t-143.5 -29.5z" />
    <glyph glyph-name="Ocircumflex" unicode="&#xd4;" horiz-adv-x="842" 
d="M415 887h12l106 -122h-17l-95 96l-95 -96h-17zM422 8q73 0 133 28t103 74.5t66 108t23 129.5v2q0 67 -23.5 129t-66.5 109t-103.5 75.5t-133.5 28.5q-74 0 -133.5 -28t-102.5 -74.5t-66 -108.5t-23 -129v-2q0 -67 23.5 -129t66.5 -109t103.5 -75.5t133.5 -28.5zM421 -12
q-80 0 -144 29.5t-109.5 79.5t-70 115t-24.5 137v2q0 72 24.5 137t70 115t109.5 79.5t144 29.5q79 0 143.5 -29.5t110 -79.5t70 -115t24.5 -137v-2q0 -72 -24.5 -137t-70 -115t-110 -79.5t-143.5 -29.5z" />
    <glyph glyph-name="Otilde" unicode="&#xd5;" horiz-adv-x="842" 
d="M285 774q9 44 28.5 62t43.5 18q15 0 32.5 -9t35 -20t33.5 -20t29 -9q18 0 32 13t25 50l13 -3q-9 -44 -28.5 -62t-43.5 -18q-15 0 -32.5 9t-35 20t-33.5 20t-29 9q-18 0 -32 -13t-25 -50zM422 8q73 0 133 28t103 74.5t66 108t23 129.5v2q0 67 -23.5 129t-66.5 109
t-103.5 75.5t-133.5 28.5q-74 0 -133.5 -28t-102.5 -74.5t-66 -108.5t-23 -129v-2q0 -67 23.5 -129t66.5 -109t103.5 -75.5t133.5 -28.5zM421 -12q-80 0 -144 29.5t-109.5 79.5t-70 115t-24.5 137v2q0 72 24.5 137t70 115t109.5 79.5t144 29.5q79 0 143.5 -29.5t110 -79.5
t70 -115t24.5 -137v-2q0 -72 -24.5 -137t-70 -115t-110 -79.5t-143.5 -29.5z" />
    <glyph glyph-name="Odieresis" unicode="&#xd6;" horiz-adv-x="842" 
d="M335 836h36v-52h-36v52zM473 836h36v-52h-36v52zM422 8q73 0 133 28t103 74.5t66 108t23 129.5v2q0 67 -23.5 129t-66.5 109t-103.5 75.5t-133.5 28.5q-74 0 -133.5 -28t-102.5 -74.5t-66 -108.5t-23 -129v-2q0 -67 23.5 -129t66.5 -109t103.5 -75.5t133.5 -28.5z
M421 -12q-80 0 -144 29.5t-109.5 79.5t-70 115t-24.5 137v2q0 72 24.5 137t70 115t109.5 79.5t144 29.5q79 0 143.5 -29.5t110 -79.5t70 -115t24.5 -137v-2q0 -72 -24.5 -137t-70 -115t-110 -79.5t-143.5 -29.5z" />
    <glyph glyph-name="Oslash" unicode="&#xd8;" horiz-adv-x="842" 
d="M422 8q73 0 133 28t103 74.5t66 108t23 129.5v2q0 69 -23 131t-66 109l-461 -494q42 -42 98.5 -65t126.5 -23zM645 604q-42 42 -98.5 65t-126.5 23q-74 0 -133.5 -28t-102.5 -74.5t-66 -108.5t-23 -129v-2q0 -69 23 -131t66 -109zM421 -12q-73 0 -133 25t-105 68l-80 -86
h-26l93 100q-47 51 -72 116.5t-25 137.5v2q0 72 24.5 137t70 115t109.5 79.5t144 29.5q73 0 133 -25t105 -68l80 86h26l-93 -100q47 -51 72 -116.5t25 -137.5v-2q0 -72 -24.5 -137t-70 -115t-110 -79.5t-143.5 -29.5z" />
    <glyph glyph-name="Ugrave" unicode="&#xd9;" horiz-adv-x="752" 
d="M278 877l25 12l96 -124h-14zM376 -11q-63 0 -115 20t-89.5 60t-58 100t-20.5 141v390h22v-390q0 -75 19 -131.5t53.5 -94t83 -56.5t106.5 -19q59 0 107 18.5t82 56t52.5 94t18.5 131.5v391h22v-390q0 -80 -20.5 -140.5t-57.5 -100.5t-89.5 -60t-115.5 -20z" />
    <glyph glyph-name="Uacute" unicode="&#xda;" horiz-adv-x="752" 
d="M449 889l25 -12l-107 -112h-14zM376 -11q-63 0 -115 20t-89.5 60t-58 100t-20.5 141v390h22v-390q0 -75 19 -131.5t53.5 -94t83 -56.5t106.5 -19q59 0 107 18.5t82 56t52.5 94t18.5 131.5v391h22v-390q0 -80 -20.5 -140.5t-57.5 -100.5t-89.5 -60t-115.5 -20z" />
    <glyph glyph-name="Ucircumflex" unicode="&#xdb;" horiz-adv-x="752" 
d="M370 887h12l106 -122h-17l-95 96l-95 -96h-17zM376 -11q-63 0 -115 20t-89.5 60t-58 100t-20.5 141v390h22v-390q0 -75 19 -131.5t53.5 -94t83 -56.5t106.5 -19q59 0 107 18.5t82 56t52.5 94t18.5 131.5v391h22v-390q0 -80 -20.5 -140.5t-57.5 -100.5t-89.5 -60
t-115.5 -20z" />
    <glyph glyph-name="Udieresis" unicode="&#xdc;" horiz-adv-x="752" 
d="M289 826h36v-52h-36v52zM427 826h36v-52h-36v52zM376 -11q-63 0 -115 20t-89.5 60t-58 100t-20.5 141v390h22v-390q0 -75 19 -131.5t53.5 -94t83 -56.5t106.5 -19q59 0 107 18.5t82 56t52.5 94t18.5 131.5v391h22v-390q0 -80 -20.5 -140.5t-57.5 -100.5t-89.5 -60
t-115.5 -20z" />
    <glyph glyph-name="Yacute" unicode="&#xdd;" horiz-adv-x="657" 
d="M421 889l25 -12l-107 -112h-14zM318 293l-296 407h26l282 -388l279 388h26l-295 -407v-293h-22v293z" />
    <glyph glyph-name="Thorn" unicode="&#xde;" horiz-adv-x="668" 
d="M345 160q117 0 184 49t67 143v2q0 90 -65.5 140.5t-183.5 50.5h-222v-385h220zM103 700h22v-135h224q129 0 199 -55.5t70 -154.5v-2q0 -102 -73 -157.5t-200 -55.5h-220v-140h-22v700z" />
    <glyph glyph-name="germandbls" unicode="&#xdf;" horiz-adv-x="571" 
d="M263 17q50 1 92 13t72.5 34t47.5 54.5t17 73.5v2q0 37 -16 66.5t-46 50.5t-72.5 33t-94.5 15v19q38 10 71.5 26t59 38.5t40 52t14.5 67.5v2q0 30 -12 57.5t-33.5 48.5t-51.5 33.5t-65 12.5q-44 0 -76 -16t-53.5 -44t-32 -66.5t-10.5 -84.5v-505h-21v507q0 51 12.5 93
t36.5 72t60.5 47t84.5 17q40 0 73.5 -14t58 -37.5t38 -54.5t13.5 -65v-2q0 -71 -45.5 -118t-119.5 -72q46 -6 84 -20.5t66 -37t43.5 -53t15.5 -67.5v-2q0 -46 -19 -82t-53 -61.5t-79.5 -39t-99.5 -13.5v20z" />
    <glyph glyph-name="agrave" unicode="&#xe0;" horiz-adv-x="566" 
d="M172 707l25 12l96 -124h-14zM239 8q50 0 91 15t70.5 39.5t45.5 56t16 64.5v64q-40 15 -85 23.5t-102 8.5q-42 0 -79 -8.5t-64.5 -26t-43 -43.5t-15.5 -60v-2q0 -33 13.5 -57.5t36.5 -41t53 -24.5t63 -8zM238 -12q-37 0 -70.5 9.5t-59.5 28.5t-41.5 47t-15.5 65v2
q0 39 17.5 69t47.5 50t70.5 30t87.5 10q53 0 101.5 -8.5t86.5 -22.5v42q0 91 -50.5 134.5t-138.5 43.5q-47 0 -87 -11.5t-79 -30.5l-8 18q42 20 84 32t91 12q105 0 160 -55q23 -23 36 -59t13 -83v-311h-21v118q-8 -22 -26 -45t-46 -42t-66 -31t-86 -12z" />
    <glyph glyph-name="aacute" unicode="&#xe1;" horiz-adv-x="566" 
d="M356 719l25 -12l-107 -112h-14zM239 8q50 0 91 15t70.5 39.5t45.5 56t16 64.5v64q-40 15 -85 23.5t-102 8.5q-42 0 -79 -8.5t-64.5 -26t-43 -43.5t-15.5 -60v-2q0 -33 13.5 -57.5t36.5 -41t53 -24.5t63 -8zM238 -12q-37 0 -70.5 9.5t-59.5 28.5t-41.5 47t-15.5 65v2
q0 39 17.5 69t47.5 50t70.5 30t87.5 10q53 0 101.5 -8.5t86.5 -22.5v42q0 91 -50.5 134.5t-138.5 43.5q-47 0 -87 -11.5t-79 -30.5l-8 18q42 20 84 32t91 12q105 0 160 -55q23 -23 36 -59t13 -83v-311h-21v118q-8 -22 -26 -45t-46 -42t-66 -31t-86 -12z" />
    <glyph glyph-name="acircumflex" unicode="&#xe2;" horiz-adv-x="566" 
d="M283 717h12l106 -122h-17l-95 96l-95 -96h-17zM239 8q50 0 91 15t70.5 39.5t45.5 56t16 64.5v64q-40 15 -85 23.5t-102 8.5q-42 0 -79 -8.5t-64.5 -26t-43 -43.5t-15.5 -60v-2q0 -33 13.5 -57.5t36.5 -41t53 -24.5t63 -8zM238 -12q-37 0 -70.5 9.5t-59.5 28.5t-41.5 47
t-15.5 65v2q0 39 17.5 69t47.5 50t70.5 30t87.5 10q53 0 101.5 -8.5t86.5 -22.5v42q0 91 -50.5 134.5t-138.5 43.5q-47 0 -87 -11.5t-79 -30.5l-8 18q42 20 84 32t91 12q105 0 160 -55q23 -23 36 -59t13 -83v-311h-21v118q-8 -22 -26 -45t-46 -42t-66 -31t-86 -12z" />
    <glyph glyph-name="atilde" unicode="&#xe3;" horiz-adv-x="566" 
d="M152 604q9 44 28.5 62t43.5 18q15 0 32.5 -9t35 -20t33.5 -20t29 -9q18 0 32 13t25 50l13 -3q-9 -44 -28.5 -62t-43.5 -18q-15 0 -32.5 9t-35 20t-33.5 20t-29 9q-18 0 -32 -13t-25 -50zM239 8q50 0 91 15t70.5 39.5t45.5 56t16 64.5v64q-40 15 -85 23.5t-102 8.5
q-42 0 -79 -8.5t-64.5 -26t-43 -43.5t-15.5 -60v-2q0 -33 13.5 -57.5t36.5 -41t53 -24.5t63 -8zM238 -12q-37 0 -70.5 9.5t-59.5 28.5t-41.5 47t-15.5 65v2q0 39 17.5 69t47.5 50t70.5 30t87.5 10q53 0 101.5 -8.5t86.5 -22.5v42q0 91 -50.5 134.5t-138.5 43.5
q-47 0 -87 -11.5t-79 -30.5l-8 18q42 20 84 32t91 12q105 0 160 -55q23 -23 36 -59t13 -83v-311h-21v118q-8 -22 -26 -45t-46 -42t-66 -31t-86 -12z" />
    <glyph glyph-name="adieresis" unicode="&#xe4;" horiz-adv-x="566" 
d="M201 666h36v-52h-36v52zM339 666h36v-52h-36v52zM239 8q50 0 91 15t70.5 39.5t45.5 56t16 64.5v64q-40 15 -85 23.5t-102 8.5q-42 0 -79 -8.5t-64.5 -26t-43 -43.5t-15.5 -60v-2q0 -33 13.5 -57.5t36.5 -41t53 -24.5t63 -8zM238 -12q-37 0 -70.5 9.5t-59.5 28.5t-41.5 47
t-15.5 65v2q0 39 17.5 69t47.5 50t70.5 30t87.5 10q53 0 101.5 -8.5t86.5 -22.5v42q0 91 -50.5 134.5t-138.5 43.5q-47 0 -87 -11.5t-79 -30.5l-8 18q42 20 84 32t91 12q105 0 160 -55q23 -23 36 -59t13 -83v-311h-21v118q-8 -22 -26 -45t-46 -42t-66 -31t-86 -12z" />
    <glyph glyph-name="aring" unicode="&#xe5;" horiz-adv-x="566" 
d="M285 610q16 0 30.5 6t25 16.5t17 24t6.5 29.5v2q0 16 -6.5 29.5t-17 24t-25 16.5t-30.5 6t-30.5 -6t-25 -16.5t-17 -24t-6.5 -29.5v-2q0 -16 6.5 -29.5t17 -24t25 -16.5t30.5 -6zM285 594q-19 0 -36.5 7.5t-31 20t-21.5 29t-8 35.5v2q0 19 8 35.5t21.5 29t31 20t36.5 7.5
t36.5 -7.5t31 -20t21.5 -29t8 -35.5v-2q0 -19 -8 -35.5t-21.5 -29t-31 -20t-36.5 -7.5zM239 8q50 0 91 15t70.5 39.5t45.5 56t16 64.5v64q-40 15 -85 23.5t-102 8.5q-42 0 -79 -8.5t-64.5 -26t-43 -43.5t-15.5 -60v-2q0 -33 13.5 -57.5t36.5 -41t53 -24.5t63 -8zM238 -12
q-37 0 -70.5 9.5t-59.5 28.5t-41.5 47t-15.5 65v2q0 39 17.5 69t47.5 50t70.5 30t87.5 10q53 0 101.5 -8.5t86.5 -22.5v42q0 91 -50.5 134.5t-138.5 43.5q-47 0 -87 -11.5t-79 -30.5l-8 18q42 20 84 32t91 12q105 0 160 -55q23 -23 36 -59t13 -83v-311h-21v118
q-8 -22 -26 -45t-46 -42t-66 -31t-86 -12z" />
    <glyph glyph-name="ae" unicode="&#xe6;" horiz-adv-x="980" 
d="M251 8q39 0 74.5 10.5t65.5 28t53 40.5t36 47q-23 51 -23 115q-39 14 -82.5 22t-99.5 8q-42 0 -79 -8.5t-64.5 -26t-43 -43.5t-15.5 -60v-2q0 -33 13.5 -57.5t37 -41t56 -24.5t71.5 -8zM902 263q-2 43 -16 84t-40 73t-64.5 52t-87.5 20q-47 0 -85.5 -17.5t-67 -48
t-45 -72.5t-18.5 -91h424zM250 -12q-42 0 -78.5 9.5t-63.5 28.5t-42 47t-15 65v2q0 39 17.5 69t47.5 50t70.5 30t87.5 10q51 0 98.5 -8t84.5 -22q2 11 3 21.5t3 21.5q-2 91 -52.5 133.5t-137.5 42.5q-47 0 -87 -11.5t-79 -30.5l-8 18q42 20 84 32t91 12q85 0 137 -36.5
t65 -112.5q26 69 84 111t135 42q59 0 102.5 -23.5t72 -61.5t42 -85t13.5 -94v-4h-447q1 -54 19.5 -97.5t49.5 -74t71.5 -47.5t85.5 -17q66 0 112.5 26.5t75.5 65.5l16 -12q-30 -42 -80.5 -71t-124.5 -29q-69 0 -125.5 33t-88.5 93q-13 -22 -35.5 -44.5t-53.5 -40.5
t-69 -29.5t-81 -11.5z" />
    <glyph glyph-name="ccedilla" unicode="&#xe7;" horiz-adv-x="561" 
d="M230 -130l76 118q-53 1 -98 22.5t-78.5 57t-52.5 82t-19 99.5v2q0 53 19.5 100.5t54 83t81.5 56.5t101 21q69 0 115.5 -26.5t84.5 -66.5l-15 -14q-34 36 -78.5 61.5t-107.5 25.5q-50 0 -92.5 -19t-74 -52t-49 -76.5t-17.5 -92.5v-2q0 -49 18 -93t49.5 -77t74.5 -52.5
t92 -19.5q64 0 109.5 27.5t78.5 65.5l15 -14q-35 -40 -81.5 -68.5t-113.5 -30.5l-70 -129z" />
    <glyph glyph-name="egrave" unicode="&#xe8;" horiz-adv-x="583" 
d="M192 707l25 12l96 -124h-14zM505 263q-2 43 -16 84t-40 73t-64.5 52t-87.5 20q-47 0 -85.5 -17.5t-67 -48t-45 -72.5t-18.5 -91h424zM308 -12q-51 0 -96.5 18.5t-79.5 52.5t-54 82.5t-20 108.5v2q0 55 18 103t50 82.5t76 54.5t96 20q59 0 102.5 -23.5t72 -61.5t42 -85
t13.5 -94v-4h-447q1 -54 20 -97.5t49.5 -74.5t71.5 -47.5t87 -16.5q58 0 106.5 29.5t78.5 71.5l17 -12q-32 -47 -84.5 -78t-118.5 -31z" />
    <glyph glyph-name="eacute" unicode="&#xe9;" horiz-adv-x="583" 
d="M361 719l25 -12l-107 -112h-14zM505 263q-2 43 -16 84t-40 73t-64.5 52t-87.5 20q-47 0 -85.5 -17.5t-67 -48t-45 -72.5t-18.5 -91h424zM308 -12q-51 0 -96.5 18.5t-79.5 52.5t-54 82.5t-20 108.5v2q0 55 18 103t50 82.5t76 54.5t96 20q59 0 102.5 -23.5t72 -61.5t42 -85
t13.5 -94v-4h-447q1 -54 20 -97.5t49.5 -74.5t71.5 -47.5t87 -16.5q58 0 106.5 29.5t78.5 71.5l17 -12q-32 -47 -84.5 -78t-118.5 -31z" />
    <glyph glyph-name="ecircumflex" unicode="&#xea;" horiz-adv-x="583" 
d="M290 717h12l106 -122h-17l-95 96l-95 -96h-17zM505 263q-2 43 -16 84t-40 73t-64.5 52t-87.5 20q-47 0 -85.5 -17.5t-67 -48t-45 -72.5t-18.5 -91h424zM308 -12q-51 0 -96.5 18.5t-79.5 52.5t-54 82.5t-20 108.5v2q0 55 18 103t50 82.5t76 54.5t96 20q59 0 102.5 -23.5
t72 -61.5t42 -85t13.5 -94v-4h-447q1 -54 20 -97.5t49.5 -74.5t71.5 -47.5t87 -16.5q58 0 106.5 29.5t78.5 71.5l17 -12q-32 -47 -84.5 -78t-118.5 -31z" />
    <glyph glyph-name="edieresis" unicode="&#xeb;" horiz-adv-x="583" 
d="M209 666h36v-52h-36v52zM347 666h36v-52h-36v52zM505 263q-2 43 -16 84t-40 73t-64.5 52t-87.5 20q-47 0 -85.5 -17.5t-67 -48t-45 -72.5t-18.5 -91h424zM308 -12q-51 0 -96.5 18.5t-79.5 52.5t-54 82.5t-20 108.5v2q0 55 18 103t50 82.5t76 54.5t96 20q59 0 102.5 -23.5
t72 -61.5t42 -85t13.5 -94v-4h-447q1 -54 20 -97.5t49.5 -74.5t71.5 -47.5t87 -16.5q58 0 106.5 29.5t78.5 71.5l17 -12q-32 -47 -84.5 -78t-118.5 -31z" />
    <glyph glyph-name="igrave" unicode="&#xec;" horiz-adv-x="219" 
d="M2 707l25 12l96 -124h-14zM99 500h21v-500h-21v500z" />
    <glyph glyph-name="iacute" unicode="&#xed;" horiz-adv-x="219" 
d="M193 719l25 -12l-107 -112h-14zM99 500h21v-500h-21v500z" />
    <glyph glyph-name="icircumflex" unicode="&#xee;" horiz-adv-x="219" 
d="M103 717h12l106 -122h-17l-95 96l-95 -96h-17zM99 500h21v-500h-21v500z" />
    <glyph glyph-name="idieresis" unicode="&#xef;" horiz-adv-x="219" 
d="M22 666h36v-52h-36v52zM160 666h36v-52h-36v52zM99 500h21v-500h-21v500z" />
    <glyph glyph-name="eth" unicode="&#xf0;" horiz-adv-x="606" 
d="M308 8q46 0 86 18t69.5 49.5t46 74t16.5 92.5v2q0 46 -17.5 85.5t-48 68t-71.5 45t-87 16.5q-47 0 -87.5 -18t-71 -48.5t-48 -71.5t-17.5 -87v-2q0 -46 18 -87t49 -71.5t73 -48t90 -17.5zM308 -12q-53 0 -99 19t-80 52t-53.5 77.5t-19.5 95.5v2q0 51 19.5 95.5t52.5 77.5
t78 52.5t96 19.5q48 0 89.5 -16.5t67.5 -39.5l-154 226l-146 -78l-12 17l146 78l-43 64h26l36 -54l107 58l12 -17l-107 -58l168 -247q9 -13 18.5 -31.5t18 -40.5t14 -45.5t5.5 -45.5v-2q0 -56 -18 -103.5t-49.5 -82t-76 -54t-96.5 -19.5z" />
    <glyph glyph-name="ntilde" unicode="&#xf1;" horiz-adv-x="608" 
d="M174 604q9 44 28.5 62t43.5 18q15 0 32.5 -9t35 -20t33.5 -20t29 -9q18 0 32 13t25 50l13 -3q-9 -44 -28.5 -62t-43.5 -18q-15 0 -32.5 9t-35 20t-33.5 20t-29 9q-18 0 -32 -13t-25 -50zM93 500h21v-137q6 23 21.5 49t40.5 48.5t59.5 37t79.5 14.5q51 0 90 -16.5
t65.5 -46.5t40.5 -72t14 -94v-283h-21v281q0 47 -12 86t-36 66.5t-60 43t-83 15.5q-42 0 -78 -16.5t-63 -46t-42.5 -68.5t-15.5 -84v-277h-21v500z" />
    <glyph glyph-name="ograve" unicode="&#xf2;" horiz-adv-x="634" 
d="M209 707l25 12l96 -124h-14zM318 8q53 0 96.5 19t75 52t48.5 77t17 93v2q0 49 -17.5 93t-49.5 77t-76 52t-96 19q-53 0 -96.5 -19t-75 -52t-48.5 -77t-17 -93v-2q0 -49 17.5 -93t49.5 -77t75.5 -52t96.5 -19zM317 -12q-59 0 -106.5 21t-82 56.5t-53 82.5t-18.5 100v2
q0 52 18.5 99.5t52.5 83.5t82 57.5t107 21.5q58 0 106 -21t82.5 -56.5t53 -83t18.5 -99.5v-2q0 -53 -18.5 -100.5t-52.5 -83.5t-82 -57t-107 -21z" />
    <glyph glyph-name="oacute" unicode="&#xf3;" horiz-adv-x="634" 
d="M400 719l25 -12l-107 -112h-14zM318 8q53 0 96.5 19t75 52t48.5 77t17 93v2q0 49 -17.5 93t-49.5 77t-76 52t-96 19q-53 0 -96.5 -19t-75 -52t-48.5 -77t-17 -93v-2q0 -49 17.5 -93t49.5 -77t75.5 -52t96.5 -19zM317 -12q-59 0 -106.5 21t-82 56.5t-53 82.5t-18.5 100v2
q0 52 18.5 99.5t52.5 83.5t82 57.5t107 21.5q58 0 106 -21t82.5 -56.5t53 -83t18.5 -99.5v-2q0 -53 -18.5 -100.5t-52.5 -83.5t-82 -57t-107 -21z" />
    <glyph glyph-name="ocircumflex" unicode="&#xf4;" horiz-adv-x="634" 
d="M311 717h12l106 -122h-17l-95 96l-95 -96h-17zM318 8q53 0 96.5 19t75 52t48.5 77t17 93v2q0 49 -17.5 93t-49.5 77t-76 52t-96 19q-53 0 -96.5 -19t-75 -52t-48.5 -77t-17 -93v-2q0 -49 17.5 -93t49.5 -77t75.5 -52t96.5 -19zM317 -12q-59 0 -106.5 21t-82 56.5
t-53 82.5t-18.5 100v2q0 52 18.5 99.5t52.5 83.5t82 57.5t107 21.5q58 0 106 -21t82.5 -56.5t53 -83t18.5 -99.5v-2q0 -53 -18.5 -100.5t-52.5 -83.5t-82 -57t-107 -21z" />
    <glyph glyph-name="otilde" unicode="&#xf5;" horiz-adv-x="634" 
d="M181 604q9 44 28.5 62t43.5 18q15 0 32.5 -9t35 -20t33.5 -20t29 -9q18 0 32 13t25 50l13 -3q-9 -44 -28.5 -62t-43.5 -18q-15 0 -32.5 9t-35 20t-33.5 20t-29 9q-18 0 -32 -13t-25 -50zM318 8q53 0 96.5 19t75 52t48.5 77t17 93v2q0 49 -17.5 93t-49.5 77t-76 52t-96 19
q-53 0 -96.5 -19t-75 -52t-48.5 -77t-17 -93v-2q0 -49 17.5 -93t49.5 -77t75.5 -52t96.5 -19zM317 -12q-59 0 -106.5 21t-82 56.5t-53 82.5t-18.5 100v2q0 52 18.5 99.5t52.5 83.5t82 57.5t107 21.5q58 0 106 -21t82.5 -56.5t53 -83t18.5 -99.5v-2q0 -53 -18.5 -100.5
t-52.5 -83.5t-82 -57t-107 -21z" />
    <glyph glyph-name="odieresis" unicode="&#xf6;" horiz-adv-x="634" 
d="M230 666h36v-52h-36v52zM368 666h36v-52h-36v52zM318 8q53 0 96.5 19t75 52t48.5 77t17 93v2q0 49 -17.5 93t-49.5 77t-76 52t-96 19q-53 0 -96.5 -19t-75 -52t-48.5 -77t-17 -93v-2q0 -49 17.5 -93t49.5 -77t75.5 -52t96.5 -19zM317 -12q-59 0 -106.5 21t-82 56.5
t-53 82.5t-18.5 100v2q0 52 18.5 99.5t52.5 83.5t82 57.5t107 21.5q58 0 106 -21t82.5 -56.5t53 -83t18.5 -99.5v-2q0 -53 -18.5 -100.5t-52.5 -83.5t-82 -57t-107 -21z" />
    <glyph glyph-name="oslash" unicode="&#xf8;" horiz-adv-x="634" 
d="M318 8q53 0 96.5 19t75 52t48.5 77t17 93v2q0 48 -17 91.5t-47 75.5l-335 -350q32 -28 72.5 -44t89.5 -16zM478 431q-31 29 -72 45t-90 16q-53 0 -96.5 -19t-75 -52t-48.5 -77t-17 -93v-2q0 -48 17 -91.5t47 -76.5zM317 -12q-54 0 -98 17.5t-77 47.5l-56 -58h-25l67 71
q-34 35 -52.5 82.5t-18.5 99.5v2q0 52 18.5 99.5t52.5 83.5t82 57.5t107 21.5q54 0 98 -17.5t78 -48.5l67 71h25l-79 -83q34 -36 52.5 -82.5t18.5 -99.5v-2q0 -53 -18.5 -100.5t-52.5 -83.5t-82 -57t-107 -21z" />
    <glyph glyph-name="ugrave" unicode="&#xf9;" horiz-adv-x="608" 
d="M221 707l25 12l96 -124h-14zM293 -12q-51 0 -90 16.5t-65.5 46.5t-40.5 72t-14 94v283h21v-281q0 -47 12 -86t36 -66.5t60 -43t83 -15.5q42 0 78 16.5t63 46t42.5 68.5t15.5 84v277h21v-500h-21v137q-6 -23 -21.5 -49t-40.5 -48.5t-59.5 -37t-79.5 -14.5z" />
    <glyph glyph-name="uacute" unicode="&#xfa;" horiz-adv-x="608" 
d="M357 719l25 -12l-107 -112h-14zM293 -12q-51 0 -90 16.5t-65.5 46.5t-40.5 72t-14 94v283h21v-281q0 -47 12 -86t36 -66.5t60 -43t83 -15.5q42 0 78 16.5t63 46t42.5 68.5t15.5 84v277h21v-500h-21v137q-6 -23 -21.5 -49t-40.5 -48.5t-59.5 -37t-79.5 -14.5z" />
    <glyph glyph-name="ucircumflex" unicode="&#xfb;" horiz-adv-x="608" 
d="M293 717h12l106 -122h-17l-95 96l-95 -96h-17zM293 -12q-51 0 -90 16.5t-65.5 46.5t-40.5 72t-14 94v283h21v-281q0 -47 12 -86t36 -66.5t60 -43t83 -15.5q42 0 78 16.5t63 46t42.5 68.5t15.5 84v277h21v-500h-21v137q-6 -23 -21.5 -49t-40.5 -48.5t-59.5 -37
t-79.5 -14.5z" />
    <glyph glyph-name="udieresis" unicode="&#xfc;" horiz-adv-x="608" 
d="M212 661h36v-52h-36v52zM350 661h36v-52h-36v52zM293 -12q-51 0 -90 16.5t-65.5 46.5t-40.5 72t-14 94v283h21v-281q0 -47 12 -86t36 -66.5t60 -43t83 -15.5q42 0 78 16.5t63 46t42.5 68.5t15.5 84v277h21v-500h-21v137q-6 -23 -21.5 -49t-40.5 -48.5t-59.5 -37
t-79.5 -14.5z" />
    <glyph glyph-name="yacute" unicode="&#xfd;" horiz-adv-x="569" 
d="M390 719l25 -12l-107 -112h-14zM138 -163q-26 0 -51.5 8t-42.5 19l10 17q17 -10 40 -17.5t44 -7.5q22 0 39.5 5.5t34 21.5t33.5 44t38 73l-241 500h23l228 -478l215 478h22l-232 -510q-22 -48 -40.5 -78t-37 -46.5t-38.5 -22.5t-44 -6z" />
    <glyph glyph-name="thorn" unicode="&#xfe;" horiz-adv-x="655" 
d="M344 8q51 0 93.5 18.5t72.5 51t46.5 76.5t16.5 94v2q0 50 -16.5 94t-46.5 77t-72.5 52t-93.5 19t-93.5 -19.5t-73 -52.5t-47.5 -76.5t-17 -92.5v-2q0 -48 17 -92t48 -77t73 -52.5t93 -19.5zM93 730h21v-385q11 36 32 66.5t51 53t67 35t81 12.5q54 0 100 -20.5t79.5 -55.5
t52 -83t18.5 -102v-2q0 -54 -18.5 -102t-52 -83t-79.5 -55.5t-100 -20.5q-44 0 -81 12.5t-67 35t-51 53t-32 66.5v-315h-21v890z" />
    <glyph glyph-name="ydieresis" unicode="&#xff;" horiz-adv-x="569" 
d="M204 661h36v-52h-36v52zM342 661h36v-52h-36v52zM138 -163q-26 0 -51.5 8t-42.5 19l10 17q17 -10 40 -17.5t44 -7.5q22 0 39.5 5.5t34 21.5t33.5 44t38 73l-241 500h23l228 -478l215 478h22l-232 -510q-22 -48 -40.5 -78t-37 -46.5t-38.5 -22.5t-44 -6z" />
    <glyph glyph-name="dotlessi" unicode="&#x131;" horiz-adv-x="219" 
d="M99 500h21v-500h-21v500z" />
    <glyph glyph-name="Lslash" unicode="&#x141;" horiz-adv-x="610" 
d="M130 334l-95 -32v20l95 32v346h22v-339l242 81v-20l-242 -81v-321h430v-20h-452v334z" />
    <glyph glyph-name="lslash" unicode="&#x142;" horiz-adv-x="259" 
d="M119 355l-80 -27v20l80 27v355h21v-348l80 27v-20l-80 -27v-362h-21v355z" />
    <glyph glyph-name="OE" unicode="&#x152;" horiz-adv-x="1165" 
d="M623 20v660h-179q-77 0 -141.5 -25.5t-110.5 -70t-71.5 -104t-25.5 -128.5v-2q0 -69 25.5 -129t72 -105t111 -70.5t142.5 -25.5h177zM445 0q-83 0 -151 27t-117.5 74t-76.5 110.5t-27 137.5v2q0 74 27 137.5t76.5 110.5t117.5 74t151 27h652v-20h-452v-318h409v-20h-409
v-322h457v-20h-657z" />
    <glyph glyph-name="oe" unicode="&#x153;" horiz-adv-x="1077" 
d="M318 8q53 0 96.5 19t75 52t48.5 77t17 93v2q0 49 -17.5 93t-49.5 77t-76 52t-96 19q-53 0 -96.5 -19t-75 -52t-48.5 -77t-17 -93v-2q0 -49 17.5 -93t49.5 -77t75.5 -52t96.5 -19zM999 263q-2 43 -16 84t-40 73t-64.5 52t-87.5 20q-47 0 -85.5 -17.5t-67 -48t-45 -72.5
t-18.5 -91h424zM317 -12q-59 0 -106.5 21t-82 56.5t-53 82.5t-18.5 100v2q0 52 18.5 99.5t52.5 83.5t82 57.5t107 21.5q47 0 87.5 -13.5t73 -38.5t54.5 -60t32 -77q9 43 30 78t51 60t67.5 38t79.5 13q59 0 102.5 -23.5t72 -61.5t42 -85t13.5 -94v-4h-447q1 -54 19.5 -97.5
t49.5 -74t71.5 -47.5t85.5 -17q66 0 112.5 26.5t75.5 65.5l16 -12q-30 -42 -80.5 -71t-124.5 -29q-42 0 -80.5 12.5t-70 37t-54 60.5t-31.5 82q-9 -42 -31 -77.5t-54 -61t-73 -39.5t-89 -14z" />
    <glyph glyph-name="Scaron" unicode="&#x160;" horiz-adv-x="642" 
d="M216 887h17l95 -96l95 96h17l-106 -122h-12zM336 -10q-81 0 -150.5 29t-126.5 83l16 16q54 -52 120 -80t143 -28q49 0 89 12.5t68 34.5t43 52.5t15 65.5v2q0 32 -11 57.5t-37 45.5t-70.5 35.5t-110.5 29.5q-65 13 -110.5 29.5t-74 38.5t-41.5 50.5t-13 65.5v2
q0 37 17 69.5t47.5 57t72 38.5t91.5 14q69 0 129.5 -21.5t108.5 -58.5l-14 -18q-47 35 -104 56.5t-122 21.5q-46 0 -83.5 -13t-64.5 -35t-41.5 -50.5t-14.5 -59.5v-2q0 -32 11 -57t37.5 -44.5t69.5 -35t108 -28.5q68 -14 114.5 -31.5t75 -40t40.5 -51t12 -64.5v-2
q0 -39 -16.5 -73t-47.5 -59t-75.5 -39.5t-99.5 -14.5z" />
    <glyph glyph-name="scaron" unicode="&#x161;" horiz-adv-x="490" 
d="M132 717h17l95 -96l95 96h17l-106 -122h-12zM246 -9q-53 0 -106.5 19.5t-95.5 54.5l13 17q42 -35 91.5 -53t98.5 -18q34 0 63 8t50 23t33 35.5t12 44.5v2q0 29 -14 48.5t-37.5 33t-53 22.5t-59.5 18q-38 11 -70.5 22t-55.5 26t-36 35.5t-13 50.5v2q0 26 12.5 49t35 40.5
t55 27.5t71.5 10q42 0 88 -14t86 -42l-12 -18q-37 26 -79.5 40t-82.5 14q-69 0 -110.5 -30.5t-41.5 -75.5v-2q0 -25 12.5 -42.5t34.5 -30.5t50.5 -23t61.5 -19q37 -10 70 -21.5t57.5 -27t38.5 -38t14 -54.5v-2q0 -29 -13.5 -53.5t-38 -42t-57.5 -27t-72 -9.5z" />
    <glyph glyph-name="Ydieresis" unicode="&#x178;" horiz-adv-x="657" 
d="M241 826h36v-52h-36v52zM379 826h36v-52h-36v52zM318 293l-296 407h26l282 -388l279 388h26l-295 -407v-293h-22v293z" />
    <glyph glyph-name="Zcaron" unicode="&#x17d;" horiz-adv-x="678" 
d="M227 887h17l95 -96l95 96h17l-106 -122h-12zM66 13l507 667h-490v20h521v-13l-507 -667h504v-20h-535v13z" />
    <glyph glyph-name="zcaron" unicode="&#x17e;" horiz-adv-x="487" 
d="M139 717h17l95 -96l95 96h17l-106 -122h-12zM36 12l381 469h-369v19h400v-12l-381 -469h383v-19h-414v12z" />
    <glyph glyph-name="florin" unicode="&#x192;" horiz-adv-x="464" 
d="M61 -4q-16 0 -22 1t-17 3v20q9 -2 17 -3t22 -1q35 0 60.5 24t38.5 92l50 268h-111v20h115l27 144q14 76 49.5 108t84.5 32q14 0 26.5 -2t29.5 -7v-21q-32 9 -55 9q-44 0 -73.5 -27.5t-42.5 -101.5l-25 -134h157v-20h-161l-51 -273q-8 -40 -19.5 -65.5t-27 -40t-33.5 -20
t-39 -5.5z" />
    <glyph glyph-name="circumflex" unicode="&#x2c6;" 
d="M244 717h12l106 -122h-17l-95 96l-95 -96h-17z" />
    <glyph glyph-name="caron" unicode="&#x2c7;" 
d="M138 717h17l95 -96l95 96h17l-106 -122h-12z" />
    <glyph glyph-name="breve" unicode="&#x2d8;" 
d="M250 594q-57 0 -88.5 35.5t-36.5 87.5h16q3 -19 11 -37.5t21.5 -33.5t32.5 -24t44 -9t44 9t32.5 23.5t21.5 33t11 38.5h16q-5 -52 -36.5 -87.5t-88.5 -35.5z" />
    <glyph glyph-name="dotaccent" unicode="&#x2d9;" 
d="M234 670h33v-57h-33v57z" />
    <glyph glyph-name="ring" unicode="&#x2da;" 
d="M250 610q16 0 30.5 6t25 16.5t17 24t6.5 29.5v2q0 16 -6.5 29.5t-17 24t-25 16.5t-30.5 6t-30.5 -6t-25 -16.5t-17 -24t-6.5 -29.5v-2q0 -16 6.5 -29.5t17 -24t25 -16.5t30.5 -6zM250 594q-19 0 -36.5 7.5t-31 20t-21.5 29t-8 35.5v2q0 19 8 35.5t21.5 29t31 20t36.5 7.5
t36.5 -7.5t31 -20t21.5 -29t8 -35.5v-2q0 -19 -8 -35.5t-21.5 -29t-31 -20t-36.5 -7.5z" />
    <glyph glyph-name="ogonek" unicode="&#x2db;" 
d="M356 -159q-78 0 -117.5 29t-39.5 80q0 15 4 30.5t10 29.5h15q-5 -17 -7 -32t-2 -25q0 -89 137 -96v-16z" />
    <glyph glyph-name="tilde" unicode="&#x2dc;" 
d="M114 604q9 44 28.5 62t43.5 18q15 0 32.5 -9t35 -20t33.5 -20t29 -9q18 0 32 13t25 50l13 -3q-9 -44 -28.5 -62t-43.5 -18q-15 0 -32.5 9t-35 20t-33.5 20t-29 9q-18 0 -32 -13t-25 -50z" />
    <glyph glyph-name="hungarumlaut" unicode="&#x2dd;" 
d="M224 719l25 -12l-107 -112h-14zM345 719l25 -12l-107 -112h-14z" />
    <glyph glyph-name="Omega" unicode="&#x3a9;" horiz-adv-x="650" 
d="M128 481h-79v19h79v72q0 43 10.5 74.5t30.5 51.5q35 35 95 35q23 0 39 -3.5t31 -10.5v-21q-30 14 -70 14q-54 0 -84.5 -34.5t-30.5 -109.5v-68h183v-19h-183v-481h-21v481zM453 481h-79v19h79v72q0 43 10.5 74.5t30.5 51.5q35 35 95 35q23 0 39 -3.5t31 -10.5v-21
q-30 14 -70 14q-54 0 -84.5 -34.5t-30.5 -109.5v-68h183v-19h-183v-481h-21v481z" />
    <glyph glyph-name="Omega" unicode="&#x2126;" horiz-adv-x="650" 
d="M128 481h-79v19h79v72q0 43 10.5 74.5t30.5 51.5q35 35 95 35q23 0 39 -3.5t31 -10.5v-21q-30 14 -70 14q-54 0 -84.5 -34.5t-30.5 -109.5v-68h183v-19h-183v-481h-21v481zM453 481h-79v19h79v72q0 43 10.5 74.5t30.5 51.5q35 35 95 35q23 0 39 -3.5t31 -10.5v-21
q-30 14 -70 14q-54 0 -84.5 -34.5t-30.5 -109.5v-68h183v-19h-183v-481h-21v481z" />
    <glyph glyph-name="pi" unicode="&#x3c0;" horiz-adv-x="830" 
d="M436 322q57 0 90.5 25t33.5 70v2q0 45 -33 69.5t-88 24.5h-111v-191h108zM309 531h131q64 0 101.5 -29t37.5 -81v-2q0 -56 -40.5 -85.5t-102.5 -29.5h-108v-139h-19v366zM415 5q71 0 134 27t109.5 74t73.5 109.5t27 133.5v2q0 71 -27 133.5t-73.5 109.5t-109.5 74
t-134 27t-134 -27t-109.5 -74t-73.5 -109.5t-27 -133.5v-2q0 -71 27 -133.5t73.5 -109.5t109.5 -74t134 -27zM415 -12q-75 0 -141 28.5t-115 77.5t-77.5 114.5t-28.5 140.5v2q0 75 28.5 140.5t77.5 114.5t115 77.5t141 28.5t141 -28.5t115 -77.5t77.5 -114.5t28.5 -140.5v-2
q0 -75 -28.5 -140.5t-77.5 -114.5t-115 -77.5t-141 -28.5z" />
    <glyph glyph-name="endash" unicode="&#x2013;" horiz-adv-x="538" 
d="M70 307h398v-20h-398v20z" />
    <glyph glyph-name="emdash" unicode="&#x2014;" horiz-adv-x="894" 
d="M70 307h754v-20h-754v20z" />
    <glyph glyph-name="quoteleft" unicode="&#x2018;" horiz-adv-x="164" 
d="M64 616q0 43 8.5 61t28.5 26l7 -13q-17 -8 -22 -24.5t-4 -43.5h18v-52h-36v46z" />
    <glyph glyph-name="quoteright" unicode="&#x2019;" horiz-adv-x="164" 
d="M56 580q17 8 22 24.5t4 43.5h-18v52h36v-46q0 -43 -8.5 -61t-28.5 -26z" />
    <glyph glyph-name="quotesinglbase" unicode="&#x201a;" horiz-adv-x="164" 
d="M56 -68q17 8 22 24.5t4 43.5h-18v52h36v-46q0 -43 -8.5 -61t-28.5 -26z" />
    <glyph glyph-name="quotedblleft" unicode="&#x201c;" horiz-adv-x="254" 
d="M64 616q0 43 8.5 61t28.5 26l7 -13q-17 -8 -22 -24.5t-4 -43.5h18v-52h-36v46zM154 616q0 43 8.5 61t28.5 26l7 -13q-17 -8 -22 -24.5t-4 -43.5h18v-52h-36v46z" />
    <glyph glyph-name="quotedblright" unicode="&#x201d;" horiz-adv-x="254" 
d="M56 580q17 8 22 24.5t4 43.5h-18v52h36v-46q0 -43 -8.5 -61t-28.5 -26zM146 580q17 8 22 24.5t4 43.5h-18v52h36v-46q0 -43 -8.5 -61t-28.5 -26z" />
    <glyph glyph-name="quotedblbase" unicode="&#x201e;" horiz-adv-x="254" 
d="M56 -68q17 8 22 24.5t4 43.5h-18v52h36v-46q0 -43 -8.5 -61t-28.5 -26zM146 -68q17 8 22 24.5t4 43.5h-18v52h36v-46q0 -43 -8.5 -61t-28.5 -26z" />
    <glyph glyph-name="dagger" unicode="&#x2020;" horiz-adv-x="388" 
d="M188 535l-125 -6v22l125 -6l-5 155h22l-5 -155l125 6v-22l-125 6l6 -297h-24z" />
    <glyph glyph-name="daggerdbl" unicode="&#x2021;" horiz-adv-x="388" 
d="M188 155l-125 -6v22l125 -6l-5 185l5 185l-125 -6v22l125 -6l-5 155h22l-5 -155l125 6v-22l-125 6l5 -185l-5 -185l125 6v-22l-125 6l5 -155h-22z" />
    <glyph glyph-name="bullet" unicode="&#x2022;" horiz-adv-x="430" 
d="M216 248q-22 0 -41 8t-33.5 22.5t-23 33.5t-8.5 40v2q0 21 8.5 40t23 33.5t33.5 22.5t41 8t41 -8t33.5 -22.5t23 -33.5t8.5 -40v-2q0 -21 -8.5 -40t-23 -33.5t-33.5 -22.5t-41 -8z" />
    <glyph glyph-name="ellipsis" unicode="&#x2026;" horiz-adv-x="484" 
d="M64 52h36v-52h-36v52zM224 52h36v-52h-36v52zM384 52h36v-52h-36v52z" />
    <glyph glyph-name="perthousand" unicode="&#x2030;" horiz-adv-x="1165" 
d="M586 11q31 0 55.5 13t41.5 35t26 50.5t9 60.5v2q0 31 -9.5 60t-27 51.5t-42 36t-55.5 13.5q-30 0 -54.5 -13t-42 -35t-26.5 -51t-9 -60v-2q0 -32 9.5 -61t27 -51t42.5 -35.5t55 -13.5zM957 11q31 0 55.5 13t41.5 35t26 50.5t9 60.5v2q0 31 -9.5 60t-27 51.5t-42 36
t-55.5 13.5q-30 0 -54.5 -13t-42 -35t-26.5 -51t-9 -60v-2q0 -32 9.5 -61t27 -51t42.5 -35.5t55 -13.5zM210 367q31 0 55.5 13t41.5 35t26 50.5t9 60.5v2q0 31 -9.5 60t-27 51.5t-42 36t-55.5 13.5q-30 0 -54.5 -13t-42 -35t-26.5 -51t-9 -60v-2q0 -32 9.5 -61t27 -51
t42.5 -35.5t55 -13.5zM585 -8q-35 0 -63.5 14.5t-49 39.5t-31.5 57t-11 68v2q0 35 11 67.5t31.5 57t49 39.5t63.5 15t63.5 -15t49 -39.5t31.5 -57t11 -67.5v-2q0 -36 -11 -68t-31.5 -57t-49 -39.5t-63.5 -14.5zM956 -8q-35 0 -63.5 14.5t-49 39.5t-31.5 57t-11 68v2
q0 35 11 67.5t31.5 57t49 39.5t63.5 15t63.5 -15t49 -39.5t31.5 -57t11 -67.5v-2q0 -36 -11 -68t-31.5 -57t-49 -39.5t-63.5 -14.5zM643 700h22l-514 -700h-22zM209 348q-35 0 -63.5 14.5t-49 39.5t-31.5 57t-11 68v2q0 35 11 67.5t31.5 57t49 39.5t63.5 15t63.5 -15
t49 -39.5t31.5 -57t11 -67.5v-2q0 -36 -11 -68t-31.5 -57t-49 -39.5t-63.5 -14.5z" />
    <glyph glyph-name="guilsinglleft" unicode="&#x2039;" horiz-adv-x="292" 
d="M44 252v6l176 205l12 -10l-164 -198l164 -198l-12 -10z" />
    <glyph glyph-name="guilsinglright" unicode="&#x203a;" horiz-adv-x="292" 
d="M60 57l164 198l-164 198l12 10l176 -205v-6l-176 -205z" />
    <glyph glyph-name="fraction" unicode="&#x2044;" horiz-adv-x="403" 
d="M425 759h23l-470 -857h-23z" />
    <glyph glyph-name="fraction" unicode="&#x2215;" horiz-adv-x="403" 
d="M425 759h23l-470 -857h-23z" />
    <glyph glyph-name="trademark" unicode="&#x2122;" horiz-adv-x="656" 
d="M127 685h-110v15h235v-15h-110v-293h-15v293zM320 700h14l129 -186l130 186h14v-308h-15v279l-129 -183h-1l-127 183v-279h-15v308z" />
    <glyph glyph-name="radical" unicode="&#x221a;" horiz-adv-x="869" 
d="M749 730h21v-730h-21v730zM128 481h-79v19h79v72q0 43 10.5 74.5t30.5 51.5q35 35 95 35q23 0 39 -3.5t31 -10.5v-21q-30 14 -70 14q-54 0 -84.5 -34.5t-30.5 -109.5v-68h183v-19h-183v-481h-21v481zM453 481h-79v19h79v72q0 43 10.5 74.5t30.5 51.5q35 35 95 35
q23 0 39 -3.5t31 -10.5v-21q-30 14 -70 14q-54 0 -84.5 -34.5t-30.5 -109.5v-68h183v-19h-183v-481h-21v481z" />
    <glyph glyph-name="approxequal" unicode="&#x2248;" horiz-adv-x="869" 
d="M749 500h21v-500h-21v500zM128 481h-79v19h79v72q0 43 10.5 74.5t30.5 51.5q35 35 95 35q23 0 39 -3.5t31 -10.5v-21q-30 14 -70 14q-54 0 -84.5 -34.5t-30.5 -109.5v-68h183v-19h-183v-481h-21v481zM453 481h-79v19h79v72q0 43 10.5 74.5t30.5 51.5q35 35 95 35
q23 0 39 -3.5t31 -10.5v-21q-30 14 -70 14q-54 0 -84.5 -34.5t-30.5 -109.5v-68h183v-19h-183v-481h-21v481zM744 700h31v-57h-31v57z" />
    <glyph glyph-name="NUL" horiz-adv-x="0" 
 />
    <glyph glyph-name="apple" horiz-adv-x="967" 
d="M417 64q0 -7 -2.5 -12t-9.5 -5q-6 0 -9 5t-3 12q0 16 12 16t12 -16zM352 64h-3q-8 0 -8 8q0 6 7 6q4 0 4 -4v-10zM553 79q4 0 0 -9q-5 9 0 9zM393 182q0 -7 -4 -7h-5q-11 0 -18.5 10t-7.5 22q0 17 14 17h6q3 -1 3.5 -1.5t2.5 -5.5zM716 187q0 -13 -11 -13q-9 0 -17 11.5
t-8 26.5q0 14 11 14q9 0 17 -11.5t8 -27.5zM275 200q-8 0 -11.5 5t-3.5 10q0 9 8 9t9 -5l3 -19h-5zM381 384q-13 0 -13 11t13 11h11v-22h-11zM684 535q0 -13 -11 -13q-9 0 -17 11.5t-8 26.5q0 14 11 14q9 0 17 -11.5t8 -27.5zM272 553q-3 -4 -7 -4t-4 2q0 3 4 3q5 0 7 -1z
M566 553q-3 -4 -7 -4t-4 2q0 3 4 3q5 0 7 -1zM171 548q-8 0 -11.5 5t-3.5 10q0 9 8 9t9 -5l3 -19h-5zM441 -88q0 13 -11 13t-11 -12q0 -13 11 -13t11 12zM800 -88q0 13 -11 13t-11 -12q0 -13 11 -13t11 12zM559 -80l-5 -12h10zM394 -83q0 8 -11 7v-13q11 0 11 6zM525 -82
q0 8 -11 6v-12q11 -1 11 6zM606 -83q0 8 -11 7v-13q11 0 11 6zM309 48q-2 0 -3 1q-3 1 -3 5v20q0 2 3 4q1 1 3 1v2h-18v-2q1 0 3 -1q3 -3 3 -4v-9q-2 0 -4 2l-8 8q-3 1 -1 3q1 1 2 1v2h-14v-2q1 0 3 -1t2.5 -1.5t2.5 -1.5l10 -9l-13 -13q-1 -1 -2 -1.5t-2 -1.5q-2 -1 -3 -2
v-2h17v2q-2 0 -3 1t1 4l8 8q2 2 4 2v-9q0 -2 -3 -5q-2 -1 -3 -1v-2h18v2zM364 48q-2 0 -3 1q-2 2 -2 4v20q0 3 2 5q1 1 3 1v2h-18q-13 0 -13 -9q0 -5 9 -9l-7 -10q-2 -2 -3.5 -2.5t-2.5 -1.5l-2 -1v-2h11l7 12q3 4 7 4v-9q0 -2 -1 -2.5t-2 -1.5t-2 -1v-2h17v2zM425 64
q0 8 -5 13t-15 5t-15 -5t-5 -13t5 -13.5t15 -5.5t15 5.5t5 13.5zM480 81h-15v-2q1 0 2 -1t-1 -4l-6 -9l-6 9q-2 2 0 4q1 1 3 1v2h-15v-2q1 0 3 -1t5 -4l8 -12v-8q0 -2 -3 -5q-1 -1 -2 -1v-2h17v2q-2 0 -3 1q-2 2 -2 5v8l8 12q1 2 2.5 2.5t2.5 1.5t2 1v2zM568 81v-2q1 0 2 -1
t0 -4l-9 -19l-5 10l4 8q1 2 2 2.5t2 1.5l2 2v2h-26l1 -2q1 0 2 -1l2 -2l3 -3l3 -5l-7 -13l-8 18q-2 3 0 5q1 1 2 1v2h-13v-2q1 0 2 -1q3 -3 4 -5l13 -27h1q1 -1 1 0l8 16l9 -16h1l12 27q1 2 2.5 3t2.5 2t2 1v2h-15zM633 48q-2 -1 -3 0q-2 0 -2 5v21q0 3 2 5h3v2h-29l-2 -10
l2 -1q0 2 2 4q2 4 7 4h4q4 0 4 -3v-10h-4q-3 0 -5 2q-1 1 -1 3h-2v-13h2q0 1 1 3q3 3 5 3h4v-11q0 -3 -4 -3h-4q-4 0 -8 4q-2 2 -2 5l-2 -1l2 -11h30v2zM694 48q-2 0 -3 1q-3 1 -3 4v20q0 2 3 4q1 1 3 2v2h-10l-24 -26v18q0 3 3 5q1 1 3 1v2h-15v-2q1 0 3 -1q3 -3 3 -5v-28
h3l25 28v-20q0 -1 -3 -4q-1 -1 -2 -1v-2h14v2zM827 133h-685v-6h685v6zM306 174q-2 0 -4 1t-3.5 2t-2.5 5l-7 35q-1 5 3 7q2 1 4 1l-1 3h-27q-20 0 -20 -15q0 -6 5.5 -10t13.5 -5l-9 -16q-2 -4 -4.5 -5t-4.5 -2q-3 -1 -5 -1l1 -3h19l12 23q1 3 5 3l3 -15q1 -5 -3 -7
q-2 -1 -4 -1l1 -3h29zM413 175q-2 -1 -4 0q-5 2 -6 9l-8 31q-3 9 8 10l-1 3h-30q-9 0 -17 -5.5t-8 -16.5q0 -16 11 -25.5t24 -9.5h32zM522 174q-1 0 -3 1q-5 2 -6 9l-7 32q-1 6 3 8q2 1 5 1l-1 3h-14l-29 -42l-5 30q-1 6 3 8q2 1 4 1l-1 3h-21l1 -3q2 0 4 -1q3 -2 5 -8
l8 -45l3 -1l30 44l6 -30q1 -7 -2 -9q-2 -1 -4 -1l1 -3h21zM620 228h-29l1 -3q2 0 4 -1q5 -2 6 -8l5 -21q2 -10 1 -15t-12 -5q-8 0 -13 6.5t-7 15.5l-4 19q-1 7 3 9q2 1 4 0v3h-24l1 -3q2 0 5 -1q5 -2 6 -8l4 -19q2 -8 8 -17.5t20 -9.5q17 0 19 8t0 16l-5 22q-2 4 -0.5 6
t3.5 3t5 0zM822 174q-2 0 -4 1t-3.5 2t-2.5 5l-7 35q-1 5 3 7q2 1 4 1l-1 3h-45v-10v-7h4q-1 3 1 6q2 7 12 7h4q5 0 6 -6l3 -16h-4q-5 0 -9 4q-2 2 -3 5h-3l5 -23h3q0 2 1 5q2 6 7 6h4l3 -17q1 -5 -3 -7q-2 -1 -4 -1l1 -3h29zM203 217q-3 5 -6.5 9t-11.5 4q-15 0 -14 -23
q-3 10 -8 16.5t-13 6.5q-5 0 -8.5 -3t-3.5 -9l3 -1q0 6 8 6q10 0 15.5 -10.5t8.5 -22.5q2 -7 1 -9.5t-3 -4.5t-4 -1l1 -4h28l-1 4q-2 -1 -4 0q-5 2 -6 9q-5 17 -5 25q0 13 9 13q5 0 7.5 -2.5l4.5 -4.5zM728 192q0 15 -11.5 26.5t-25.5 11.5q-7 0 -15 -5t-8 -17
q0 -16 11.5 -27t25.5 -11q7 0 15 5t8 17zM827 277h-685v-6h685v6zM283 341h-14v65h14v34h-141v-62h41v28h33v-20h-24v-24h24v-21h-33v28h-41v-61h141v33zM458 341h-14v65h14v34h-96q-22 0 -34.5 -11.5t-12.5 -28.5t12.5 -28.5t34.5 -11.5h30v-19h-15v-33h81v33zM648 440h-81
v-34h11l-15 -23l-15 23h10v34h-62v-34h12l37 -46v-19h-14v-33h81v33h-15v20l37 45h14v34zM827 440h-147v-62h36v28h11v-65h-14v-33h81v33h-14v65h11v-28h36v62zM827 481h-685v-6h685v6zM400 521q0 2 -3 5t-10 4q-4 3 -4.5 10.5t-2 16t-6 15t-16.5 6.5q-5 0 -9 -3.5t-4 -6.5
q0 -5 5 -5q4 0 4 6t5 6t6.5 -5t2.5 -12t3.5 -14.5t8.5 -13.5q-11 0 -14.5 -6.5t-8.5 -6.5t-5 4q0 2 1 2.5t1 2.5q0 5 -5 5t-5 -7q0 -5 5 -8.5t10 -3.5q13 0 15 6.5t10 6.5q3 -7 12 -7q4 0 4 3zM202 522q-2 0 -4 1t-3.5 2t-2.5 5l-7 35q-1 5 3 7q2 1 4 1l-1 3h-27
q-20 0 -20 -15q0 -6 5.5 -10t13.5 -5l-9 -16q-2 -4 -4.5 -5t-4.5 -2q-3 -1 -5 -1l1 -3h19l12 23q1 3 5 3l3 -15q1 -5 -3 -7q-2 -1 -4 -1l1 -3h29zM497 522q-2 0 -4 1t-3.5 2t-2.5 5l-7 35q-1 5 3 7q2 1 4 1l-1 3h-45v-10v-7h4q-1 3 1 6q2 7 12 7h4q5 0 6 -6l3 -16h-4
q-5 0 -9 4q-2 2 -3 5h-3l5 -23h3q0 2 1 5q2 6 7 6h4l3 -17q1 -5 -3 -7q-2 -1 -4 -1l1 -3h29zM820 522q-2 0 -4 1t-3.5 2t-2.5 5l-7 35q-1 5 3 7q2 1 4 1l-1 3h-28l1 -3q2 0 4 -1q4 -2 5 -7l3 -15h-24l-3 15q-1 5 3 7q2 1 4 1l-1 3h-29l1 -3q2 0 4 -1q5 -2 6 -7l7 -35
q1 -5 -3 -7q-2 -1 -4 -1l1 -3h29l-1 3q-2 0 -4 1t-3.5 2t-2.5 5l-3 16h24l3 -16q1 -5 -3 -7q-2 -1 -4 -1l1 -3h29zM295 537q0 12 -14 17q5 3 5 9q0 5 -5 10t-16 5q-13 0 -13 -11q0 -6 5 -6q4 0 4 3t-1.5 3.5t-1.5 2.5q0 5 7 5q10 0 10 -12q0 -4 -2 -6q-16 2 -16 -6
q0 -6 8 -6q6 0 11 5q6 -5 6 -15q0 -14 -12 -14t-12 9q0 3 3 3q1 0 2 -1t3 -1q4 0 4 5t-7 5q-9 0 -9 -10q0 -13 16 -13q13 0 19 5.5t6 13.5zM589 537q0 12 -14 17q5 3 5 9q0 5 -5 10t-16 5q-13 0 -13 -11q0 -6 5 -6q4 0 4 3t-1.5 3.5t-1.5 2.5q0 5 7 5q10 0 10 -12
q0 -4 -2 -6q-16 2 -16 -6q0 -6 8 -6q6 0 11 5q6 -5 6 -15q0 -14 -12 -14t-12 9q0 3 3 3q1 0 2 -1t3 -1q4 0 4 5t-7 5q-9 0 -9 -10q0 -13 16 -13q13 0 19 5.5t6 13.5zM696 540q0 15 -11.5 26.5t-25.5 11.5q-7 0 -15 -5t-8 -17q0 -16 11.5 -27t25.5 -11q7 0 15 5t8 17z
M827 624h-685v-6h685v6zM439 664q-2 -1 -3 0q-2 0 -2 5v21q0 3 2 5h3v2h-29l-2 -10l2 -1q0 2 2 4q2 4 7 4h4q4 0 4 -3v-10h-4q-3 0 -5 2q-1 1 -1 3h-2v-13h2q0 1 1 3q3 3 5 3h4v-11q0 -3 -4 -3h-4q-4 0 -8 4q-2 2 -2 5l-2 -1l2 -11h30v2zM504 664q-2 -1 -3 0q-3 0 -3 5v21
q0 3 3 5h3v2h-18v-1v-1h2q3 -3 3 -5v-9h-17v9q0 3 2 5h3v1v1h-17v-2h2q3 -3 3 -5v-21q0 -2 -1 -2.5t-2 -1.5t-2 -1v-2h17v2q-2 0 -3 1q-2 2 -2 4v10h17v-10q0 -5 -3 -5q-1 -1 -2 0v-2h18v2zM559 686v4q0 2 -0.5 4t-0.5 4q-2 -1 -17 -1t-18 1q0 -2 -0.5 -4t-0.5 -4v-4h2
q1 2 3 4q5 5 7 5q3 0 3 -3v-23q0 -5 -3 -5q-1 -1 -2 0v-2h17v2q-2 -1 -3 0q-2 0 -2 5v23q0 3 3 3t8 -5q2 -2 2 -4h2zM284 -101q0 -4 -4 -4t-4 4t4 4t4 -4zM716 -101q0 -4 -4 -4t-4 4t4 4t4 -4zM143 -105h-1l-11 23l-10 -23h-1l-12 34l6 1l7 -23l10 23h1l10 -23l7 22h6z
M199 -105h-1l-11 23l-10 -23h-1l-12 34l6 1l7 -23l10 23h1l10 -23l7 22h6zM255 -105h-1l-11 23l-10 -23h-1l-12 34l6 1l7 -23l10 23h1l10 -23l7 22h6zM323 -76h-12v-28h-6v28h-12v5h30v-5zM351 -90v-14h-6v14l-14 19l6 1l11 -15l9 14h7zM400 -82q0 -12 -17 -12v-10h-6v33
q14 2 18.5 -2t4.5 -9zM447 -87q0 -8 -4.5 -13t-12.5 -5t-12.5 5t-4.5 12q0 8 5 13t13 5q7 0 11.5 -5t4.5 -12zM491 -101q-6 -4 -13 -4q-8 0 -13 4.5t-5 12.5t5.5 13t13.5 5q6 0 12 -4l-2 -5q-4 4 -11 4q-12 0 -12 -13q0 -12 13 -12q2 0 6 2v7h-9v5h15v-15zM527 -104l-8 11
h-5v-11h-6v33q14 2 18.5 -1.5t4.5 -8.5q0 -7 -7 -10l10 -13h-7zM570 -104l-4 8h-14l-3 -8h-6l15 34h2l16 -34h-6zM612 -82q0 -12 -17 -12v-10h-6v33q14 2 18.5 -2t4.5 -9zM650 -104v15h-16v-15h-6v33h6v-13h16v13h6v-33h-6zM689 -90v-14h-6v14l-14 19l6 1l11 -15l9 14h7z
M757 -102q-3 -3 -10 -3q-18 0 -18 17q0 8 5 13t13 5q6 0 11 -3l-2 -5q-3 3 -9 3q-5 0 -8.5 -3.5t-3.5 -8.5q0 -13 13 -13q4 0 10 4zM806 -87q0 -8 -4.5 -13t-12.5 -5t-12.5 5t-4.5 12q0 8 5 13t13 5q7 0 11.5 -5t4.5 -12zM853 -104l-3 20l-10 -21h-2l-10 21l-3 -20h-6l6 34
h1l13 -26l13 26h1l6 -34h-6zM101 0v750h767v-750h-767z" />
  </font>
</defs>
</svg>
