<?xml version="1.0" standalone="no"?>
<!DOCTYPE svg PUBLIC "-//W3C//DTD SVG 1.1//EN" "http://www.w3.org/Graphics/SVG/1.1/DTD/svg11.dtd" >
<svg xmlns="http://www.w3.org/2000/svg" xmlns:xlink="http://www.w3.org/1999/xlink" version="1.1">
<metadata>
Created by FontForge 20161003 at Mon May 27 05:34:49 2019
 By www-data
Copyright (c) 2003 Linotype Library GmbH, www.linotype.com. All rights reserved. This software may not be reproduced, used, displayed, modified, disclosed or transferred without the express written approval of Linotype Library GmbH. Zapfino is a trademark of Heidelberger Druckmaschinen AG, exclusively licensed through Linotype Library GmbH, and may be registered in certain jurisdictions. The typeface is original artwork of Hermann Zapf. The design may be protected in certain jurisdictions.
</metadata>
<defs>
<font id="ZapfinoForteLTPro" horiz-adv-x="230" >
  <font-face 
    font-family="ZapfinoForteLTPro"
    font-weight="400"
    font-style="italic"
    font-stretch="normal"
    units-per-em="1000"
    panose-1="3 3 6 2 4 7 7 7 12 3"
    ascent="800"
    descent="-200"
    x-height="226"
    cap-height="451"
    bbox="-674 -623 1420 780"
    underline-thickness="50"
    underline-position="-175"
    slope="-29"
    unicode-range="U+000D-FB02"
  />
<missing-glyph horiz-adv-x="312" 
d="M140 1v-1h-140v306h1q6 -64 71 -64q26 0 45 18.5t19 45.5q0 22 -20 37q-17 15 -17 27q0 39 48 39q44 0 44 -64q0 -38 -32 -73l-12.5 -12.5t-12.5 -13t-9 -12t-7 -14.5t-2 -15q0 -15 11.5 -43.5t12.5 -38.5q-22 -2 -38.5 -19.5t-16.5 -41.5q0 -23 15.5 -40t39.5 -21z
M159 0v1q25 4 41.5 21t16.5 40t-15.5 40.5t-37.5 21.5q0 66 69 96q72 31 78 97h1v-317h-153zM131 436v-1q-57 -1 -92.5 -27.5t-37.5 -68.5h-1v97h131zM312 340h-1q-7 95 -130 95v1h131v-96z" />
    <glyph glyph-name="IJ" unicode="IJ" horiz-adv-x="514" 
d="M698 445q4 -1 4 -5t-4 -4q-8 1 -18 1q-15 0 -23 -9q-10 -13 -23 -34t-21 -36t-25.5 -47t-22.5 -42q-65 -115 -93 -159q-39 -65 -81 -104q-127 -118 -304 -118q-55 0 -111 23q-10 4 -9 14q0 19 2 55l7 2q22 -84 130 -84q45 0 95.5 18.5t87.5 55.5q59 58 144 202
q87 146 134 251q3 9 -5 9q-79 0 -147 -37q-46 -26 -46 -72q0 -11 2 -19q1 -3 -2 -3q-24 16 -22 50q-125 -221 -194 -319q-16 -22 -40 -28q-37 -10 -75 -8q-2 1 -2 5q16 2 28 17q42 51 127 190t103 194q2 6 2 11q0 11 -27 11q-34 0 -55 -5l-3 1q1 8 6 12q127 3 188 17
q5 -3 5 -8q0 -3 -6 -4q-10 -3 -23 -25q-2 -3 -11 -18t-11 -18q24 28 67 41q91 26 272 26z" />
    <glyph glyph-name="ij" unicode="ij" horiz-adv-x="351" 
d="M446 126q0 -46 -65 -106q-63 -59 -290 -247q-9 -7 -50 -60t-57 -65q-2 -2 -6 -2q-5 0 -9 12.5t-4 18.5q0 9 5 16q16 20 54.5 48t63.5 72q45 82 109 225q-22 -18 -57.5 -30.5t-53.5 -12.5q-39 0 -39 34q0 15 10 39t25 52t19 39q7 16 7 20q0 10 -7 10q-8 0 -29 -6
q-2 0 -3.5 2t0 4t4.5 3q99 33 101 33q10 0 10 -11q0 -6 -4 -14q-28 -43 -50 -90t-22 -68q0 -22 17 -22q46 0 79 33q29 67 50 110q5 12 5 17q0 8 -9 6q-2 0 -16 -3t-19 -4q-3 -1 -4 3q1 4 5 6q26 4 52.5 14.5t43 18t21.5 7.5q8 0 8 -8q0 -5 -6 -17q-78 -146 -131 -234
q-58 -99 -115 -184q14 11 70 55.5t91.5 74t81.5 75.5t72 85q22 32 22 65q0 14 -6 22q-3 6 0.5 6.5t6.5 -2.5q19 -16 19 -40zM260 362q0 -18 -13.5 -34t-30.5 -16t-17 17q0 20 12.5 36t30.5 16t18 -19zM389 355q0 -18 -15 -35t-32 -17q-16 0 -16 18q0 19 13.5 36t31.5 17
t18 -19z" />
    <glyph glyph-name="napostrophe" unicode="&#x22;n" horiz-adv-x="286" 
d="M396 133q-41 -58 -99 -102t-109 -44q-37 0 -37 23q0 22 36 85t43 81q2 5 0 8.5t-6 0.5q-60 -40 -103 -89q-9 -15 -29 -49t-32 -53q-6 -9 -12 -9q-10 0 -18 14t-8 25q0 12 45 68q50 103 65 137q5 7 13 7q15 0 25.5 -9t10.5 -20q0 -2 -7.5 -15t-20.5 -34.5t-22 -38.5
q40 40 96 81.5t71 41.5q5 0 11.5 -6t6.5 -10t-5 -12q-31 -44 -65 -105t-34 -84q0 -17 15 -17q32 0 83.5 42.5t80.5 88.5q3 3 6 1t-1 -7zM291 433q0 -23 -27.5 -61.5t-85.5 -82.5q-8 -2 -8 5q84 60 84 109q0 24 -17 33q-4 3 -4 5t16 16t21 14q3 0 7.5 -3.5t9 -12.5t4.5 -22z
" />
    <glyph glyph-name="fi" unicode="fi" horiz-adv-x="400" 
d="M545 489q0 -3 -1.5 -6t-4.5 -7t-6 -7t-9.5 -9t-10.5 -10q-13 -13 -16 -18q-4 -7 -7 0l1 4q9 11 9 19t-15 18t-36 10q-26 0 -50.5 -13t-47.5 -41.5t-32.5 -42.5t-30.5 -47q-45 -73 -77 -132q57 0 94 1q20 1 50.5 6t42.5 5q4 0 4 -3q0 -2 -6.5 -11t-19.5 -28t-24 -37
q-54 -86 -54 -121q0 -18 19 -18q32 0 83 39t95 92q3 6 6 2l-1 -7q-79 -94 -173 -140q-37 -18 -60 -18q-15 0 -27.5 6.5t-12.5 18.5q0 37 99 188q8 11 8 14q0 4 -6 4q-2 0 -57 0.5t-64 -0.5q-138 -253 -143 -261q-70 -118 -171 -212q-39 -37 -85 -64.5t-75 -27.5
q-88 0 -88 129q0 29 21 69q14 26 33 43q5 4 6 -1q0 -2 -2 -4q-22 -17 -22 -64q0 -50 23 -96.5t70 -46.5q42 0 87 47q64 68 149 224q22 40 67.5 130t70.5 133q-43 -1 -70 -1q-17 0 -23 6q-2 2 -2 3q0 2 7 2q61 -1 94 -1q40 69 57 94q86 128 203 187q54 28 89 28q15 0 28.5 -7
t13.5 -20zM494 364q0 -19 -16 -36t-35 -17q-17 0 -17 17q0 20 15 37.5t34 17.5t19 -19z" />
    <glyph glyph-name="fl" unicode="fl" horiz-adv-x="408" 
d="M752 646q0 -31 -44 -105q-115 -195 -299 -296q-4 -7 -17.5 -31.5t-19.5 -35t-17.5 -32.5t-17 -34.5t-12.5 -29t-10 -28.5t-3 -21q0 -31 25 -31q29 0 73 29q45 29 102 101q6 6 7 4t-2 -8q-44 -58 -104 -102t-115 -44q-49 0 -49 45q0 13 4.5 28t16.5 38t19.5 36.5t29 47.5
t29.5 47q-61 -22 -141 -27q-108 -203 -148 -269q-82 -137 -152 -217q-158 -180 -293 -180q-68 0 -111.5 45t-43.5 116q0 36 10 67q5 9 5 1v-4q-5 -22 -5 -41q0 -68 52.5 -100t122.5 -32q91 0 149.5 37t104.5 108q38 59 126 235q74 145 122 233q-27 -1 -71 -1q-11 0 -22 3.5
t-11 6.5q0 2 5 2h106q71 137 136 209q58 64 121 107.5t101 43.5q12 0 16 -5t4 -18q0 -25 3 -30q46 56 87 86q84 64 113 64q18 0 18 -18zM704 620q0 16 -11 16q-14 0 -39.5 -24.5t-48.5 -56.5q-94 -134 -187 -295q92 47 189 159.5t97 200.5zM527 505l-7 6q-18 13 -49 13
q-55 0 -86 -28t-73 -101q-27 -47 -100 -187q83 3 143 27q90 153 172 270z" />
    <glyph glyph-name="f_f" unicode="ff" horiz-adv-x="372" 
d="M736 476q0 -9 -3 -21q-2 -2 -4 0q0 17 -22.5 31.5t-57.5 14.5t-58.5 -6.5t-52 -28t-58.5 -64.5t-67 -113l-41 -82q14 0 48 0.5t44 0.5q9 0 4 -5q-3 -3 -6 -3q-14 -1 -48 -2t-46 -1q-82 -168 -160 -283q-35 -53 -79.5 -98t-81.5 -63q-64 -31 -105 -31q-38 0 -57 17
q-78 -85 -166 -85q-41 0 -67.5 25t-30.5 63q0 5 3 6q2 -2 3 -5q5 -24 31 -44.5t65 -20.5q93 0 157 69l-7 14q0 8 14.5 27.5t19.5 18.5q2 -12 7 -21q29 40 67 114q26 51 75 156t66 139l-55 -1q-8 0 -8 3t8 6.5t14 3.5h46q42 76 74.5 119.5t76.5 76.5q72 55 115 55
q37 0 37 -34q0 -1 -7 -29q-2 -7 -4 -2q-22 34 -65 34q-29 0 -56 -20q-16 -13 -33 -38.5t-27 -47t-27 -60.5t-25 -55q34 0 126 2q46 87 97 150.5t123 115.5q85 61 147 61q57 0 57 -59zM307 198l-124 -1q-107 -214 -155 -288q-20 -32 -107 -132q20 -32 66 -32q31 0 56 15
q52 32 123 163q24 44 70.5 137.5t70.5 137.5z" />
    <glyph glyph-name=".notdef" horiz-adv-x="312" 
d="M140 1v-1h-140v306h1q6 -64 71 -64q26 0 45 18.5t19 45.5q0 22 -20 37q-17 15 -17 27q0 39 48 39q44 0 44 -64q0 -38 -32 -73l-12.5 -12.5t-12.5 -13t-9 -12t-7 -14.5t-2 -15q0 -15 11.5 -43.5t12.5 -38.5q-22 -2 -38.5 -19.5t-16.5 -41.5q0 -23 15.5 -40t39.5 -21z
M159 0v1q25 4 41.5 21t16.5 40t-15.5 40.5t-37.5 21.5q0 66 69 96q72 31 78 97h1v-317h-153zM131 436v-1q-57 -1 -92.5 -27.5t-37.5 -68.5h-1v97h131zM312 340h-1q-7 95 -130 95v1h131v-96z" />
    <glyph glyph-name=".null" horiz-adv-x="500" 
 />
    <glyph glyph-name=".null" horiz-adv-x="500" 
 />
    <glyph glyph-name="nonmarkingreturn" horiz-adv-x="333" 
 />
    <glyph glyph-name="CR" unicode="&#xd;" horiz-adv-x="0" 
 />
    <glyph glyph-name="space" unicode=" " horiz-adv-x="200" 
 />
    <glyph glyph-name="exclam" unicode="!" horiz-adv-x="250" 
d="M367 399q4 -1 3 -4.5t-4 -3.5q-10 0 -20 -8q-37 -35 -91.5 -118t-95.5 -167q-1 -4 -4.5 -3t-3.5 5q61 168 114 276q10 19 16.5 25t22.5 6q42 0 63 -8zM167 30q0 -15 -12 -28t-27 -13q-10 0 -18 8t-8 18q0 18 9.5 31t26.5 13q12 0 20.5 -9t8.5 -20z" />
    <glyph glyph-name="quotedbl" unicode="&#x22;" horiz-adv-x="327" 
d="M447 453q0 -4 -3 -7q-139 -175 -176 -226q-4 -6 -10 -2q-2 3 1 7q23 37 66 115t72 123q5 8 25 8q6 0 15.5 -5t9.5 -13zM360 460q0 -4 -3 -7q-26 -36 -86 -109t-95 -121q-3 -6 -9 -2q-4 3 0 10q40 56 87.5 142t53.5 97q5 9 24 9q8 0 18 -5t10 -14z" />
    <glyph glyph-name="numbersign" unicode="#" horiz-adv-x="329" 
d="M409 413q-33 -44 -65 -92q33 2 48 3q4 0 4 -3q-13 -11 -36 -38q-7 -7 -13 -7q-20 0 -31 -1q-2 -3 -53 -88q54 0 54 -15q0 -3 -6 -12t-14 -20t-10 -15q-9 8 -58 8q-24 -42 -58 -110q-4 -8 -8 -8q-8 0 -8 11q0 5 4 10q20 32 59 97q-33 0 -62 -4q-34 -58 -61 -114
q-5 -12 -12 -12q-6 0 -6 13q0 4 3 9l63 102q-9 -1 -16.5 -2.5t-11.5 -2t-6.5 -1t-4.5 -0.5q-4 0 -4 3q26 11 34 40q4 12 11 13q24 3 33 4q10 18 26.5 44t27.5 44q-23 -2 -43 -5q-4 0 -4 3q0 6 27 44q4 6 14 6q5 0 17 0.5t19 0.5q8 13 22.5 36.5t21.5 35.5q14 21 20 11
q3 -4 -1 -8q-28 -38 -52 -75q20 1 62 3q12 19 26.5 41.5t23.5 36.5t12 19q6 11 13.5 9t-1.5 -14zM305 275q-15 -1 -61 -4q-24 -37 -54 -88q20 2 62 4q11 17 26.5 44t26.5 44z" />
    <glyph glyph-name="dollar" unicode="$" horiz-adv-x="372" 
d="M433 498q-41 -63 -54 -85q11 -14 13 -42q0 -4 -3.5 -9.5t-9.5 -12t-8 -9.5q-9 -13 -10 -13q-5 0 -5 6q0 17 -6 32q-11 -17 -33 -53.5t-34 -56.5q25 -8 38.5 -13.5t29 -15.5t22 -24t6.5 -34q0 -68 -81.5 -136.5t-175.5 -68.5q-30 -61 -64 -156q-3 -9 -7 -2l-3 9
q0 33 61 151q-68 8 -74 59q0 25 -2 41q0 5 2 6q3 -1 5 -4q4 -23 31.5 -42t57.5 -23q51 94 119 211q-22 8 -65 21q-28 8 -28 32q0 35 52.5 105.5t111.5 70.5q37 0 53 -20q46 75 52 80q9 7 9 -4zM344 375l-1 2q-21 29 -59 29q-35 0 -58.5 -24t-23.5 -58q0 -43 72 -66
q13 22 35.5 59.5zM323 134q0 31 -17 48t-49 28q-62 -105 -116 -210q14 -2 38 -2q63 0 103.5 34.5t40.5 101.5z" />
    <glyph glyph-name="percent" unicode="%" horiz-adv-x="619" 
d="M618 184q-10 -1 -30.5 -2t-30.5 -2t-7 -7q3 -4 3 -18q0 -51 -44 -103.5t-91 -52.5q-22 0 -36 10t-14 29q0 60 75 117q-74 -40 -173 -110.5t-173 -136.5q-2 0 -2 2q0 10 -12 22q0 2 6 10q149 134 243 232.5t125 144.5t31 68q0 29 -44 29q-23 0 -71 -8t-55 -9q-11 0 -15 9
q-23 -11 -48 -52t-25 -86q0 -29 20 -29q30 0 56 42t26 88q0 15 -6 20q0 5 4 5l24 -5q12 -4 12 -27q0 -37 -43 -86t-90 -49q-22 0 -36.5 12.5t-14.5 34.5q0 35 33 78t86 57q-8 18 -8 43q0 3 3 3t4 -3q6 -8 18 -8q5 0 54.5 5t68.5 5q65 0 65 -50q0 -23 -20.5 -58.5t-99.5 -128
t-220 -239.5q219 158 317 205q2 -2 2 -6q-30 -12 -49 -54.5t-19 -76.5t25 -34t48.5 35t23.5 93q0 31 -21 40q-4 2 -4 5t4 5q14 6 23 12q0 1 3 1q4 0 7 -3q19 -13 92 -13q3 0 0 -5z" />
    <glyph glyph-name="ampersand" unicode="&#x26;" horiz-adv-x="769" 
d="M774 68q-22 -20 -65 -42.5t-80 -22.5q-41 0 -76 27q-59 -30 -132 -30q-60 0 -104.5 28.5t-44.5 85.5q0 71 69 123q27 21 82.5 53t69.5 41q12 49 35 98q-168 0 -284.5 -105t-116.5 -252q0 -95 74 -144t178 -49q145 0 238 77q7 6 8 2q0 -1 -2 -5q-19 -30 -90.5 -57
t-159.5 -27q-76 0 -140.5 22t-109.5 74t-45 126q0 95 66 175.5t170 125.5t217 45q30 62 59 62q19 0 19 -23q0 -20 -12 -44q64 -13 102 -49t38 -97q0 -63 -41.5 -126.5t-99.5 -103.5q28 -22 83 -22q52 0 90 38q4 2 5 0.5t0 -4.5zM593 452q0 13 -13 13q-17 0 -34 -28
q23 0 43 -4q4 10 4 19zM586 425q-18 4 -45 4q-28 -47 -39 -95q62 42 84 91zM710 276q0 56 -31 96t-86 51q-27 -57 -97 -122q-4 -17 -4 -41q0 -63 27 -115.5t71 -84.5q60 42 90 99t30 117zM545 36q-63 57 -63 189q0 41 6 70q-62 -50 -95 -83q-63 -63 -63 -123q0 -41 27 -61.5
t68 -20.5q68 0 120 29z" />
    <glyph glyph-name="quotesingle" unicode="'" horiz-adv-x="218" 
d="M337 457q0 -4 -74 -101q-3 -4 -20.5 -26.5t-30 -40.5t-20.5 -32q-2 -4 -6 -4t-5.5 3t0.5 7q11 21 28.5 56.5t23.5 47.5l25 50l24 48q5 9 23 9q32 0 32 -17z" />
    <glyph glyph-name="parenleft" unicode="(" horiz-adv-x="366" 
d="M471 503q-62 -26 -138 -115t-128.5 -193.5t-52.5 -171.5q0 -51 24 -71q4 -2 1.5 -5.5t-5.5 -0.5q-62 34 -62 106q0 59 47 147.5t132.5 177t178.5 133.5q5 0 6 -3q0 -3 -3 -4z" />
    <glyph glyph-name="parenright" unicode=")" horiz-adv-x="406" 
d="M106 -51q62 26 138.5 114t129.5 192t53 171q0 53 -26 74q-4 2 -1.5 5.5t5.5 0.5q63 -40 63 -112q0 -58 -46 -145t-131.5 -175t-181.5 -132q-5 0 -6 3q0 3 3 4z" />
    <glyph glyph-name="asterisk" unicode="*" horiz-adv-x="254" 
d="M350 333v-4q0 -8 -5.5 -14t-12.5 -5q-7 0 -27.5 4.5t-30.5 4.5q-8 0 -2 -6q5 -6 25 -22t22 -21q5 -12 -3.5 -19t-19.5 -5t-13 10q0 1 -3.5 11.5t-8 22.5t-8.5 20q-3 6 -7 -3q-10 -19 -17 -55q-2 -15 -20 -15q-22 0 -22 12q0 6 5 14q2 3 23.5 24t22.5 23q6 8 -3 6
q-12 -3 -58 -22q-8 -2 -12.5 4t-4.5 13q0 15 13 17q5 1 30 -1.5t32 -2.5t4 5t-38 31q-12 10 -6 20t16 10q13 0 16 -11q4 -14 19 -44q3 -6 6 0q1 2 21 58q5 13 21 13q13 0 16 -12t-3 -16q-45 -42 -47 -45q-3 -4 -1.5 -5.5t7.5 -0.5q7 2 28.5 9t26.5 8q8 1 13.5 -3t5.5 -8z
" />
    <glyph glyph-name="plus" unicode="+" horiz-adv-x="400" 
d="M351 112q-39 9 -104 9q-33 -58 -52 -109l-23 17q1 1 21.5 37.5t31.5 55.5q-55 0 -91 -2l-8 25q6 -1 109 -3q18 32 51 90l29 -6q-38 -49 -57 -84q65 0 92 -9z" />
    <glyph glyph-name="comma" unicode="," horiz-adv-x="210" 
d="M172 62q0 -10 -8 -18q-60 -58 -172 -170q-2 -3 -7.5 -2.5t-5.5 4.5q0 5 3 8q79 90 160 209q7 12 13 12q17 0 17 -43z" />
    <glyph glyph-name="hyphen" unicode="-" horiz-adv-x="316" 
d="M316 136q0 -11 -12 -11q-13 0 -68.5 -0.5t-84.5 -0.5q-11 0 -11 9q0 3 4 7.5t10 4.5q7 0 27.5 -0.5t32.5 -0.5q22 0 54 1t39 1q9 0 9 -10z" />
    <glyph glyph-name="period" unicode="." 
d="M170 51q0 -14 -18.5 -36t-35.5 -22q-23 0 -23 20q0 22 16.5 40t36.5 18q24 0 24 -20z" />
    <glyph glyph-name="slash" unicode="/" horiz-adv-x="368" 
d="M440 548l-324 -704q-2 -4 -7 -6.5t-9 -1t-4 6.5q0 7 81.5 183.5t160 344t82.5 174.5q3 10 14 10q5 -2 6 -7z" />
    <glyph glyph-name="zero" unicode="0" horiz-adv-x="439" 
d="M495 359q0 -49 -28 -114.5t-71.5 -123.5t-101.5 -98.5t-112 -40.5q-38 0 -67 20.5t-29 71.5q0 112 128 250q37 41 90 62q86 34 139 62q19 -3 35.5 -23.5t16.5 -65.5zM430 327q0 77 -51 77q-19 0 -51 -17t-64 -57q-54 -65 -79.5 -130t-25.5 -107q0 -39 16.5 -62.5
t47.5 -23.5q75 0 141 97.5t66 222.5z" />
    <glyph glyph-name="one" unicode="1" horiz-adv-x="270" 
d="M396 441q-122 -162 -232 -373q-17 -33 -17 -57q0 -19 14 -37q7 -4 1 -9q-3 -2 -5 1q-6 8 -24 29.5t-27.5 35t-9.5 21.5q0 19 11 41q57 111 190 293l1 3l-1 2q-3 0 -4 -2q-15 -9 -179 -110q-4 8 -4 17q121 62 230 137q36 6 54 11z" />
    <glyph glyph-name="two" unicode="2" horiz-adv-x="417" 
d="M458 374q0 -52 -73.5 -130.5t-162.5 -142.5q44 -3 97.5 -14.5t75.5 -22.5q12 -5 12 -16q-1 -10 -8.5 -29t-13.5 -26l-2 -1q-62 47 -214 66q-77 -59 -127 -59q-44 0 -44 24q0 29 45 55t106 26q34 0 60 -2q71 52 124.5 116.5t53.5 112.5q0 34 -18 52t-47 18q-67 0 -124 -69
q-3 -4 -6 -1.5t-1 6.5q90 108 174 108q19 0 37.5 -4t37 -21.5t18.5 -45.5zM159 61q-24 3 -56 3q-87 0 -87 -23q0 -8 9.5 -15t25.5 -7q55 0 108 42z" />
    <glyph glyph-name="three" unicode="3" horiz-adv-x="350" 
d="M427 382q0 -22 -17.5 -39.5t-57.5 -41.5q-28 -17 -39.5 -24.5t-19.5 -16t-8 -17.5q0 -13 31 -49q27 -32 27 -60q0 -54 -76 -109.5t-171 -55.5q-96 0 -96 68q0 20 13 49q3 5 5 1q-1 -4 -1 -13q0 -30 38.5 -53t91.5 -23q58 0 95 23.5t37 71.5q0 35 -39 82q-19 23 -19 41
q0 5 4.5 11.5t16 14.5t21 14l28.5 18t31 19q19 12 27.5 23t8.5 30q0 27 -22 40t-53 13q-33 0 -63 -26q-7 2 -4 10q51 38 82 55q21 7 42 7q29 0 58 -16t29 -47z" />
    <glyph glyph-name="four" unicode="4" horiz-adv-x="422" 
d="M495 389q-30 -18 -48.5 -36t-38.5 -49q-24 -37 -77 -137q88 0 128 -7q10 -2 10 -14q0 -9 -6.5 -27t-13.5 -25q-1 -2 -3.5 -1t-2.5 3q3 6 3 13q0 12 -15 17q-47 15 -114 15q-56 -102 -56 -146q0 -9 2 -13q0 -4 -6 -4q-3 6 -20.5 24t-19.5 21q-7 8 -7 18q0 9 5 19
q14 28 43 77q-71 0 -188 -25q-3 0 -3 4q3 13 3 32q0 7 10 9q9 2 30 13q145 84 207 150q21 22 21 55q0 17 -7 33q0 5 23.5 18t29.5 13q12 -4 12 -28q0 -31 -63 -90q-71 -68 -193 -149q-4 -2 -3 -4t5 -2q57 1 130 1q73 123 127 170q14 13 90 58q4 1 5.5 -1t0.5 -5z" />
    <glyph glyph-name="five" unicode="5" horiz-adv-x="297" 
d="M463 511q0 -63 -42.5 -99.5t-109.5 -36.5q-35 0 -78 8q-44 -35 -44 -66q0 -14 12 -26t43 -30q47 -28 47 -67q0 -48 -49 -109.5t-114.5 -104t-111.5 -42.5q-22 0 -33 14.5t-11 38.5q0 11 5 14q15 -25 60 -25q76 0 135 45.5t59 121.5q0 35 -29 59q-10 8 -22.5 17t-18.5 13
t-10.5 11t-4.5 16q14 59 106 175q4 6 9 6q1 0 4.5 -1t10.5 -2t16 -2t22 -2t27 -1q116 0 116 76q0 10 -5 20q3 2 8 -1q3 -9 3 -20z" />
    <glyph glyph-name="six" unicode="6" horiz-adv-x="344" 
d="M540 431q0 -8 -3 -17l-4 -1q1 4 1 11q0 24 -64 24q-52 0 -105.5 -30t-94.5 -75t-71.5 -94.5t-44.5 -93.5q20 25 57 48t72 23q27 0 46 -12t19 -38q0 -74 -63 -130t-132 -56q-84 0 -84 64q0 78 92 194q68 86 167.5 159t157.5 73q28 0 41 -11t13 -38zM292 157q0 49 -40 49
q-37 0 -79 -45.5t-42 -109.5q0 -23 11 -36t30 -13q38 0 79 47.5t41 107.5z" />
    <glyph glyph-name="seven" unicode="7" horiz-adv-x="343" 
d="M512 447q0 -3 -3 -6q-26 -24 -51 -36q-91 -97 -201 -209q-87 -89 -87 -150q0 -36 20 -47l-2 -4q-39 -7 -56 -18q-6 0 -15 13.5t-9 26.5q0 30 27 66.5t127 133.5q92 91 176 181q-46 -24 -74 -24q-12 0 -61.5 5.5t-69.5 5.5q-42 0 -65 -34q-20 -28 -33 -77l-8 7
q21 71 62 123q36 45 77 45q10 0 83 -18t90 -18q11 0 23.5 14t19.5 32q7 0 14.5 -2.5t11.5 -5t4 -4.5z" />
    <glyph glyph-name="eight" unicode="8" horiz-adv-x="336" 
d="M424 402q0 -30 -24 -54.5t-112 -77.5q1 -2 9.5 -12.5t11 -14t9 -13.5t8.5 -16.5t4.5 -16t2.5 -18.5q0 -20 -12 -44q-28 -55 -87.5 -100.5t-103.5 -45.5q-33 0 -58 19.5t-25 51.5q0 23 12.5 46t26.5 39t44 37t45.5 30t50.5 29q-18 26 -18 50q0 43 56.5 99t110.5 56
q21 0 35 -13t14 -31zM369 379q0 17 -9.5 29.5t-26.5 12.5q-24 0 -49 -27t-25 -58q0 -28 24 -59q51 31 68.5 54t17.5 48zM282 129q0 6 -1 11.5t-1.5 10t-3 10.5t-4 9.5t-5.5 10.5t-5.5 9.5t-7 10.5t-7 10t-8 11.5t-8.5 11.5q-80 -46 -100 -66q-31 -30 -31 -72q0 -30 21.5 -51
t49.5 -21q55 0 95 57q16 23 16 48z" />
    <glyph glyph-name="nine" unicode="9" horiz-adv-x="344" 
d="M428 375q0 -55 -62.5 -147t-162.5 -170q-43 -34 -92.5 -56t-84.5 -22q-20 0 -38 12.5t-25 33.5l3 4q21 -28 81 -28q148 0 278 257q-51 -54 -121 -54q-29 0 -49.5 13.5t-20.5 41.5q0 59 71.5 120.5t141.5 61.5q41 0 61 -21t20 -46zM366 390q0 39 -31 39q-51 0 -94 -55
t-43 -107q0 -19 9.5 -31t26.5 -12q54 0 93 53t39 113z" />
    <glyph glyph-name="colon" unicode=":" horiz-adv-x="239" 
d="M260 221q0 -13 -17 -33.5t-33 -20.5q-21 0 -21 18q0 21 15.5 37.5t33.5 16.5q22 0 22 -18zM166 48q0 -13 -17 -33.5t-33 -20.5q-21 0 -21 18q0 21 15.5 37.5t33.5 16.5q22 0 22 -18z" />
    <glyph glyph-name="semicolon" unicode=";" horiz-adv-x="231" 
d="M260 221q0 -13 -17 -33.5t-33 -20.5q-21 0 -21 18q0 21 15.5 37.5t33.5 16.5q22 0 22 -18zM177 62q0 -10 -8 -18q-60 -58 -172 -170q-2 -3 -7.5 -2.5t-5.5 4.5q0 5 3 8q79 90 160 209q7 12 13 12q17 0 17 -43z" />
    <glyph glyph-name="less" unicode="&#x3c;" horiz-adv-x="400" 
d="M406 222q-176 -54 -244 -73q107 -36 172 -73l-13 -24q-30 19 -95.5 49t-105.5 43l3 13q18 3 121 37t159 56z" />
    <glyph glyph-name="equal" unicode="=" horiz-adv-x="400" 
d="M381 193l-9 -23q-20 2 -94.5 3t-108.5 0l9 24q178 -6 203 -4zM355 126l-9 -23q-23 2 -101 3t-113 0l14 24q131 -8 209 -4z" />
    <glyph glyph-name="greater" unicode="&#x3e;" horiz-adv-x="400" 
d="M402 157l-4 -13q-18 -3 -121.5 -37.5t-161.5 -56.5l-4 28q122 38 249 74q-76 18 -177 59l18 18q102 -45 201 -72z" />
    <glyph glyph-name="question" unicode="?" horiz-adv-x="284" 
d="M429 350q0 -42 -30 -76.5t-98 -65.5q-79 -37 -108 -62.5t-29 -54.5q0 -24 36 -44q16 -9 16 -23q0 -7 -15 -22t-26 -15q-8 0 -18.5 13t-10.5 20q0 4 5 22t5 29q0 50 -23 89q2 28 98 75q96 45 124 68q39 34 40 72q0 62 -68 62q-40 0 -75.5 -26t-55.5 -68q-4 -4 -4 2
q4 21 -6 57q16 19 51 31.5t74 12.5q52 0 85 -23t33 -73z" />
    <glyph glyph-name="at" unicode="@" horiz-adv-x="582" 
d="M659 334q0 -84 -72 -158t-150 -74q-53 0 -53 46q0 31 29 93q-112 -133 -152 -133q-19 0 -19 24q0 57 59.5 122.5t108.5 78.5q24 7 48 7t41 -5q3 0 3 -4q0 -5 -4 -8q-13 -11 -22 -28q-16 -27 -33 -72t-17 -68q0 -21 8 -29.5t29 -8.5q54 0 106.5 66t52.5 142q0 57 -36 92
t-98 35q-81 0 -163 -45.5t-137 -125.5t-55 -168q0 -72 40.5 -111.5t109.5 -39.5q60 0 116 26.5t92 70.5q17 20 21 35q1 6 5 4l2 -6q-25 -62 -105.5 -105.5t-161.5 -43.5q-73 0 -121.5 39.5t-48.5 111.5q0 71 41.5 140.5t104 118t135 78.5t134.5 30q71 0 116.5 -32t45.5 -95z
M460 330q-4 1 -12 1q-20 0 -45 -16q-33 -22 -71.5 -77.5t-38.5 -87.5q0 -9 7 -9q13 0 52.5 44t77.5 96q18 26 30 49z" />
    <glyph glyph-name="A" unicode="A" horiz-adv-x="520" 
d="M228 216q6 -15 88 -15q60 0 80 -4q12 -3 16 8q5 24 13.5 73.5t15.5 90.5t8 44q3 11 -3 8l-7 -5q-42 -34 -108.5 -97t-102.5 -103zM13 -89l-13 59q0 10 7 22.5t13.5 20t24.5 27.5q235 266 409 406q4 3 40 12.5t45 16.5q6 5 7 1t-2 -8q-17 -26 -24 -67q-7 -31 -31.5 -163
t-24.5 -161q0 -47 31 -47q3 0 7 1t10 2t10 2q8 1 8.5 -2t-7.5 -4q-4 -1 -55.5 -16t-66.5 -18q-15 0 -20 20q3 13 11 68.5t9 65.5q0 12 -10.5 23t-30.5 15q-22 5 -75 5q-60 0 -78 2q-117 -115 -173 -222q-10 -18 -15 -58q-1 -6 -6 -3z" />
    <glyph glyph-name="B" unicode="B" horiz-adv-x="535" 
d="M347 445h40q107 0 151.5 -15.5t44.5 -66.5q0 -36 -39.5 -77t-115.5 -54q-9 -2 -9 -3q0 -2 9 -2q22 -3 36 -6.5t34.5 -11.5t31 -23t10.5 -36q0 -63 -69.5 -111.5t-174.5 -48.5q-92 0 -145 25q-20 9 -23 9q-21 0 -56 -27l-6 5q14 16 25 32q52 88 122 217q71 133 91 177
q3 8 -7 8q-20 0 -63 -8t-53 -8q-19 0 -19 13q0 17 11 22l1 -1q0 -2 1 -4t1 -3q4 -5 40 -5q16 0 62.5 1.5t68.5 1.5zM505 372q0 34 -27 48.5t-64 14.5q-18 0 -28 -14q-16 -20 -44 -70q-63 -112 -147 -278q-4 -9 -6 -20q0 -18 25.5 -36t70.5 -17q67 2 119 48.5t52 113.5
q0 28 -21.5 44t-55.5 18q-9 0 -26 -3.5t-25 -3.5q-6 1 -6 10q0 12 11 12q7 0 21 -3t21 -3q21 0 32 5q41 16 69.5 52t28.5 82z" />
    <glyph glyph-name="C" unicode="C" horiz-adv-x="516" 
d="M558 317l-9 -3q5 18 5 34q0 35 -30.5 62t-87.5 27q-52 0 -105 -43q-55 -45 -108 -138t-53 -176q0 -82 93 -82q154 0 280 174q3 4 5 4q4 0 4 -14q0 -10 -8 -24q-98 -148 -287 -148q-163 0 -163 117q0 72 53 150.5t122 127.5q86 61 174 61q93 0 146 -31q8 -4 8 -12
q-25 -45 -39 -86z" />
    <glyph glyph-name="D" unicode="D" horiz-adv-x="610" 
d="M575 309q0 52 -36 88t-121 36q-19 0 -26 -12q-102 -160 -202 -361q-4 -8 -4 -12q0 -6 6 -12q16 -17 48.5 -26.5t62.5 -9.5q111 0 191.5 90t80.5 219zM71 -3l-6 5q25 28 41 58q184 321 204 365q0 5 -8 5q-22 0 -63.5 -6.5t-62.5 -6.5q-18 0 -18 16q0 14 5 14l7 -3
q7 -3 17.5 -6t18.5 -3q27 0 97 5q99 3 129 3q221 0 221 -140q0 -82 -57.5 -164.5t-134.5 -116.5q-70 -30 -164 -30q-109 0 -157 25q-10 5 -17 5q-20 0 -52 -25z" />
    <glyph glyph-name="E" unicode="E" horiz-adv-x="484" 
d="M505 67q1 1 2.5 -0.5t1.5 -3.5q-10 -9 -21 -26q-7 -13 -28 -18q-108 -27 -210 -27q-158 0 -158 41q0 18 11 38q3 5 25.5 44.5t41.5 73t19 34.5q0 5 -17 5q-5 0 -5 3q0 7 12 9q23 3 34 24q83 149 83 159q0 4 -6 4q-74 0 -113 -10l-2 1q1 16 8 23q82 -4 131 -4q10 0 108 3
t134 3q6 0 6 -5q-2 -9 -18 -42l-3 1q0 17 -7 19q-37 12 -118 12q-24 0 -31 -10q-42 -56 -106 -170q-5 -9 6 -9q18 -1 57 -1q73 0 133 13l3 -3q-7 -11 -10 -21q-1 -4 -8 -4q-70 2 -101 2q-60 0 -85 -1q-8 0 -11 -6q-44 -77 -65 -127q-10 -23 -10 -41q0 -47 71 -47
q62 0 135 17.5t111 46.5z" />
    <glyph glyph-name="F" unicode="F" horiz-adv-x="350" 
d="M455 235l2 -2q0 -3 -5.5 -12t-9.5 -12q-58 -2 -112 -2q-30 0 -64 2q-8 0 -13 -9q-64 -109 -83 -158q-3 -9 -3 -16q0 -22 45 -22q6 0 6 -4q0 -3 -5 -4q-8 -1 -23 -1q-127 0 -127 17q0 5 5 15q15 27 51 83t48 78q87 151 122 230q4 10 -5 11q-18 2 -40 2q-6 0 -6 3q0 6 5 6
q23 -1 110 -1q126 0 200 29q2 1 4 1q5 0 5 -3q-8 -10 -16 -28q-5 -11 -10 -12q-15 0 -65.5 1t-76.5 1q-11 0 -19 -13q-52 -80 -103 -181q0 -17 63 -17q65 0 120 18z" />
    <glyph glyph-name="G" unicode="G" horiz-adv-x="569" 
d="M99 -251l-1 3q0 7 5 4q23 -13 54 -13q38 0 76.5 22.5t71 58t62.5 79t54 86t43 77.5q1 3 2 5t2.5 4.5t2.5 4.5q0 8 -6 2l-15 -14q-16 -13 -25 -20.5t-30 -20.5t-39.5 -20.5t-46 -13.5t-55.5 -6q-158 0 -158 115q0 25 14.5 64.5t43.5 88t86.5 95.5t130.5 73
q30 10 53.5 14.5t35.5 5t41 0.5q40 0 81.5 -9t57.5 -27q-5 -22 -34 -92l-7 -2l-1 3q4 16 4 25q0 37 -38 64t-92 27q-49 0 -96.5 -23.5t-80.5 -61.5q-44 -49 -84 -129t-40 -141q0 -82 89 -82q82 0 157.5 60.5t99.5 127.5q5 10 3.5 15t-11.5 5q-13 -1 -90 -7l-3 1l3 11
q137 0 211 19q4 -3 0 -9q-26 -6 -37 -29q-41 -86 -97.5 -182.5t-100.5 -146.5q-109 -124 -234 -124q-47 0 -62 13z" />
    <glyph glyph-name="H" unicode="H" horiz-adv-x="603" 
d="M155 7h-29q-42 0 -64 -19l-3 2q37 52 141 214q-12 18 -15 27q1 5 10 5h17h2h1q1 1 2 1q4 4 5 7q77 142 77 161q0 11 -5.5 14.5t-19.5 3.5q-12 -1 -20.5 -1t-14 -0.5l-16.5 -1.5q-6 0 -6 6t8 6h21q14 0 92 5q3 0 14.5 1t22 2t18.5 2q3 1 4.5 -0.5t1 -5t-2.5 -7.5
q-19 -26 -43 -67q-20 -35 -62 -119q-4 -10 2 -11q20 -2 97 -2t111 6q9 1 15 12q71 137 109 198q5 7 13 11q34 19 87.5 37t80.5 18q12 0 12 -5q0 -4 -10 -4q-12 0 -35.5 -6.5t-39.5 -20.5q-21 -17 -45 -50q-60 -84 -108 -183q-68 -142 -68 -188q0 -35 46 -35q33 0 61 18
q3 0 3.5 -2.5t-2.5 -6.5q-65 -40 -145 -40q-20 1 -31 13.5t-11 29.5q0 16 6 36q16 47 46 111q4 8 4 17q0 24 -44 24q-33 0 -93 -4q-39 -3 -73 -8q-9 -1 -18 -15q-26 -44 -91 -177q-4 -9 -15 -9z" />
    <glyph glyph-name="I" unicode="I" horiz-adv-x="250" 
d="M36 3q16 2 28 17q42 51 127 190t103 194q2 6 2 11q0 11 -27 11q-34 0 -55 -5l-3 1q1 8 6 12q127 3 188 17q5 -3 5 -8q0 -3 -6 -4q-10 -3 -23 -25q-125 -234 -228 -380q-16 -22 -40 -28q-37 -10 -75 -8q-2 1 -2 5z" />
    <glyph glyph-name="J" unicode="J" horiz-adv-x="355" 
d="M539 445q4 -1 4 -5t-4 -4q-8 1 -18 1q-15 0 -23 -9q-10 -13 -23 -34t-21 -36t-25.5 -47t-22.5 -42q-65 -115 -93 -159q-37 -62 -81 -104q-122 -114 -272 -114q-45 0 -77 13q-10 4 -9 14q0 10 2 46l7 2q9 -63 95 -63q84 0 152 68q59 58 144 202q87 146 134 251q3 9 -5 9
q-108 0 -172 -35q-46 -26 -46 -72q0 -11 2 -19q1 -3 -2 -3q-25 17 -25 45q0 49 79 71q84 24 300 24z" />
    <glyph glyph-name="K" unicode="K" horiz-adv-x="535" 
d="M45 -20q-6 0 -6 3q35 42 83 119q108 176 176 317q3 6 3 8q0 3 -5 3q-19 0 -55.5 -3t-50.5 -3q-11 0 -11 4q0 5 6.5 16.5t10.5 11.5q0 -8 10 -11q30 -7 78 -7q92 0 158 5q3 -5 -1 -9q-15 0 -39 -2q-7 0 -12 -8q-37 -59 -122 -201q-4 -6 -1.5 -7.5t7.5 1.5q96 56 192 122
q159 110 162 111h4q12 -8 39 -14q1 -3 -1 -5q-70 -23 -225 -120q-81 -51 -110 -72q-4 -3 -4 -6q107 -157 225 -272q106 -105 219 -105q69 0 118 34q8 5 8 -2q0 -2 -4 -5q-63 -41 -165 -41q-78 0 -154 35t-159 125q-83 91 -156 195q-5 7 -11 -3q-41 -68 -90 -174
q-6 -11 -9 -26q-23 7 -55 7t-53 -21z" />
    <glyph glyph-name="L" unicode="L" horiz-adv-x="440" 
d="M469 436q-16 4 -32 4q-39 0 -61 -35q-6 -9 -46 -84q-60 -115 -109 -191q-43 -68 -108 -104q-7 -3 -7 -6t8 -3q172 23 245 23q45 0 60 -3q16 -4 16 -14q0 -15 -18 -51q-2 0 -2 4q0 14 -9 17q-52 19 -148 19q-180 0 -248 -20q-10 2 -10 11q0 6 8 6q40 0 56 10q28 17 66 80
q31 52 89.5 170.5t75.5 150.5q4 8 16 12q19 7 72.5 12.5t84.5 5.5q4 -2 4 -7t-3 -7z" />
    <glyph glyph-name="M" unicode="M" horiz-adv-x="766" 
d="M12 -12q7 29 132.5 190t218.5 271q67 21 68 22q6 -2 2 -6q-12 -8 -15 -23q-11 -61 -18 -173t-7 -179q0 -13 3 -15.5t6 0.5t8 10q34 45 152 180.5t155 171.5q8 4 44.5 17t47.5 20q3 0 5 -2.5t0 -5.5q-14 -5 -19 -8t-10 -8.5t-8 -14.5q-28 -91 -52 -202.5t-24 -181.5
q0 -27 22 -27q26 0 40 6q2 0 2.5 -2.5t-1.5 -4.5q-15 -4 -66 -23.5t-59 -22.5q-26 0 -29 21q2 35 33 173.5t44 192.5q3 14 -0.5 14.5t-11.5 -7.5q-53 -47 -142.5 -154t-149.5 -194q-6 -10 -10 -22q-32 -1 -56 -23q-6 -2 -7 2q5 39 26 400q0 19 -16 0q-60 -67 -140 -178
t-121 -185q-23 -43 -21 -78q0 -7 -2.5 -8.5t-6 0.5t-5.5 6t-12 51z" />
    <glyph glyph-name="N" unicode="N" horiz-adv-x="554" 
d="M110 -15h-3q-4 4 -13 20t-9 24q0 14 20 47q25 44 101 170q50 82 66 124q5 13 5 27q0 26 -25 26q-21 0 -49 -2q-9 0 -9 14q0 4 3 4q20 -6 53 -6q29 0 96 21q6 0 8 -9q2 -29 8 -50q8 -32 25 -80t41 -108.5t33 -86.5q7 -16 13 -16q4 0 11 15q118 239 183 339q41 63 79 63
q12 0 23.5 -9t14.5 -19q0 -2 -3 -2q-69 0 -117 -69q-83 -117 -177 -325q-38 -86 -50 -111q-4 -7 -6 -7q-4 0 -9 7q-41 147 -123 352q-6 13 -11 13t-13 -12q-99 -152 -145 -257q-21 -48 -21 -97z" />
    <glyph glyph-name="O" unicode="O" horiz-adv-x="605" 
d="M666 319q0 -125 -107.5 -226.5t-244.5 -101.5q-42 0 -73.5 5t-60.5 18t-44.5 40t-15.5 67q0 61 41.5 134.5t92.5 116.5q87 75 219 75q49 0 89.5 -10t72 -40.5t31.5 -77.5zM591 326q0 113 -122 113q-98 0 -164 -80q-41 -49 -75.5 -120.5t-34.5 -127.5q0 -111 118 -111
q70 0 136 51.5t104 127.5t38 147z" />
    <glyph glyph-name="P" unicode="P" horiz-adv-x="450" 
d="M582 359q0 -64 -65.5 -116t-174.5 -52q-30 0 -49 7q-3 2 -3 4q0 4 4 4q21 -6 44 -6q72 0 118 50t46 113q0 41 -19 58.5t-56 17.5q-14 0 -30 -4q-16 -5 -23 -17q-96 -158 -184 -339q-10 -20 -10 -36q0 -34 64 -34q11 0 11 -3t-5 -4q-42 -7 -121 -7q-49 0 -49 24q0 6 5 18
q13 31 81 144q49 81 105 186q24 43 24 57q0 4 -5 4q-19 0 -61 -4.5t-64 -4.5q-19 0 -19 11q0 3 3.5 11t6.5 8q2 0 3 -4q1 -5 12 -7q18 -3 47 -3q46 0 133 7t97 7q57 0 95.5 -21t38.5 -69z" />
    <glyph glyph-name="Q" unicode="Q" horiz-adv-x="567" 
d="M648 -41q-26 -49 -65.5 -86.5t-81.5 -37.5q-51 0 -81 46q-21 33 -62 130q-48 -16 -91 -16q-94 0 -129 33q-30 -20 -63 -64q-5 0 -5 7q32 39 62 62q-35 32 -35 89q0 60 38.5 128.5t93.5 118.5q84 76 187 76q8 0 8 -6q0 -3 -2 -3q-6 1 -16 1q-70 0 -151 -107
q-84 -118 -84 -219q0 -34 7 -46q57 34 109 34q76 0 114 -60q57 31 96.5 112t39.5 154q0 71 -27 103q-15 18 -38 24q-5 2 -5 3q0 2 5 2t27 0.5t28 0.5q16 0 29 -8q51 -33 51 -116q0 -71 -51.5 -154.5t-149.5 -128.5q1 -1 18 -30.5t31 -50.5t27 -34q30 -33 61 -33h12.5t15.5 4
t21 11.5t22.5 24.5t25.5 41q2 3 5 1t3 -6zM354 19q-28 64 -91 64q-43 0 -83 -26q25 -53 100 -53q36 0 74 15z" />
    <glyph glyph-name="R" unicode="R" horiz-adv-x="539" 
d="M136 328q-2 -1 -4 0t-2 2q8 22 11 40q1 15 12 21q47 25 123 41q59 12 132 12q93 0 139 -18.5t46 -61.5q0 -50 -48 -90.5t-143 -48.5q-11 -1 -7 -12q46 -85 128 -199q53 -72 108 -113.5t126 -41.5q50 0 109 31q6 4 6 -2q0 -4 -4 -5q-73 -38 -142 -38q-109 0 -175.5 44.5
t-139.5 156.5q-15 24 -56.5 94.5t-47.5 80.5q0 4 3 4q92 0 145.5 34.5t53.5 101.5q0 32 -16 52t-64 20q-15 0 -27 -13q-32 -37 -123 -195.5t-120 -222.5q-1 -2 -4 -2q-12 2 -41 2q-20 0 -31 -2q-25 -14 -29 -19q-2 0 -3.5 1.5t-0.5 2.5q156 227 265 431q5 12 -5 12
q-55 -3 -116 -36q-34 -19 -58 -64z" />
    <glyph glyph-name="S" unicode="S" horiz-adv-x="357" 
d="M469 407q-15 -24 -24 -59q-4 -2 -7 3q3 6 3 15q0 19 -29.5 38.5t-65.5 19.5q-38 0 -68 -23.5t-30 -67.5q0 -25 12 -44.5t42 -44.5q54 -45 54 -93q0 -73 -68.5 -115.5t-147.5 -42.5q-71 0 -114 22q-13 5 -14 11q4 20 29 81q1 3 3 3q4 0 4 -4q-3 -6 -3 -17
q0 -37 31.5 -61.5t73.5 -24.5q58 0 96 26.5t38 74.5q0 27 -12.5 48t-41.5 48q-46 43 -46 91q0 63 68 107t141 44q51 0 71 -21q5 -7 5 -14z" />
    <glyph glyph-name="T" unicode="T" horiz-adv-x="378" 
d="M375 431h-33q-117 0 -173.5 -28.5t-97.5 -125.5q-3 -7 -7 1q-1 1 -2 4q15 60 46 103.5t74 51.5q22 4 123 4q29 0 93 -1t92 -1q80 0 132 30q43 25 43 61q0 5 -1 7q-1 1 -1 3q0 4 3 4q1 0 3 -2q3 -5 9.5 -15.5t8.5 -14.5q3 -5 3 -12q0 -6 -4 -14q-30 -51 -132 -54h-35.5
t-34.5 -1q-14 0 -21 -10q-79 -124 -187 -318q-20 -36 -21 -58q0 -19 13.5 -30t53.5 -11q18 0 24 1q3 -4 -3 -8q-35 -3 -77 -3q-111 0 -111 37q0 14 15 39q138 219 210 352q4 9 -5 9z" />
    <glyph glyph-name="U" unicode="U" horiz-adv-x="629" 
d="M759 447q-15 -3 -25 -14q-85 -104 -152 -239q-53 -106 -53 -152q0 -22 7.5 -30t29.5 -8q12 0 27 4.5t25.5 9.5t19 9.5t9.5 4.5q5 0 6 -4t-4 -6q-70 -37 -130 -37q-33 0 -54 13.5t-21 37.5q0 19 10 43t20 41t10 18q0 2 -1 2.5t-2 -1.5q-74 -83 -141 -116.5t-138 -33.5
q-89 0 -89 77q0 31 23 73q21 38 79.5 130.5t79.5 131.5q4 8 4 12q0 9 -15 9q-3 0 -19.5 -0.5t-26.5 -0.5q-5 0 -13 0.5t-11 0.5q-5 0 -7.5 3t-0.5 6t7 3q4 0 32.5 -1.5t47.5 -1.5q37 0 82 4t50 4t5 -3q-1 -4 -6 -6q-24 -4 -34 -16q-67 -84 -160 -249q-31 -55 -31 -90
q0 -59 58 -59q132 0 254 184q13 19 29.5 49.5t28.5 54t27 55.5t19 39q12 23 35 31q10 3 56 15.5t51 12.5q7 0 6 -6q-1 -4 -4 -4z" />
    <glyph glyph-name="V" unicode="V" horiz-adv-x="441" 
d="M277 76q107 107 203 218t135 175q16 24 16 42q0 2 -1 6t-1 5q1 6 7 1q24 -28 24 -39q0 -21 -43 -70t-239 -250q-116 -119 -134 -155q-7 -13 -20 -13q-15 -1 -34 -10.5t-21 -9.5q-4 0 -4 4q0 2 2 6t5 11t5 13q24 71 42 175.5t18 146.5q0 44 -12 66.5t-51 22.5
q-19 0 -50 -13.5t-49 -28.5q-9 -8 -11 -1q-2 4 4 8q35 24 93 50t90 26q35 0 48.5 -18t13.5 -53q0 -51 -21.5 -171.5t-21.5 -140.5q0 -4 3 -5t4 2z" />
    <glyph glyph-name="W" unicode="W" horiz-adv-x="719" 
d="M1080 486q2 -4 -2 -7q-1 0 -6.5 2t-7.5 2q-95 0 -316 -245q-41 -45 -96.5 -117.5t-77.5 -109.5q-6 -11 -15 -12q-13 -1 -30.5 -9.5t-25.5 -16.5q-9 0 -2 10q9 9 14.5 129t5.5 215q0 14 -7 14q-3 0 -10 -5q-43 -39 -147 -144t-176 -187q-9 -9 -12 -9q-35 0 -70 -19
q-7 0 -3 9q11 16 36 77q19 48 63.5 182t44.5 152q0 14 -15 14q-10 0 -28.5 -4t-23.5 -4q-3 0 -4.5 2t-0.5 4.5t5 2.5q52 8 94.5 20t62 19.5t20.5 7.5q3 0 4.5 -2t0.5 -4t-3 -4q-10 -9 -34 -74q-70 -188 -101 -295q-3 -13 1 -12l4 3q7 7 160.5 161t222.5 214q3 1 5.5 -2
t0.5 -5q-12 -6 -14 -21q-10 -77 -10 -214q0 -104 2 -129q1 -11 8 -3q104 128 146 176q141 160 201 215q49 45 82 45q20 0 54 -22z" />
    <glyph glyph-name="X" unicode="X" horiz-adv-x="536" 
d="M674 436q0 -7 -7 -11q-135 -80 -271 -170q18 -105 27 -144q21 -86 68 -86q32 0 77 35q5 5 7 -1q-1 -4 -3 -6q-29 -22 -78 -46t-78 -24q-31 0 -43 23.5t-19 77.5q-12 94 -18 131q-122 -81 -227 -167q-27 -22 -53 -54t-26 -55q0 -6 -3 -7q-23 23 -23 34q0 5 1.5 10.5
t6 11.5t8.5 11t11.5 12t13 11.5t16 12.5t17 12t18.5 13t18 13q65 47 220 153q-13 83 -23 125q-17 69 -68 69q-45 0 -83 -25q-8 -3 -8.5 0.5t4.5 6.5q84 45 156 45q34 0 50.5 -18.5t21.5 -63.5q9 -87 11 -100q82 55 246 181q10 8 10 16q0 7 -2 13q-1 3 2 3t13 -17.5t10 -24.5
z" />
    <glyph glyph-name="Y" unicode="Y" horiz-adv-x="371" 
d="M744 445l-3 -3q-6 2 -22 2q-55 0 -175.5 -80.5t-211.5 -168.5q-15 -15 -32 -44q-31 -54 -64 -143q-4 -9 -13 -8q-62 6 -104 -27q-3 -1 -3.5 3t2.5 7q19 15 53 64.5t56 93.5q33 64 33 133q0 137 -107 137q-63 0 -97 -47q-4 -4 -8.5 -3.5t0.5 8.5q64 80 159 80
q64 0 93.5 -39t29.5 -100q0 -14 -2.5 -35.5t-5 -37.5t-2.5 -17q-1 -5 1.5 -7.5t6.5 1.5q32 25 88.5 69.5t102.5 80t87 64.5q60 43 101 43q11 0 21.5 -8.5t15.5 -17.5z" />
    <glyph glyph-name="Z" unicode="Z" horiz-adv-x="437" 
d="M725 72q-13 -64 -47 -110q-43 -59 -101 -59q-53 0 -147.5 25t-204 50t-197.5 25q-3 0 -5.5 2.5t-1 5t6.5 2.5q26 0 46 17q314 264 408 378q8 10 8 14q0 8 -20 8q-120 0 -197 -10q-49 -7 -86 -47q-9 -9 -9 2q24 54 35 56q33 5 171 7q30 0 87.5 1t100.5 2t50 1q6 0 8 -2.5
t0 -5.5t-6 -3q-5 -1 -22 -15q-79 -68 -210.5 -189t-211.5 -203q-5 -7 -5 -10q0 -6 9 -9q56 -19 165 -37t196 -18q145 0 172 124q2 9 6 6q2 -2 2 -8z" />
    <glyph glyph-name="bracketleft" unicode="[" horiz-adv-x="318" 
d="M454 498q0 -4 -6 -4h-35q-39 0 -47 -1.5t-13 -9.5q-131 -227 -275 -512q-3 -6 -3 -10q0 -10 14 -10q39 0 66 0.5t28 0.5q5 0 7 -3t0.5 -5.5t-7.5 -2.5q-12 0 -38.5 0.5t-40.5 0.5t-43 -0.5t-44 -0.5q-7 0 -7 5q0 2 3 6.5t8 11.5t8 11q167 290 275 506q3 7 3 14t7 7
q10 0 29 -1t28 -1q11 0 39.5 1t37.5 1q6 0 6 -4z" />
    <glyph glyph-name="backslash" unicode="\" horiz-adv-x="368" 
d="M414 -157q0 -8 -8 -6.5t-11 7.5q-215 701 -215 704q0 10 11 6q6 -4 9 -9q2 -4 108 -348t106 -354z" />
    <glyph glyph-name="bracketright" unicode="]" horiz-adv-x="352" 
d="M527 497q0 -2 -2 -4t-7 -9t-10 -16q-148 -264 -265 -506q-3 -6 -3 -12q0 -9 -7 -9q-8 0 -29 1t-33 1q-17 0 -46.5 -1t-38.5 -1q-6 0 -6 5q0 6 6 6h58q29 0 35.5 1.5t11.5 9.5q131 227 274 510q3 6 3 10q0 10 -14 10q-25 0 -51 -1.5t-31 -1.5q-7 0 -7 5t8 5q37 0 84.5 1
t61.5 1q8 0 8 -5z" />
    <glyph glyph-name="asciicircum" unicode="^" horiz-adv-x="400" 
d="M397 390q-5 -32 -8.5 -92t-1.5 -84l-20 -5q0 57 9 152q-58 -62 -148 -144l-24 6q123 103 181 169z" />
    <glyph glyph-name="underscore" unicode="_" horiz-adv-x="500" 
d="M500 -50h-500v50h500v-50z" />
    <glyph glyph-name="grave" unicode="`" 
d="M151 278q0 -2 -1.5 -2.5t-3.5 1.5q-10 18 -33 66t-25 53q-3 6 -3 11q0 3 9.5 5.5t13.5 2.5q3 0 4 -4q16 -40 39 -133z" />
    <glyph glyph-name="a" unicode="a" horiz-adv-x="316" 
d="M424 133q-53 -67 -108.5 -110t-99.5 -43q-47 0 -47 39q0 30 32 82q-27 -40 -73 -76.5t-78 -36.5q-24 0 -24 29q0 54 75.5 128.5t163.5 74.5q11 18 16 20l55 11l2 -1q-5 -5 -19 -28q12 0 30 -3q8 -4 4 -7q-1 -1 -2 -1q-16 4 -36 4q-87 -154 -87 -192q0 -21 20 -21
q62 0 170 134q2 3 4 1.5t2 -4.5zM260 212l-1 1q-60 0 -114.5 -70.5t-54.5 -110.5q0 -10 8 -10q15 0 46.5 26t57.5 65q11 17 58 99z" />
    <glyph glyph-name="b" unicode="b" horiz-adv-x="280" 
d="M607 643q-1 -29 -5 -30q-17 20 -50 20q-69 0 -128 -47q-90 -71 -258 -405q-17 -33 -33 -80.5t-16 -65.5q0 -27 18 -27q26 0 50.5 40.5t24.5 106.5q0 20 -5 32q0 6 6 12q21 21 36 31q3 0 4 -2q0 -36 25 -56t53 -20q36 0 67 19q5 3 6.5 -0.5t-3.5 -5.5q-62 -33 -108 -33
q-36 0 -58 28q0 -71 -48 -126t-95 -55q-36 0 -36 42q0 29 19 78t39 84q156 282 303 409q34 29 79 56.5t76 27.5q18 0 27.5 -9t9.5 -24z" />
    <glyph glyph-name="c" unicode="c" horiz-adv-x="221" 
d="M326 138q-33 -41 -78.5 -79t-82.5 -54q-40 -16 -69 -16q-60 0 -60 45q0 14 11 42q18 44 61.5 85.5t86.5 59.5q21 9 27 9q36 0 36 -29q0 -15 -7 -23q-1 -1 -8.5 -7.5t-14.5 -13.5t-11 -12l-3 1q3 8 3 17q0 15 -9 25.5t-21 10.5q-36 0 -61.5 -43.5t-25.5 -98.5
q0 -45 37 -45q31 0 82.5 34.5t101.5 96.5q7 7 8 1q0 -3 -3 -6z" />
    <glyph glyph-name="d" unicode="d" horiz-adv-x="297" 
d="M703 674q0 -1 -9.5 -18t-11.5 -25q-2 -9 -4 -9l-17 8q-17 7 -35 7q-38 0 -70 -23q-40 -28 -96 -109q-122 -175 -189.5 -320.5t-67.5 -198.5q0 -14 4.5 -21.5t20.5 -7.5q38 0 81.5 50.5t75.5 115.5q3 4 6.5 2.5t-0.5 -7.5q-37 -77 -86 -127.5t-96 -50.5q-59 0 -59 52
q0 39 39 119q-100 -130 -149 -130q-29 0 -29 26q0 24 23 60q39 64 93 106t116 48q92 169 178 275q43 53 99 101.5t99 69.5q34 16 59 16t25 -9zM234 203q-37 0 -55.5 -10t-36.5 -33q-61 -76 -61 -118q0 -13 12 -13q17 0 62.5 52.5t78.5 121.5z" />
    <glyph glyph-name="e" unicode="e" horiz-adv-x="215" 
d="M305 119q-40 -50 -103 -92t-120 -42q-47 0 -47 44q0 61 62.5 127t115.5 66q25 0 25 -18q0 -28 -36.5 -56t-93.5 -28q-11 -26 -11 -64q0 -41 37 -41q42 0 87 33t77 74q2 2 4.5 1t2.5 -4zM191 190q0 13 -13 13q-19 0 -38 -23t-28 -50q6 -2 15 -2q29 0 46.5 17t17.5 45z" />
    <glyph glyph-name="f" unicode="f" horiz-adv-x="203" 
d="M688 723q0 -4 -4.5 -36.5t-4.5 -41.5q-1 -2 -4 -2t-5 2q3 11 3 26q-1 16 -19.5 31.5t-46.5 15.5q-62 0 -103 -33t-91 -122q-34 -61 -186 -354q25 -1 138 -1q5 -2 3 -8q-95 0 -146 -1q-64 -122 -143.5 -248.5t-140.5 -205.5q-141 -180 -286 -274t-249 -94q-29 0 -53 30
t-24 71q0 8 2 7.5t4 -6.5q3 -20 32 -43.5t78 -23.5q232 0 460 338q105 156 259 448q-72 -3 -102 -15.5t-50 -54.5l-3 1q26 63 54 72q23 7 105 7q95 178 197 325q66 95 140 162.5t136 67.5q32 0 41 -11.5t9 -28.5z" />
    <glyph glyph-name="g" unicode="g" horiz-adv-x="262" 
d="M306 257q0 -11 -6 -23q-122 -262 -296 -515q-77 -112 -183.5 -183t-238.5 -71q-89 0 -138.5 57t-49.5 124q0 30 8 52q1 5 5 3l2 -4q-3 -10 -3 -26q0 -79 69.5 -124.5t159.5 -45.5q129 0 213.5 65t177.5 222q54 92 163 329q-85 -137 -138 -137q-10 0 -17 6.5t-7 18.5
q0 50 48.5 115.5t102.5 90.5q24 12 50 12q9 0 12 -1q11 19 35 63q7 13 13 13q5 0 11.5 -15t6.5 -26zM234 208q-4 2 -15 2q-34 0 -52 -14q-39 -31 -57.5 -78.5t-18.5 -75.5q0 -16 8 -16q15 0 57 56t78 126z" />
    <glyph glyph-name="h" unicode="h" horiz-adv-x="298" 
d="M707 666q0 -10 -5.5 -24.5t-9.5 -15.5q0 29 -27.5 50.5t-74.5 21.5q-53 0 -91 -18t-89 -80t-108 -163.5t-151 -285.5q27 27 76 58t77 31q9 0 9 -7q0 -6 -9 -18q-20 -29 -52 -94.5t-32 -88.5q0 -20 17 -20q23 0 64 30.5t90 95.5q1 2 3.5 2t2.5 -4q-43 -60 -101.5 -106
t-103.5 -46q-33 0 -33 32q0 23 35.5 92t35.5 79q0 5 -3 5q-12 0 -38 -19.5t-57 -61.5q-38 -66 -55 -100q-11 -21 -20 -21q-12 0 -23 7.5t-11 14.5q0 5 3 11q126 232 154 279q255 432 440 432q34 0 60.5 -16t26.5 -52z" />
    <glyph glyph-name="i" unicode="i" horiz-adv-x="197" 
d="M268 364q0 -19 -16 -36t-35 -17q-17 0 -17 17q0 20 15 37.5t34 17.5t19 -19zM303 137q-50 -65 -115 -107q-21 -14 -51.5 -25.5t-49.5 -11.5q-21 0 -29.5 7.5t-8.5 28.5q0 23 28 76.5t50 85.5q5 7 31 18t31 11t5 -3q0 -5 -5 -12q-30 -44 -55 -95t-25 -71t22 -20
q36 0 88 42t80 81q6 6 6 2q0 -3 -2 -7z" />
    <glyph glyph-name="j" unicode="j" horiz-adv-x="209" 
d="M247 355q0 -18 -15 -35t-32 -17q-16 0 -16 18q0 19 13.5 36t31.5 17t18 -19zM304 126q0 -46 -65 -106q-63 -59 -290 -247q-9 -7 -50 -60t-57 -65q-2 -2 -6 -2q-5 0 -9 12.5t-4 18.5q0 9 5 16q16 20 54.5 48t63.5 72q26 46 49 94t61 132t56 124q5 13 5 17q0 8 -9 6
q-2 0 -16 -3t-19 -4q-3 -1 -4 3q1 4 5 6q26 4 52.5 14.5t43 18t21.5 7.5q8 0 8 -8q0 -5 -6 -17q-78 -146 -131 -234q-58 -99 -115 -184q14 11 70 55.5t91.5 74t81.5 75.5t72 85q22 32 22 65q0 14 -6 22q-3 6 0.5 6.5t6.5 -2.5q19 -16 19 -40z" />
    <glyph glyph-name="k" unicode="k" horiz-adv-x="316" 
d="M599 596q0 -8 -6 -23t-7 -24q0 -4 -3 -5q-4 -1 -4 4q0 2 1 5.5t1 5.5q0 20 -17.5 32.5t-39.5 12.5q-78 0 -140 -64q-9 -9 -18 -20t-16.5 -20t-17 -23.5t-15 -22.5t-16.5 -25t-15 -23.5t-16 -26.5l-15 -25q-18 -30 -41.5 -74.5t-40 -77.5t-34.5 -69.5t-19 -39.5
q-3 -7 -3 -8q1 -1 8 6q27 27 44 41q-1 3 -1 13q0 7 20.5 22.5t29.5 18.5q3 0 3 -12q105 89 112 89q11 0 16 -13q0 -6 -10 -9q-21 -7 -57.5 -31.5t-59.5 -44.5q6 -69 32 -120q13 -26 32 -26q40 0 128 119q4 6 7 1q3 -2 0 -5q-30 -40 -67 -78t-64 -54q-32 -19 -50 -19
q-27 0 -40 27t-29 112q-58 -49 -102 -128q-4 -8 -12 -8q-10 0 -21 11t-11 22q0 3 3 9q63 125 152 265q66 106 165 220q83 95 162 121q18 6 38 6t37 -11.5t17 -32.5z" />
    <glyph glyph-name="l" unicode="l" horiz-adv-x="196" 
d="M56 34q0 -15 2 -23.5t12 -15.5t29 -7q42 0 84 24t67 49.5t56 64.5q6 6 2 8q-3 -1 -7 -4q-92 -119 -157 -119q-26 0 -26 31q0 41 48 139q164 330 254 405q63 52 123 52q37 0 52 -20q2 -2 4 4q4 10 4 24q0 31 -35 31q-34 0 -77.5 -27t-75.5 -58q-83 -78 -162.5 -188.5
t-140.5 -220.5q-56 -101 -56 -149z" />
    <glyph glyph-name="m" unicode="m" horiz-adv-x="398" 
d="M469 90q-103 -116 -166 -116q-40 0 -40 31q0 15 38.5 89.5t38.5 87.5q0 6 -5 6q-16 -6 -49 -34.5t-45 -48.5q-2 -3 -16 -33t-28 -54t-20 -24q-12 0 -22 7t-10 13t14 29q18 30 32 58.5t19.5 43t5.5 18.5q0 6 -4 6q-13 0 -50.5 -40.5t-56.5 -76.5q-3 -5 -7 -13t-6.5 -12
t-6 -10t-5.5 -9.5t-4.5 -6.5t-5 -4.5t-4.5 -1.5q-13 0 -21.5 12t-8.5 21q0 8 4 13q17 27 105 177q5 9 11 9q9 0 18 -10t9 -16q-7 -14 -27.5 -50t-27.5 -50q39 45 78.5 76t57.5 31q11 0 11 -15q0 -12 -22 -58q-1 -2 -1 -3q1 -1 4 2q65 66 132 94q19 0 19 -14q0 -6 -4 -13
q-82 -149 -82 -190q0 -16 15 -16q43 0 127 100q4 7 8 5t-2 -10z" />
    <glyph glyph-name="n" unicode="n" horiz-adv-x="286" 
d="M396 133q-41 -58 -99 -102t-109 -44q-37 0 -37 23q0 22 36 85t43 81q2 5 0 8.5t-6 0.5q-60 -40 -103 -89q-9 -15 -29 -49t-32 -53q-6 -9 -12 -9q-10 0 -18 14t-8 25q0 12 45 68q50 103 65 137q5 7 13 7q15 0 25.5 -9t10.5 -20q0 -2 -7.5 -15t-20.5 -34.5t-22 -38.5
q40 40 96 81.5t71 41.5q5 0 11.5 -6t6.5 -10t-5 -12q-31 -44 -65 -105t-34 -84q0 -17 15 -17q32 0 83.5 42.5t80.5 88.5q3 3 6 1t-1 -7z" />
    <glyph glyph-name="o" unicode="o" horiz-adv-x="256" 
d="M382 164q-45 -54 -92 -54q-46 0 -64 31q-39 -96 -104 -135q-30 -19 -53 -19q-36 0 -36 32t19.5 68.5t42.5 61.5q22 24 56.5 43t63.5 22q5 29 20 31q5 1 16.5 6.5t14.5 9.5q3 3 6 1t1 -6q-17 -28 -17 -65q0 -72 42 -72q38 0 78 49q2 5 6 2.5t0 -6.5zM218 161v-1
q-4 16 -4 44q0 3 -4 3q-34 0 -83 -81q-34 -61 -33 -94q0 -18 13 -18q29 0 68 57.5t43 89.5z" />
    <glyph glyph-name="p" unicode="p" horiz-adv-x="245" 
d="M372 159q-99 -111 -269 -150q-3 -1 -74 -13q-38 -65 -102 -193q-66 -133 -128 -267q-3 -6 -22.5 -12.5t-57.5 -16t-63 -18.5q-6 -3 -7 1.5t5 6.5q51 19 69.5 37t53.5 75q23 38 107 177.5t126 209.5q-6 2 -6 11q0 6 17 9l46 79q15 26 53.5 97.5t59.5 104.5q3 4 8 7
q14 8 48 8q24 0 24 -3t-12 -4q-11 -1 -42 -39t-54 -79q23 25 53 44t50 19q22 0 22 -26q0 -13 -12.5 -36.5t-36.5 -53.5t-67.5 -63t-96.5 -58q73 8 156 45t146 105q2 2 4 0.5t2 -4.5zM209 190q0 18 -12 18q-15 0 -41.5 -24.5t-50.5 -59.5q-27 -39 -65 -108q61 17 115 77
t54 97z" />
    <glyph glyph-name="q" unicode="q" horiz-adv-x="292" 
d="M404 143q-42 -55 -201 -283q-4 -6 -39 -56.5t-48 -68.5t-41 -57.5t-50.5 -67t-44.5 -52.5q-63 -72 -114 -72q-21 0 -21 23q0 26 26 69q46 79 95.5 157t108.5 168.5t93 144.5q-49 -59 -104 -59q-13 0 -21.5 7.5t-8.5 19.5q0 54 60.5 114.5t120.5 75.5q21 6 52 6
q40 77 57 104t27 27t15.5 -4.5t5.5 -9.5q0 -11 -3 -15q-37 -61 -70 -105q29 -4 42 -23q5 -8 0 -9q-4 -1 -9 6q-14 15 -39 18q-87 -123 -161 -243q-153 -244 -204 -365q-10 -25 -10 -41q0 -15 12 -15q18 0 50 36q29 33 60.5 74.5t49.5 66.5t55.5 80t49.5 72q139 200 203 284
q5 5 7 1t-1 -8zM264 205q-28 0 -49 -11q-35 -19 -78 -77.5t-43 -86.5q0 -13 14 -13q22 0 59 44q21 26 97 144z" />
    <glyph glyph-name="r" unicode="r" horiz-adv-x="210" 
d="M300 217q-17 -19 -26 -40q-2 -3 -4 -3q-1 0 -4.5 4t-11.5 8t-20 4q-24 0 -59 -31q-24 -21 -44 -48.5t-29 -43.5t-36 -66q-2 -5 -9 -5q-8 0 -19 10t-11 20q0 6 7 18q18 32 102 180q4 9 11 9q10 0 19.5 -10.5t9.5 -19.5q0 -8 -24 -51q-3 -5 -1 -5t5 3q78 81 122 81
q9 0 15.5 -4.5t6.5 -9.5z" />
    <glyph glyph-name="s" unicode="s" horiz-adv-x="185" 
d="M202 188q-1 -3 -3 -3t-3 2q-3 7 -15 13.5t-25 6.5q-11 0 -19.5 -8.5t-8.5 -21.5q0 -18 20 -42q28 -35 28 -57q0 -45 -40 -69.5t-77 -24.5q-69 0 -75 45q19 8 32 27q4 0 4 -5q2 -23 17 -39t38 -16q24 0 37.5 9t13.5 37q0 20 -24 51q-16 22 -16 44q0 26 41 62t70 36
q21 0 21 -15q-12 -18 -16 -32z" />
    <glyph glyph-name="t" unicode="t" horiz-adv-x="207" 
d="M307 365q-23 -7 -33 -21q-52 -73 -87 -136h117q3 -2 2.5 -4.5t-2.5 -3.5q-56 0 -124 -5q-65 -116 -65 -155q0 -29 26 -29q17 0 46 12t52 28q3 3 6 -0.5t-2 -5.5q-77 -54 -151 -54q-17 0 -28.5 11t-11.5 33q0 33 77 160q-10 0 -31 -1l-20 -1q-5 0 -5 3q4 6 11 12h53
q47 80 84 138q53 14 86 26q5 0 3 -5q-1 -1 -3 -2z" />
    <glyph glyph-name="u" unicode="u" horiz-adv-x="272" 
d="M377 124q-41 -59 -94 -105t-100 -46q-17 0 -28.5 10t-11.5 28t13 47q-17 -21 -43 -39.5t-52 -18.5q-27 0 -27 27q0 31 94 193q6 11 11 11q12 0 24.5 -10.5t12.5 -18.5q0 -3 -6 -12q-78 -119 -78 -152q0 -12 10 -12q11 0 30.5 16t41.5 49q50 92 63 113q6 8 11 8
q7 0 17.5 -13t10.5 -24q0 -8 -4 -15q-7 -11 -25 -36t-27.5 -40t-18.5 -37t-9 -40q0 -17 14 -17q29 0 75.5 37.5t89.5 101.5q6 2 6 -5z" />
    <glyph glyph-name="v" unicode="v" horiz-adv-x="250" 
d="M295 218q0 -31 -51 -89q-35 -40 -85 -83.5t-88 -68.5q-4 0 -11.5 6.5t-12.5 13.5l-4 6q0 3 3 5q23 17 36.5 71t13.5 89q0 27 -23 25l-17 -3q-9 4 1 7q55 5 97 23q10 2 10 -5q0 -21 -19.5 -85.5t-38.5 -103.5q-2 -5 1 -6q87 58 124 114q25 38 25 74q0 35 -26 49q-1 4 9 5
q56 0 56 -44z" />
    <glyph glyph-name="w" unicode="w" horiz-adv-x="376" 
d="M506 165q-47 -56 -95 -56q-35 0 -59 32q-17 -63 -52 -106t-77 -43q-25 0 -37.5 11.5t-12.5 28.5q0 18 9 43q-22 -30 -59 -56.5t-67 -26.5q-13 0 -17.5 6t-4.5 20q0 16 22.5 62.5t52.5 90.5q10 15 22 23q8 5 33.5 14t29.5 9q3 0 3 -4q-42 -48 -71 -99.5t-29 -77.5
q0 -13 11 -13q10 0 27.5 13t43.5 48.5t48 86.5q4 10 18 10q11 0 21 -8.5t10 -15.5q0 -5 -6 -15q-52 -87 -52 -116q0 -22 20 -22q31 0 62.5 43t38.5 117q-9 23 -9 39q0 9 9 19.5t20 10.5q6 0 6 -6q6 -108 57 -108q36 0 78 50q2 3 4 1t2 -5z" />
    <glyph glyph-name="x" unicode="x" horiz-adv-x="231" 
d="M274 69q4 4 6 0l-1 -5q-25 -25 -67.5 -51.5t-76.5 -26.5q-26 0 -34 21.5t-8 64.5q-88 -74 -135.5 -161.5t-47.5 -159.5q0 -6 -4 -6q-4 18 -16 31q0 1 -5 4.5t-5 4.5q0 41 56 125t157 171q3 57 22 103q4 9 13.5 16.5t25.5 15.5t19 10q3 3 4 -1l-1 -4q-26 -46 -31 -101
q130 100 135 100q3 0 3 -3q0 -13 -4 -20q-63 -31 -135 -86q-1 -9 -1 -25q0 -27 11.5 -48.5t33.5 -21.5q33 0 86 53z" />
    <glyph glyph-name="y" unicode="y" horiz-adv-x="250" 
d="M61 0q-30 0 -30 24q0 25 74 139l3 4.5l3 4.5t3 5q9 14 15 17q25 10 50 10q4 0 4 -3q-90 -128 -90 -164q0 -12 13 -12q10 0 28.5 10t27.5 20q5 5 14 22.5t24.5 48.5t28.5 54q29 52 40 52q7 -2 13 -12.5t6 -18.5q0 -7 -33.5 -52t-67.5 -86q-21 -33 -61 -96.5t-65 -101.5
t-62.5 -92t-68.5 -86.5t-68 -64.5t-75 -47t-77 -15q-35 0 -55.5 23.5t-20.5 59.5q0 19 5 34q1 4 4 4q1 0 1 -3q0 -61 91 -61q29 0 58.5 9.5t54.5 22.5t54 39.5t49 46.5t48 57.5t43.5 59t42 65t37.5 62t36 61.5q1 2 1 3q-1 1 -4 -2q-59 -41 -94 -41z" />
    <glyph glyph-name="z" unicode="z" 
d="M563 -42q-9 -41 -56.5 -72.5t-111.5 -31.5q-87 0 -172 39t-191 116q-6 4 -13 0q-15 -9 -30 -19q-8 -6 -11 2q-2 6 5 9q55 27 112.5 64.5t89 63t31.5 28.5q0 2 -1 3.5t-3 0.5q-42 -19 -68 -19q-18 0 -29.5 13.5t-11.5 37.5q2 8 20 23t35 26q4 0 4 -4q-9 -9 -9 -28
q0 -17 12.5 -30.5t29.5 -13.5q35 0 86 49q3 3 6.5 2t5 -4.5t-1.5 -7.5q-30 -21 -66 -52q-58 -50 -135 -102q-11 -6 -2 -13q222 -173 327 -173q91 0 142 95q4 3 6 -2z" />
    <glyph glyph-name="braceleft" unicode="{" horiz-adv-x="265" 
d="M450 489q-1 0 -6 1.5t-10 1.5q-35 0 -65 -44q-14 -21 -37.5 -57.5t-37 -55.5t-33.5 -42.5t-41.5 -35.5t-47.5 -16q-4 0 -4 -4q0 -1 2 -3q27 -14 27 -41q0 -39 -51.5 -125t-51.5 -118q0 -43 36 -43q6 0 6 -4t-7 -4q-33 0 -58.5 18t-25.5 56q0 31 34 78t68 90t34 63
q0 13 -11.5 20.5t-25.5 7.5q-5 0 -17 -3t-19 -3q-12 0 -12 8q0 4 5.5 8t10.5 4q4 0 13 -2t14 -2q17 0 43 14q27 16 46.5 48.5t41.5 77.5t48 76q28 32 83 39q14 2 48 2q7 0 7 -5t-6 -5z" />
    <glyph glyph-name="bar" unicode="|" horiz-adv-x="222" 
d="M168 -250h-20v1000h20v-1000z" />
    <glyph glyph-name="braceright" unicode="}" horiz-adv-x="300" 
d="M386 429q0 -34 -25.5 -73.5t-51 -70.5t-25.5 -45q0 -10 10 -10q6 0 21 3.5t22 3.5t7 -8q0 -15 -13 -15q-25 0 -42 -10q-33 -20 -80 -115t-76 -129q-24 -27 -60.5 -44.5t-73.5 -17.5q-4 0 -5 2q-1 3 4 5h2q59 10 94 72q79 136 106 170q39 48 87 66q4 1 4 5q0 1 -6.5 4.5
t-13 12.5t-6.5 23q0 28 42.5 99t42.5 101q0 27 -20 30q-5 1 -6.5 3.5t0.5 4.5t5 2q21 0 39 -24t18 -45z" />
    <glyph glyph-name="asciitilde" unicode="~" horiz-adv-x="300" 
d="M400 154q-11 -15 -18 -23t-21 -16t-30 -8q-22 0 -58.5 19t-60.5 19q-30 0 -46 -41l-20 20q25 47 69 47q23 0 64 -18.5t53 -18.5q22 0 48 40z" />
    <glyph glyph-name="uni00A0" unicode="&#xa0;" horiz-adv-x="200" 
 />
    <glyph glyph-name="exclamdown" unicode="&#xa1;" horiz-adv-x="250" 
d="M-22 -162q-4 2 -3 5t4 3q10 0 20 8q37 35 91.5 118t95.5 167q2 4 5 3t3 -5q-61 -168 -114 -276q-10 -19 -16.5 -25t-22.5 -6q-42 0 -63 8zM178 207q0 15 12 28t27 13q10 0 18 -8t8 -18q0 -18 -9.5 -31t-26.5 -13q-12 0 -20.5 9t-8.5 20z" />
    <glyph glyph-name="cent" unicode="&#xa2;" horiz-adv-x="367" 
d="M340 349l1 2q-15 6 -35 6q-40 0 -74.5 -42t-51.5 -92t-17 -86q0 -49 26 -53q78 147 151 265zM447 490q-1 -13 -17 -34q-22 -28 -50 -66q40 -11 44 -42q0 -7 -4 -8q-15 -7 -32 -36q-3 -4 -5 -4q-3 0 -3 7q-1 14 -10 25.5t-19 13.5q-76 -120 -153 -264q84 0 192 121
q5 5 6 1q1 -1 0 -4q-40 -54 -102 -95.5t-109 -47.5q-78 -152 -78 -211q0 -4 3 -13q0 -9 -6 -1q-18 25 -18 33q0 17 90 190h-18q-68 0 -68 56q0 48 43.5 114.5t111 117t124.5 50.5q54 90 68 105q4 2 7 -1t3 -7z" />
    <glyph glyph-name="sterling" unicode="&#xa3;" horiz-adv-x="362" 
d="M476 427q0 -10 -2 -13q-12 -20 -16 -39q-1 -8 -5 -5l-2 5q-3 13 -21 28t-44 15q-41 0 -66.5 -20t-51.5 -68q-39 -72 -47 -86q48 0 138 6q3 0 8 -4t5 -8q0 -3 -10 -3q-2 0 -48.5 1t-96.5 1q-42 -68 -103 -125q-4 -4 2 -4q32 6 46 6q65 0 142 -58q52 -39 90 -39q20 0 42 15
t37 43q0 4 4 3q3 0 3 -5q-10 -23 -55 -64.5t-80 -41.5q-52 0 -104 52q-11 11 -28 30.5t-26 29t-24 17.5t-32 8q-41 0 -74 -46q-6 -8 -13 -18.5l-11 -16.5t-8.5 -12t-8 -8.5t-7.5 -2.5q-7 0 -11.5 5.5t-4.5 11.5q0 23 10 30q14 11 42.5 26t46.5 29q62 47 102 134
q-46 -1 -64 -6q-3 0 -7.5 4.5t-4.5 5.5q0 3 7 3q41 0 72 1q21 44 48 87q29 45 85 85t106 40q40 0 40 -29z" />
    <glyph glyph-name="currency" unicode="&#xa4;" horiz-adv-x="500" 
d="M76 49l-10 13q5 6 89 70q-13 30 -13 58q0 84 51 140q-1 6 -31 30.5t-46 36.5l11 12q6 -7 38.5 -37.5t35.5 -34.5q55 52 140 52q69 0 109 -42q3 2 37 28t47 35l6 -13q-3 0 -19 -12t-36 -26.5t-28 -19.5q24 -35 24 -88q0 -54 -42 -117q6 -4 41.5 -35t37.5 -33l-13 -8
q-15 17 -76 69q-16 -22 -55 -44t-86 -22q-87 0 -127 61q-19 -14 -49.5 -40t-35.5 -33zM337 381q-77 0 -127.5 -54.5t-50.5 -121.5q0 -60 31 -97t95 -37q78 0 129 54t51 122q0 59 -35 96.5t-93 37.5z" />
    <glyph glyph-name="yen" unicode="&#xa5;" horiz-adv-x="439" 
d="M628 467q0 -4 -8 -8q-103 -47 -313 -223q-13 -8 -2 -8q17 0 54.5 2t40.5 2q6 0 6 -4q-3 -8 -13 -8q-37 0 -93 -2q-8 0 -13 -9q-10 -20 -15 -31q-3 -7 2 -7q18 0 48 2t42 2q5 0 5 -5q0 -7 -8 -7q-56 0 -89 -2q-9 0 -14 -9q-22 -40 -61 -115q-5 -8 -5 -15q0 -11 24 -11
q7 0 21 1t17 1q7 0 7 -7q0 -6 -7 -6q-26 3 -84 3q-49 0 -121 -3q-8 0 -8 8q0 6 11 6q43 0 53 2q9 3 23 22q24 31 65 109q2 4 2.5 6.5t-1.5 3.5t-7 1q-37 0 -98 -9q-6 0 -6 3q8 10 24 12q8 0 29 1.5t38 2t25 0.5q7 0 10 7q18 28 18 38q0 3 -5 3q-13 0 -34 -1t-36.5 -2.5
t-16.5 -1.5q-8 0 -8 2t7 6.5t11 4.5q60 0 81 2q9 1 14 11q21 40 21 83q0 101 -87 101q-65 0 -110 -62q-7 -7 -7 4q61 83 164 83q49 0 74 -30.5t25 -75.5q0 -50 -20 -99q160 144 295 243q6 4 9 4q4 0 14 -9t10 -12z" />
    <glyph glyph-name="brokenbar" unicode="&#xa6;" horiz-adv-x="222" 
d="M208 675v-350h20v350h-20zM208 175v-349h20v349h-20z" />
    <glyph glyph-name="section" unicode="&#xa7;" horiz-adv-x="301" 
d="M364 411q0 -10 -21 -44q-4 -6 -7 -3q-1 1 -1 2q0 2 1.5 5.5t1.5 4.5q0 12 -15.5 22.5t-35.5 10.5q-37 0 -52 -16.5t-15 -36.5q0 -6 2 -13t4 -12t7 -13.5t8 -13t10.5 -15.5t10.5 -16l22 -33t12.5 -27.5t6.5 -37.5q0 -20 -15.5 -47.5t-41.5 -46.5q0 -56 -49.5 -99
t-124.5 -43q-36 0 -62.5 21.5t-26.5 61.5q0 39 11 63q5 15 5 -1q-5 -25 -5 -33q0 -35 32.5 -60t82.5 -25q108 0 108 75q0 36 -61 100q-37 40 -37 83q0 56 72 91q0 37 38 79.5t90 42.5q45 0 45 -26zM233 223q-25 32 -32 48.5t-10 35.5q-11 -5 -21 -18t-10 -29q0 -12 1 -18.5
t8.5 -20.5t23.5 -35q51 -60 52 -97q26 19 26 55q0 20 -7 34t-31 45z" />
    <glyph glyph-name="dieresis" unicode="&#xa8;" 
d="M211 365q0 -16 -13.5 -30.5t-29.5 -14.5q-14 0 -14 15q0 17 12 31.5t29 14.5q16 0 16 -16zM109 367q0 -15 -13.5 -30t-28.5 -15t-15 15q0 16 12.5 31t28.5 15t16 -16z" />
    <glyph glyph-name="copyright" unicode="&#xa9;" horiz-adv-x="641" 
d="M193 216q0 -104 81 -104q29 0 56 16.5t35 28.5q3 5 8.5 2.5t-0.5 -7.5q-64 -58 -130 -58q-116 0 -116 109q0 66 53.5 115.5t122.5 49.5q38 0 64 -12t35 -25q11 -15 0 -22q-7 -4 -23.5 -22.5t-20.5 -26.5q-3 -8 -8 -6q-3 1 1 4q4 5 9 20t5 26q0 21 -14.5 38.5t-50.5 17.5
q-50 0 -78.5 -49.5t-28.5 -94.5zM184 7q10 -3 12 -4l-8 -2q-3 1 -6 1q-64 8 -110.5 51t-46.5 117q0 42 16.5 87.5t48.5 88.5t88.5 71t126.5 28q87 0 147.5 -53.5t60.5 -149.5q0 -86 -68 -164t-160 -78q-81 0 -112 48q-4 6 -3 7q2 3 10 -7q32 -41 110 -41q69 0 132.5 62
t63.5 173q0 34 -8.5 65.5t-28 62.5t-58.5 49.5t-92 18.5q-66 0 -117 -25.5t-79 -65.5t-41.5 -80.5t-13.5 -77.5q0 -51 13.5 -88t36.5 -55.5t43 -27t43 -11.5z" />
    <glyph glyph-name="ordfeminine" unicode="&#xaa;" horiz-adv-x="269" 
d="M340 211q9 8 2 10q-3 0 -5 -2q-14 -16 -35.5 -29.5t-38.5 -13.5q-22 0 -22 28q0 29 23 88.5t52 105.5q2 4 2 5t-6.5 8.5t-6.5 14.5q0 6 -4.5 7t-7.5 -4q-15 -19 -31 -53q-47 0 -120 -70.5t-73 -110.5q0 -18 17 -18q26 0 69 41t78 90q-40 -80 -40 -128q0 -33 27 -33
q48 0 120 64zM257 366q-20 -38 -47.5 -74t-47.5 -55t-26 -19q-8 0 -8 10q0 32 43 85t86 53z" />
    <glyph glyph-name="guillemotleft" unicode="&#xab;" horiz-adv-x="360" 
d="M366 219q0 -4 -3 -6q-1 -1 -103 -84q-6 -5 -6 -10q0 -20 43 -116q1 -2 1 -4q0 -4 -5 -5q-10 -2 -30 -14q-3 0 -4 5q-7 20 -18 49t-17.5 47t-6.5 20q0 5 6 10q51 40 134 112q2 2 4 2q5 0 5 -6zM306 228q0 -3 -6 -7q-23 -13 -129 -100q-5 -4 -5 -10q0 -17 39 -117l2 -6
q0 -3 -3 -3q-10 -2 -35 -10q-3 0 -5 8q-8 35 -33 116q0 4 8 10q59 44 157 124q3 3 5 3q5 0 5 -8z" />
    <glyph glyph-name="logicalnot" unicode="&#xac;" horiz-adv-x="400" 
d="M350 185q-26 -46 -43 -97l-29 1q4 11 37 77q-81 6 -182 2l9 24q178 -6 203 -4z" />
    <glyph glyph-name="uni00AD" unicode="&#xad;" horiz-adv-x="316" 
d="M316 136q0 -11 -12 -11q-13 0 -68.5 -0.5t-84.5 -0.5q-11 0 -11 9q0 3 4 7.5t10 4.5q7 0 27.5 -0.5t32.5 -0.5q22 0 54 1t39 1q9 0 9 -10z" />
    <glyph glyph-name="registered" unicode="&#xae;" horiz-adv-x="400" 
d="M473 351q0 -73 -52.5 -129t-142.5 -56q-58 0 -93 30t-35 87q0 29 11 60t33 60t61 47.5t88 18.5q130 0 130 -118zM456 347q0 58 -26 87t-86 29q-85 0 -130.5 -51.5t-45.5 -126.5q0 -56 33 -84.5t88 -28.5q80 0 123.5 53.5t43.5 121.5zM290 333h2q78 0 78 53
q0 16 -7.5 23.5t-28.5 7.5h-1q-13 -20 -43 -84zM385 230h-45q-22 42 -55 92q-15 -30 -39 -92h-40q60 115 92 195h35q40 0 57.5 -7.5t17.5 -30.5q0 -56 -89 -59q43 -69 66 -98z" />
    <glyph glyph-name="macron" unicode="&#xaf;" 
d="M214 341l-10 -21l-126 -2l6 21z" />
    <glyph glyph-name="degree" unicode="&#xb0;" horiz-adv-x="228" 
d="M306 428q0 -24 -17.5 -40.5t-46.5 -16.5q-18 0 -30 9.5t-12 26.5q0 22 16.5 39.5t45.5 17.5q44 0 44 -36zM288 424q0 34 -27 34q-20 0 -31.5 -13.5t-11.5 -33.5q0 -34 28 -34q18 0 30 14.5t12 32.5z" />
    <glyph glyph-name="plusminus" unicode="&#xb1;" horiz-adv-x="400" 
d="M369 158l-14 -21q-21 -1 -89 -1q-40 -76 -43 -99l-23 17q7 19 44 83q-36 0 -90 3l11 23q35 -7 89 -7q28 51 44 76l30 -4q-28 -33 -52 -73q66 0 93 3zM309 19l-12 -23q-110 8 -219 3l14 24q24 -2 102.5 -3.5t114.5 -0.5z" />
    <glyph glyph-name="twosuperior" unicode="&#xb2;" horiz-adv-x="250" 
d="M257 419q-22 0 -37 -15q-4 -4 -7 1q-2 3 3 6q42 29 72 29q46 0 46 -37q0 -36 -118 -109q-4 -2 0 -4q22 -11 61.5 -22.5t57.5 -11.5q25 0 41 21q3 4 6.5 1.5t-1.5 -7.5q-19 -19 -47 -28t-47 -9q-40 0 -108 28q-4 2 -7 2q-2 0 -8 -3q-11 -6 -25 -18q-7 -3 -8 1q0 3 3 6
q38 24 60 38q45 28 68.5 51t23.5 49q0 31 -29 31z" />
    <glyph glyph-name="threesuperior" unicode="&#xb3;" horiz-adv-x="250" 
d="M353 425q0 -19 -25 -33q-39 -21 -39 -28q0 -4 13 -24q12 -17 12 -34q0 -23 -42.5 -52t-83.5 -29q-12 0 -24 11t-12 27q0 11 4 19h3q0 -38 56 -38q61 0 61 46q0 14 -18 40q-8 11 -8 19t8 14t35 20q20 10 20 26q0 24 -26 24q-33 0 -56 -25q-6 1 -3 10q5 5 28 17l24 12
q30 6 35 6q13 0 25.5 -6.5t12.5 -21.5z" />
    <glyph glyph-name="acute" unicode="&#xb4;" 
d="M199 393l1 -4q0 -2 -3 -5q-14 -11 -163 -111q-6 -4 -7 0q-1 1 1 2q21 18 74 62.5t80 66.5q4 2 5 2q2 0 6.5 -5t5.5 -8z" />
    <glyph glyph-name="mu" unicode="&#xb5;" horiz-adv-x="400" 
d="M109 73q-105 -179 -105 -277q0 -31 7 -44q2 -3 0.5 -4.5t-4.5 0.5q-6 10 -36 23q-3 6 -3 23q0 53 133 277q61 102 79 135q2 5 20 5q27 0 42 10q6 0 0 -9q-56 -75 -80 -137q-9 -22 -9 -40q0 -21 19 -21q27 0 59.5 48.5t81.5 144.5q1 5 8 5q38 0 56 9q5 0 3 -6
q-26 -31 -60 -95t-34 -95q0 -14 14 -14t37.5 20.5t40.5 46.5q5 7 5 -4q-17 -29 -52.5 -57t-68.5 -28q-35 0 -35 23q0 15 14 45q1 3 0 3q-2 0 -7 -6q-9 -11 -19 -22t-20.5 -19.5t-25 -13.5t-32.5 -5q-20 0 -30 10t-10 25q0 16 12 44z" />
    <glyph glyph-name="paragraph" unicode="&#xb6;" horiz-adv-x="500" 
d="M483 260q-58 -6 -124 -129q-17 4 -38 47q-14 -14 -51 -34q16 -18 28 -48q41 29 58 30q-39 -61 -39 -94q0 -12 19 -20zM496 269q45 0 45 21q0 13 -15 39q-15 -33 -30 -60zM236 -234q6 0 3 -4q-1 -2 -3 -2l-13 -1q-7 0 -14 7t-8 18q-9 -9 -27.5 -16t-33.5 -7q-8 0 -6 6
q33 0 63 30t89 129l48 80l-83 -6q-41 0 -70 22t-29 62q0 88 82 136.5t197 48.5h57q29 55 32 74q11 5 22 20q3 -1 3 -5q0 -8 17 -48q3 -9 3 -17q0 -29 -73 -33l-261 -446q-10 -20 -10 -34t15 -14z" />
    <glyph glyph-name="periodcentered" unicode="&#xb7;" horiz-adv-x="220" 
d="M216 212q0 -14 -18.5 -36t-35.5 -22q-23 0 -23 20q0 22 16.5 40t36.5 18q24 0 24 -20z" />
    <glyph glyph-name="cedilla" unicode="&#xb8;" 
d="M167 -6q-11 -3 -24 -11.5t-13 -16.5q0 -6 16 -14t16 -19t-23 -29q-33 -28 -77 -50q-4 -2 -8 -2q-2 0 -5 3.5t-3 5.5t5 4q11 3 24.5 8t28.5 14.5t15 18.5q0 8 -16 17t-16 18q0 12 29 31t48 27q4 0 5.5 -1t-2.5 -4z" />
    <glyph glyph-name="onesuperior" unicode="&#xb9;" horiz-adv-x="250" 
d="M354 429q0 -2 -3 -5q-29 -44 -87 -159q-2 -4 -2 -5q0 -5 10 -5q7 0 22 1t22 1q9 0 9 -6q0 -5 -15 -5q-3 0 -24.5 0.5t-39.5 0.5q-23 -1 -51 -4t-36 -3q-9 2 -9 7q0 3 7 4q28 0 37 1q13 1 19 11q25 37 53.5 90t28.5 62t-21 9q-8 0 -22 -1t-22 -1q-7 0 -10 5q1 3 5 4
q25 0 69 2t53 2q7 0 7 -6z" />
    <glyph glyph-name="ordmasculine" unicode="&#xba;" horiz-adv-x="237" 
d="M286 360q0 28 -20 28q-19 0 -59.5 -31.5t-75 -77t-34.5 -78.5q0 -35 33 -35q47 0 101.5 67t54.5 127zM244 335q0 -64 -28.5 -105t-53.5 -41q-19 0 -19 27q0 31 12 59.5t28.5 46t30.5 27.5t20 10q10 0 10 -24z" />
    <glyph glyph-name="guillemotright" unicode="&#xbb;" horiz-adv-x="360" 
d="M335 116q0 -4 -3 -6q-86 -63 -140 -117q-4 -4 -8 -4q-5 0 -5 5q0 3 5 8q72 61 112 93q2 2 2 4q0 1 -2 5q-9 14 -33 58.5t-24 47.5q0 4 6 7q24 12 26 12q6 0 9 -8q19 -50 51 -94q4 -6 4 -11zM249 114q0 -6 -4 -9q-79 -59 -143 -127q-8 -8 -16 -8t-8 5q0 3 6 8
q66 51 122 102q8 6 8 12q0 4 -4 9q-66 95 -66 106q0 4 5 6q4 1 15 5.5t13 4.5q5 0 9 -7q36 -66 61 -101q2 -4 2 -6z" />
    <glyph glyph-name="onequarter" unicode="&#xbc;" horiz-adv-x="600" 
d="M620 468q-248 -245 -486 -520q-10 -11 -25 -11q-9 0 -9 5q205 213 491 525q5 6 15 6q14 0 14 -5zM468 -6q0 -8 3 -12q-4 -4 -7 -2q-6 13 -25 25q-3 1 -3 9q0 7 26 47q-69 0 -121 -11q-3 0 -3 3q0 2 1 11.5t1 10.5q0 4 6 4q13 2 21 6q38 17 92 52q20 14 20 37q0 13 -3 17
q0 5 13.5 12t23.5 8q6 0 6 -12q0 -10 -12.5 -28t-36.5 -35q-36 -24 -88 -53q-3 -3 1 -5q23 1 87 1q38 56 46 64q15 16 70 38q8 0 2 -4q-29 -18 -48 -44q-11 -15 -33 -54q42 0 54 -3q6 -2 6 -8q0 -13 -14 -29q-3 0 -3 3q3 4 3 9t-2 6q-22 5 -52 5q-31 -52 -31 -68zM354 429
q0 -2 -3 -5q-29 -44 -87 -159q-2 -4 -2 -5q0 -5 10 -5q7 0 22 1t22 1q9 0 9 -6q0 -5 -15 -5q-3 0 -24.5 0.5t-39.5 0.5q-23 -1 -51 -4t-36 -3q-9 2 -9 7q0 3 7 4q28 0 37 1q13 1 19 11q25 37 53.5 90t28.5 62t-21 9q-8 0 -22 -1t-22 -1q-7 0 -10 5q1 3 5 4q25 0 69 2t53 2
q7 0 7 -6z" />
    <glyph glyph-name="onehalf" unicode="&#xbd;" horiz-adv-x="600" 
d="M354 429q0 -2 -3 -5q-29 -44 -87 -159q-2 -4 -2 -5q0 -5 10 -5q7 0 22 1t22 1q9 0 9 -6q0 -5 -15 -5q-3 0 -24.5 0.5t-39.5 0.5q-23 -1 -51 -4t-36 -3q-9 2 -9 7q0 3 7 4q28 0 37 1q13 1 19 11q25 37 53.5 90t28.5 62t-21 9q-8 0 -22 -1t-22 -1q-7 0 -10 5q1 3 5 4
q25 0 69 2t53 2q7 0 7 -6zM620 468q-248 -245 -486 -520q-10 -11 -25 -11q-9 0 -9 5q205 213 491 525q5 6 15 6q14 0 14 -5zM443 181q-22 0 -37 -15q-4 -4 -7 1q0 3 3 6q42 29 72 29q46 0 46 -37q0 -36 -118 -109q-4 -2 0 -4q22 -11 61.5 -22.5t57.5 -11.5q25 0 41 21
q3 4 6.5 1.5t-1.5 -7.5q-19 -19 -47 -28t-47 -9q-40 0 -108 28q-4 2 -7 2q-2 0 -8 -3q-11 -6 -25 -18q-5 -2 -7.5 0.5t2.5 6.5q38 24 60 38q45 28 68.5 51t23.5 49q0 31 -29 31z" />
    <glyph glyph-name="threequarters" unicode="&#xbe;" horiz-adv-x="600" 
d="M620 468q-248 -245 -486 -520q-10 -11 -25 -11q-9 0 -9 5q205 213 491 525q5 6 15 6q14 0 14 -5zM353 425q0 -19 -25 -33q-39 -21 -39 -28q0 -4 13 -24q12 -17 12 -34q0 -23 -42.5 -52t-83.5 -29q-12 0 -24 11t-12 27q0 11 4 19h3q0 -38 56 -38q61 0 61 46q0 14 -18 40
q-8 11 -8 19t8 14t35 20q20 10 20 26q0 24 -26 24q-33 0 -56 -25q-6 1 -3 10q5 5 28 17l24 12q30 6 35 6q13 0 25.5 -6.5t12.5 -21.5zM468 -6q0 -8 3 -12q-4 -4 -7 -2q-6 13 -25 25q-3 1 -3 9q0 7 26 47q-69 0 -121 -11q-3 0 -3 3q0 2 1 11.5t1 10.5q0 4 6 4q13 2 21 6
q38 17 92 52q20 14 20 37q0 13 -3 17q0 5 13.5 12t23.5 8q6 0 6 -12q0 -10 -12.5 -28t-36.5 -35q-36 -24 -88 -53q-3 -3 1 -5q23 1 87 1q38 56 46 64q15 16 70 38q8 0 2 -4q-29 -18 -48 -44q-11 -15 -33 -54q42 0 54 -3q6 -2 6 -8q0 -13 -14 -29q-3 0 -3 3q3 4 3 9t-2 6
q-22 5 -52 5q-31 -52 -31 -68z" />
    <glyph glyph-name="questiondown" unicode="&#xbf;" horiz-adv-x="284" 
d="M10 -117q0 42 30 76.5t98 65.5q79 37 108 62.5t29 54.5q0 24 -36 44q-16 9 -16 23q0 7 15 22t26 15q8 0 18.5 -13t10.5 -20q0 -4 -5 -22t-5 -29q0 -50 23 -89q-2 -28 -98 -75q-96 -45 -124 -68q-40 -33 -40 -72q0 -62 68 -62q40 0 75.5 26t55.5 68q4 4 4 -2q-4 -21 6 -57
q-16 -19 -51 -31.5t-74 -12.5q-52 0 -85 23t-33 73z" />
    <glyph glyph-name="Agrave" unicode="&#xc0;" horiz-adv-x="520" 
d="M228 216q6 -15 88 -15q60 0 80 -4q12 -3 16 8q5 24 13.5 73.5t15.5 90.5t8 44q3 11 -3 8l-7 -5q-42 -34 -108.5 -97t-102.5 -103zM13 -89l-13 59q0 10 7 22.5t13.5 20t24.5 27.5q235 266 409 406q4 3 40 12.5t45 16.5q6 5 7 1t-2 -8q-17 -26 -24 -67q-7 -31 -31.5 -163
t-24.5 -161q0 -47 31 -47q3 0 7 1t10 2t10 2q8 1 8.5 -2t-7.5 -4q-4 -1 -55.5 -16t-66.5 -18q-15 0 -20 20q3 13 11 68.5t9 65.5q0 12 -10.5 23t-30.5 15q-22 5 -75 5q-60 0 -78 2q-117 -115 -173 -222q-10 -18 -15 -58q-1 -6 -6 -3zM493 500q0 -2 -1.5 -2.5t-3.5 1.5
q-28 52 -49 93q-3 6 -3 11q0 3 6 12.5t8 9.5q3 0 4 -4q24 -61 39 -121z" />
    <glyph glyph-name="Aacute" unicode="&#xc1;" horiz-adv-x="520" 
d="M228 216q6 -15 88 -15q60 0 80 -4q12 -3 16 8q5 24 13.5 73.5t15.5 90.5t8 44q3 11 -3 8l-7 -5q-42 -34 -108.5 -97t-102.5 -103zM13 -89l-13 59q0 10 7 22.5t13.5 20t24.5 27.5q235 266 409 406q4 3 40 12.5t45 16.5q6 5 7 1t-2 -8q-17 -26 -24 -67q-7 -31 -31.5 -163
t-24.5 -161q0 -47 31 -47q3 0 7 1t10 2t10 2q8 1 8.5 -2t-7.5 -4q-4 -1 -55.5 -16t-66.5 -18q-15 0 -20 20q3 13 11 68.5t9 65.5q0 12 -10.5 23t-30.5 15q-22 5 -75 5q-60 0 -78 2q-117 -115 -173 -222q-10 -18 -15 -58q-1 -6 -6 -3zM642 612l1 -4q0 -2 -3 -5
q-14 -11 -163 -111q-6 -4 -7 0q0 1 1 2q21 18 74 62.5t80 66.5q4 2 5 2q2 0 6.5 -5t5.5 -8z" />
    <glyph glyph-name="Acircumflex" unicode="&#xc2;" horiz-adv-x="520" 
d="M228 216q6 -15 88 -15q60 0 80 -4q12 -3 16 8q5 24 13.5 73.5t15.5 90.5t8 44q3 11 -3 8l-7 -5q-42 -34 -108.5 -97t-102.5 -103zM13 -89l-13 59q0 10 7 22.5t13.5 20t24.5 27.5q235 266 409 406q4 3 40 12.5t45 16.5q6 5 7 1t-2 -8q-17 -26 -24 -67q-7 -31 -31.5 -163
t-24.5 -161q0 -47 31 -47q3 0 7 1t10 2t10 2q8 1 8.5 -2t-7.5 -4q-4 -1 -55.5 -16t-66.5 -18q-15 0 -20 20q3 13 11 68.5t9 65.5q0 12 -10.5 23t-30.5 15q-22 5 -75 5q-60 0 -78 2q-117 -115 -173 -222q-10 -18 -15 -58q-1 -6 -6 -3zM586 524q0 -12 -4 -15l-23 -17
q-3 0 -3 7q0 16 -2 46.5t-2 38.5q0 6 -4 6q-2 0 -5 -3q-37 -33 -70 -70l-13 -15q-9 0 -9 8q0 4 11 13q46 40 77 71q21 21 32 28q4 2 5 2q4 0 4 -5q1 -16 3.5 -49t2.5 -46z" />
    <glyph glyph-name="Atilde" unicode="&#xc3;" horiz-adv-x="520" 
d="M228 216q6 -15 88 -15q60 0 80 -4q12 -3 16 8q5 24 13.5 73.5t15.5 90.5t8 44q3 11 -3 8l-7 -5q-42 -34 -108.5 -97t-102.5 -103zM13 -89l-13 59q0 10 7 22.5t13.5 20t24.5 27.5q235 266 409 406q4 3 40 12.5t45 16.5q6 5 7 1t-2 -8q-17 -26 -24 -67q-7 -31 -31.5 -163
t-24.5 -161q0 -47 31 -47q3 0 7 1t10 2t10 2q8 1 8.5 -2t-7.5 -4q-4 -1 -55.5 -16t-66.5 -18q-15 0 -20 20q3 13 11 68.5t9 65.5q0 12 -10.5 23t-30.5 15q-22 5 -75 5q-60 0 -78 2q-117 -115 -173 -222q-10 -18 -15 -58q-1 -6 -6 -3zM640 580q-3 -23 -28 -48t-48 -25
q-20 0 -48.5 27.5t-41.5 27.5q-4 0 -8.5 -1t-8.5 -4.5t-6.5 -5t-7 -7t-6 -7t-5.5 -7.5l-5 -7q-5 -7 -8.5 -5t2.5 11q22 28 52 50q17 13 28 13q14 0 42 -28.5t47 -28.5t30 14.5t11 30.5q0 5 4.5 7t4.5 -7z" />
    <glyph glyph-name="Adieresis" unicode="&#xc4;" horiz-adv-x="520" 
d="M228 216q6 -15 88 -15q60 0 80 -4q12 -3 16 8q5 24 13.5 73.5t15.5 90.5t8 44q3 11 -3 8l-7 -5q-42 -34 -108.5 -97t-102.5 -103zM13 -89l-13 59q0 10 7 22.5t13.5 20t24.5 27.5q235 266 409 406q4 3 40 12.5t45 16.5q6 5 7 1t-2 -8q-17 -26 -24 -67q-7 -31 -31.5 -163
t-24.5 -161q0 -47 31 -47q3 0 7 1t10 2t10 2q8 1 8.5 -2t-7.5 -4q-4 -1 -55.5 -16t-66.5 -18q-15 0 -20 20q3 13 11 68.5t9 65.5q0 12 -10.5 23t-30.5 15q-22 5 -75 5q-60 0 -78 2q-117 -115 -173 -222q-10 -18 -15 -58q-1 -6 -6 -3zM619 553q0 -16 -13.5 -30.5t-29.5 -14.5
q-14 0 -14 15q0 17 12 31.5t29 14.5q16 0 16 -16zM517 560q0 -15 -13.5 -30t-28.5 -15t-15 15q0 16 12.5 31t28.5 15t16 -16z" />
    <glyph glyph-name="Aring" unicode="&#xc5;" horiz-adv-x="520" 
d="M228 216q6 -15 88 -15q60 0 80 -4q12 -3 16 8q5 24 13.5 73.5t15.5 90.5t8 44q3 11 -3 8l-7 -5q-42 -34 -108.5 -97t-102.5 -103zM13 -89l-13 59q0 10 7 22.5t13.5 20t24.5 27.5q235 266 409 406q4 3 40 12.5t45 16.5q6 5 7 1t-2 -8q-17 -26 -24 -67q-7 -31 -31.5 -163
t-24.5 -161q0 -47 31 -47q3 0 7 1t10 2t10 2q8 1 8.5 -2t-7.5 -4q-4 -1 -55.5 -16t-66.5 -18q-15 0 -20 20q3 13 11 68.5t9 65.5q0 12 -10.5 23t-30.5 15q-22 5 -75 5q-60 0 -78 2q-117 -115 -173 -222q-10 -18 -15 -58q-1 -6 -6 -3zM580 565q0 -25 -19.5 -42t-43.5 -17
q-18 0 -29.5 10.5t-11.5 26.5q0 26 19 42t43 16q18 0 30 -10t12 -26zM558 562q0 29 -23 29q-18 0 -28.5 -14t-10.5 -32q0 -28 25 -28q17 0 27 13.5t10 31.5z" />
    <glyph glyph-name="AE" unicode="&#xc6;" horiz-adv-x="675" 
d="M765 435q0 -4 -3 -8q-2 -3 -6 -13.5t-4 -11.5q-4 -11 -9 1q-4 12 -9 13q-53 9 -114 9q-16 0 -24 -10q-34 -45 -110 -180q90 0 194 9q-6 -8 -8 -16q-2 -6 -9 -6h-1q-68 2 -101 2q-18 0 -41 -0.5t-41 -0.5q-46 -82 -68 -133q-10 -21 -10 -40q0 -46 58 -46q146 0 242 63
q5 2 6.5 0t-3.5 -7q-5 -4 -7.5 -12.5t-4.5 -11.5q-7 -13 -29 -18q-90 -20 -200 -25q-95 0 -126 7.5t-31 32.5q0 16 12 38q21 39 86 151q-124 0 -186 -6q-48 -34 -114 -109.5t-86 -132.5q-8 -18 -4 -40q-6 -13 -9 2q0 2 -4 15.5t-6.5 25.5t-2.5 16q0 14 5 23q7 14 26 38.5
t66.5 72t106.5 90.5q-2 6 -2 13q0 9 33 9q58 42 153.5 107.5t97.5 67.5q3 2 1 5.5t-8 3.5q-92 0 -133 -7q-10 -2 -13 -6q-6 -4 -6 0q3 8 5 20q2 6 11 6h12q15 0 72 -1t105 -1q27 0 90.5 2.5t70.5 2.5q17 1 56 1q24 0 24 -5zM513 420v-1q-120 -74 -264 -181q42 -3 162 -3
q87 156 102 185z" />
    <glyph glyph-name="Ccedilla" unicode="&#xc7;" horiz-adv-x="516" 
d="M558 317l-9 -3q5 18 5 34q0 35 -30.5 62t-87.5 27q-52 0 -105 -43q-55 -45 -108 -138t-53 -176q0 -82 93 -82q154 0 280 174q3 4 5 4q4 0 4 -14q0 -10 -8 -24q-98 -148 -287 -148q-163 0 -163 117q0 72 53 150.5t122 127.5q86 61 174 61q93 0 146 -31q8 -4 8 -12
q-25 -45 -39 -86zM309 -6q-11 -3 -24 -11.5t-13 -16.5q0 -6 16 -14t16 -19t-23 -29q-33 -28 -77 -50q-4 -2 -8 -2q-2 0 -5 3.5t-3 5.5t5 4q11 3 24.5 8t28.5 14.5t15 18.5q0 8 -16 17t-16 18q0 12 29 31t48 27q4 0 5.5 -1t-2.5 -4z" />
    <glyph glyph-name="Egrave" unicode="&#xc8;" horiz-adv-x="484" 
d="M505 67q1 1 2.5 -0.5t1.5 -3.5q-10 -9 -21 -26q-7 -13 -28 -18q-108 -27 -210 -27q-158 0 -158 41q0 18 11 38q3 5 25.5 44.5t41.5 73t19 34.5q0 5 -17 5q-5 0 -5 3q0 7 12 9q23 3 34 24q83 149 83 159q0 4 -6 4q-74 0 -113 -10l-2 1q1 16 8 23q82 -4 131 -4q10 0 108 3
t134 3q6 0 6 -5q-2 -9 -18 -42l-3 1q0 17 -7 19q-37 12 -118 12q-24 0 -31 -10q-42 -56 -106 -170q-5 -9 6 -9q18 -1 57 -1q73 0 133 13l3 -3q-7 -11 -10 -21q-1 -4 -8 -4q-70 2 -101 2q-60 0 -85 -1q-8 0 -11 -6q-44 -77 -65 -127q-10 -23 -10 -41q0 -47 71 -47
q62 0 135 17.5t111 46.5zM383 500q0 -2 -1.5 -2.5t-3.5 1.5q-28 52 -49 93q-3 6 -3 11q0 3 6 12.5t8 9.5q3 0 4 -4q24 -61 39 -121z" />
    <glyph glyph-name="Eacute" unicode="&#xc9;" horiz-adv-x="484" 
d="M505 67q1 1 2.5 -0.5t1.5 -3.5q-10 -9 -21 -26q-7 -13 -28 -18q-108 -27 -210 -27q-158 0 -158 41q0 18 11 38q3 5 25.5 44.5t41.5 73t19 34.5q0 5 -17 5q-5 0 -5 3q0 7 12 9q23 3 34 24q83 149 83 159q0 4 -6 4q-74 0 -113 -10l-2 1q1 16 8 23q82 -4 131 -4q10 0 108 3
t134 3q6 0 6 -5q-2 -9 -18 -42l-3 1q0 17 -7 19q-37 12 -118 12q-24 0 -31 -10q-42 -56 -106 -170q-5 -9 6 -9q18 -1 57 -1q73 0 133 13l3 -3q-7 -11 -10 -21q-1 -4 -8 -4q-70 2 -101 2q-60 0 -85 -1q-8 0 -11 -6q-44 -77 -65 -127q-10 -23 -10 -41q0 -47 71 -47
q62 0 135 17.5t111 46.5zM532 612l1 -4q0 -2 -3 -5q-14 -11 -163 -111q-6 -4 -7 0q0 1 1 2q21 18 74 62.5t80 66.5q4 2 5 2q2 0 6.5 -5t5.5 -8z" />
    <glyph glyph-name="Ecircumflex" unicode="&#xca;" horiz-adv-x="484" 
d="M505 67q1 1 2.5 -0.5t1.5 -3.5q-10 -9 -21 -26q-7 -13 -28 -18q-108 -27 -210 -27q-158 0 -158 41q0 18 11 38q3 5 25.5 44.5t41.5 73t19 34.5q0 5 -17 5q-5 0 -5 3q0 7 12 9q23 3 34 24q83 149 83 159q0 4 -6 4q-74 0 -113 -10l-2 1q1 16 8 23q82 -4 131 -4q10 0 108 3
t134 3q6 0 6 -5q-2 -9 -18 -42l-3 1q0 17 -7 19q-37 12 -118 12q-24 0 -31 -10q-42 -56 -106 -170q-5 -9 6 -9q18 -1 57 -1q73 0 133 13l3 -3q-7 -11 -10 -21q-1 -4 -8 -4q-70 2 -101 2q-60 0 -85 -1q-8 0 -11 -6q-44 -77 -65 -127q-10 -23 -10 -41q0 -47 71 -47
q62 0 135 17.5t111 46.5zM455 524q0 -12 -4 -15l-23 -17q-3 0 -3 7q0 16 -2 46.5t-2 38.5q0 6 -4 6q-2 0 -5 -3q-37 -33 -70 -70l-13 -15q-9 0 -9 8q0 4 11 13q46 40 77 71q21 21 32 28q4 2 5 2q4 0 4 -5q1 -16 3.5 -49t2.5 -46z" />
    <glyph glyph-name="Edieresis" unicode="&#xcb;" horiz-adv-x="484" 
d="M505 67q1 1 2.5 -0.5t1.5 -3.5q-10 -9 -21 -26q-7 -13 -28 -18q-108 -27 -210 -27q-158 0 -158 41q0 18 11 38q3 5 25.5 44.5t41.5 73t19 34.5q0 5 -17 5q-5 0 -5 3q0 7 12 9q23 3 34 24q83 149 83 159q0 4 -6 4q-74 0 -113 -10l-2 1q1 16 8 23q82 -4 131 -4q10 0 108 3
t134 3q6 0 6 -5q-2 -9 -18 -42l-3 1q0 17 -7 19q-37 12 -118 12q-24 0 -31 -10q-42 -56 -106 -170q-5 -9 6 -9q18 -1 57 -1q73 0 133 13l3 -3q-7 -11 -10 -21q-1 -4 -8 -4q-70 2 -101 2q-60 0 -85 -1q-8 0 -11 -6q-44 -77 -65 -127q-10 -23 -10 -41q0 -47 71 -47
q62 0 135 17.5t111 46.5zM506 553q0 -16 -13.5 -30.5t-29.5 -14.5q-14 0 -14 15q0 17 12 31.5t29 14.5q16 0 16 -16zM404 560q0 -15 -13.5 -30t-28.5 -15t-15 15q0 16 12.5 31t28.5 15t16 -16z" />
    <glyph glyph-name="Igrave" unicode="&#xcc;" horiz-adv-x="250" 
d="M36 3q16 2 28 17q42 51 127 190t103 194q2 6 2 11q0 11 -27 11q-34 0 -55 -5l-3 1q1 8 6 12q127 3 188 17q5 -3 5 -8q0 -3 -6 -4q-10 -3 -23 -25q-125 -234 -228 -380q-16 -22 -40 -28q-37 -10 -75 -8q-2 1 -2 5zM372 500q0 -2 -2 -2.5t-3 1.5q-28 52 -49 93q-3 6 -3 11
q0 3 6 12.5t8 9.5q3 0 4 -4q24 -61 39 -121z" />
    <glyph glyph-name="Iacute" unicode="&#xcd;" horiz-adv-x="250" 
d="M36 3q16 2 28 17q42 51 127 190t103 194q2 6 2 11q0 11 -27 11q-34 0 -55 -5l-3 1q1 8 6 12q127 3 188 17q5 -3 5 -8q0 -3 -6 -4q-10 -3 -23 -25q-125 -234 -228 -380q-16 -22 -40 -28q-37 -10 -75 -8q-2 1 -2 5zM525 612l1 -4q0 -2 -3 -5q-14 -11 -163 -111q-6 -4 -7 0
q-1 1 1 2q21 18 74 62.5t80 66.5q4 2 5 2q2 0 6.5 -5t5.5 -8z" />
    <glyph glyph-name="Icircumflex" unicode="&#xce;" horiz-adv-x="250" 
d="M36 3q16 2 28 17q42 51 127 190t103 194q2 6 2 11q0 11 -27 11q-34 0 -55 -5l-3 1q1 8 6 12q127 3 188 17q5 -3 5 -8q0 -3 -6 -4q-10 -3 -23 -25q-125 -234 -228 -380q-16 -22 -40 -28q-37 -10 -75 -8q-2 1 -2 5zM447 524q0 -12 -4 -15l-23 -17q-3 0 -3 7q0 16 -2 46.5
t-2 38.5q0 6 -4 6q-2 0 -5 -3q-37 -33 -70 -70l-13 -15q-9 0 -9 8q0 4 11 13q46 40 77 71q21 21 32 28q4 2 5 2q4 0 4 -5q1 -16 3.5 -49t2.5 -46z" />
    <glyph glyph-name="Idieresis" unicode="&#xcf;" horiz-adv-x="250" 
d="M36 3q16 2 28 17q42 51 127 190t103 194q2 6 2 11q0 11 -27 11q-34 0 -55 -5l-3 1q1 8 6 12q127 3 188 17q5 -3 5 -8q0 -3 -6 -4q-10 -3 -23 -25q-125 -234 -228 -380q-16 -22 -40 -28q-37 -10 -75 -8q-2 1 -2 5zM478 553q0 -16 -13.5 -30.5t-29.5 -14.5q-14 0 -14 15
q0 17 12 31.5t29 14.5q16 0 16 -16zM376 560q0 -15 -13.5 -30t-28.5 -15t-15 15q0 16 12.5 31t28.5 15t16 -16z" />
    <glyph glyph-name="Eth" unicode="&#xd0;" horiz-adv-x="610" 
d="M71 -3l-6 5q25 28 41 58q4 8 16.5 29.5t34.5 59.5t38 65q-38 -3 -56 -3q-16 0 -16 17q0 2 2 2q9 -3 37 -3q1 0 15.5 0.5t25.5 0.5q91 160 107 197q0 5 -8 5q-22 0 -63.5 -6.5t-62.5 -6.5q-18 0 -18 16q0 14 5 14l7 -3q7 -3 17.5 -6t18.5 -3q27 0 97 5q99 3 129 3
q221 0 221 -140q0 -82 -57.5 -164.5t-134.5 -116.5q-70 -30 -164 -30q-109 0 -157 25q-10 5 -17 5q-20 0 -52 -25zM575 309q0 52 -36 88t-121 36q-19 0 -26 -12q-48 -74 -112 -190q21 0 56 0.5t42 0.5q22 0 25 -1q3 0 4.5 -4.5t0 -8.5t-3.5 -4q-5 4 -31 4q-62 0 -101 -1
q-43 -80 -82 -157q-4 -8 -4 -12q0 -6 6 -12q16 -17 48.5 -26.5t62.5 -9.5q111 0 191.5 90t80.5 219z" />
    <glyph glyph-name="Ntilde" unicode="&#xd1;" horiz-adv-x="554" 
d="M110 -15h-3q-4 4 -13 20t-9 24q0 14 20 47q25 44 101 170q50 82 66 124q5 13 5 27q0 26 -25 26q-21 0 -49 -2q-9 0 -9 14q0 4 3 4q20 -6 53 -6q29 0 96 21q6 0 8 -9q2 -29 8 -50q8 -32 25 -80t41 -108.5t33 -86.5q7 -16 13 -16q4 0 11 15q118 239 183 339q41 63 79 63
q12 0 23.5 -9t14.5 -19q0 -2 -3 -2q-69 0 -117 -69q-83 -117 -177 -325q-38 -86 -50 -111q-4 -7 -6 -7q-4 0 -9 7q-41 147 -123 352q-6 13 -11 13t-13 -12q-99 -152 -145 -257q-21 -48 -21 -97zM647 580q-3 -23 -28 -48t-48 -25q-20 0 -48.5 27.5t-41.5 27.5q-4 0 -8.5 -1
t-8.5 -4.5t-6.5 -5t-7 -7t-6 -7t-6.5 -7.5l-4 -7q-5 -7 -8.5 -5t2.5 11q22 28 52 50q17 13 28 13q14 0 42 -28.5t47 -28.5t30 14.5t11 30.5q0 5 4.5 7t4.5 -7z" />
    <glyph glyph-name="Ograve" unicode="&#xd2;" horiz-adv-x="605" 
d="M666 319q0 -125 -107.5 -226.5t-244.5 -101.5q-42 0 -73.5 5t-60.5 18t-44.5 40t-15.5 67q0 61 41.5 134.5t92.5 116.5q87 75 219 75q49 0 89.5 -10t72 -40.5t31.5 -77.5zM591 326q0 113 -122 113q-98 0 -164 -80q-41 -49 -75.5 -120.5t-34.5 -127.5q0 -111 118 -111
q70 0 136 51.5t104 127.5t38 147zM477 500q0 -2 -1.5 -2.5t-3.5 1.5q-28 52 -49 93q-3 6 -3 11q0 3 6 12.5t8 9.5q3 0 4 -4q24 -61 39 -121z" />
    <glyph glyph-name="Oacute" unicode="&#xd3;" horiz-adv-x="605" 
d="M666 319q0 -125 -107.5 -226.5t-244.5 -101.5q-42 0 -73.5 5t-60.5 18t-44.5 40t-15.5 67q0 61 41.5 134.5t92.5 116.5q87 75 219 75q49 0 89.5 -10t72 -40.5t31.5 -77.5zM591 326q0 113 -122 113q-98 0 -164 -80q-41 -49 -75.5 -120.5t-34.5 -127.5q0 -111 118 -111
q70 0 136 51.5t104 127.5t38 147zM644 612l1 -4q0 -2 -3 -5q-14 -11 -163 -111q-6 -4 -7 0q-1 1 1 2q21 18 74 62.5t80 66.5q4 2 5 2q2 0 6.5 -5t5.5 -8z" />
    <glyph glyph-name="Ocircumflex" unicode="&#xd4;" horiz-adv-x="605" 
d="M666 319q0 -125 -107.5 -226.5t-244.5 -101.5q-42 0 -73.5 5t-60.5 18t-44.5 40t-15.5 67q0 61 41.5 134.5t92.5 116.5q87 75 219 75q49 0 89.5 -10t72 -40.5t31.5 -77.5zM591 326q0 113 -122 113q-98 0 -164 -80q-41 -49 -75.5 -120.5t-34.5 -127.5q0 -111 118 -111
q70 0 136 51.5t104 127.5t38 147zM564 524q0 -12 -4 -15l-23 -17q-3 0 -3 7q0 16 -2 46.5t-2 38.5q0 6 -4 6q-2 0 -5 -3q-37 -33 -70 -70l-13 -15q-9 0 -9 8q0 4 11 13q46 40 77 71q21 21 32 28q4 2 5 2q4 0 4 -5q1 -16 3.5 -49t2.5 -46z" />
    <glyph glyph-name="Otilde" unicode="&#xd5;" horiz-adv-x="605" 
d="M666 319q0 -125 -107.5 -226.5t-244.5 -101.5q-42 0 -73.5 5t-60.5 18t-44.5 40t-15.5 67q0 61 41.5 134.5t92.5 116.5q87 75 219 75q49 0 89.5 -10t72 -40.5t31.5 -77.5zM591 326q0 113 -122 113q-98 0 -164 -80q-41 -49 -75.5 -120.5t-34.5 -127.5q0 -111 118 -111
q70 0 136 51.5t104 127.5t38 147zM600 580q-3 -23 -28 -48t-48 -25q-20 0 -48.5 27.5t-41.5 27.5q-4 0 -8.5 -1t-8.5 -4.5t-6.5 -5t-7 -7t-6 -7t-5.5 -7.5l-5 -7q-5 -7 -8.5 -5t2.5 11q22 28 52 50q17 13 28 13q14 0 42 -28.5t47 -28.5t30 14.5t11 30.5q0 5 4.5 7t4.5 -7z
" />
    <glyph glyph-name="Odieresis" unicode="&#xd6;" horiz-adv-x="605" 
d="M666 319q0 -125 -107.5 -226.5t-244.5 -101.5q-42 0 -73.5 5t-60.5 18t-44.5 40t-15.5 67q0 61 41.5 134.5t92.5 116.5q87 75 219 75q49 0 89.5 -10t72 -40.5t31.5 -77.5zM591 326q0 113 -122 113q-98 0 -164 -80q-41 -49 -75.5 -120.5t-34.5 -127.5q0 -111 118 -111
q70 0 136 51.5t104 127.5t38 147zM586 553q0 -16 -13.5 -30.5t-29.5 -14.5q-14 0 -14 15q0 17 12 31.5t29 14.5q16 0 16 -16zM484 560q0 -15 -13.5 -30t-28.5 -15t-15 15q0 16 12.5 31t28.5 15t16 -16z" />
    <glyph glyph-name="multiply" unicode="&#xd7;" horiz-adv-x="400" 
d="M361 198q-38 -18 -126 -78q6 -48 24 -82l-25 -7q-13 45 -17 77q-91 -70 -99 -77l-19 16q48 38 114 80q-11 37 -11 85l27 5q0 -61 2 -78q32 24 106 73z" />
    <glyph glyph-name="Oslash" unicode="&#xd8;" horiz-adv-x="605" 
d="M666 319q0 -125 -107.5 -226.5t-244.5 -101.5q-89 0 -135 23q-7 -7 -22 -20.5t-21 -19.5q-12 -12 -20 -7q-9 6 10 22l39 33q-45 32 -45 99q0 61 41.5 134.5t92.5 116.5q87 75 219 75q73 0 124 -24l43 41q12 11 19 7q7 -3 -6 -16l-43 -39q56 -34 56 -97zM591 326
q0 34 -13 60q-218 -195 -368 -341q25 -45 103 -45q70 0 136 51.5t104 127.5t38 147zM195 111q0 -31 9 -54q243 224 367 341q-30 41 -102 41q-98 0 -164 -80q-41 -49 -75.5 -120.5t-34.5 -127.5z" />
    <glyph glyph-name="Ugrave" unicode="&#xd9;" horiz-adv-x="629" 
d="M759 447q-15 -3 -25 -14q-85 -104 -152 -239q-53 -106 -53 -152q0 -22 7.5 -30t29.5 -8q12 0 27 4.5t25.5 9.5t19 9.5t9.5 4.5q5 0 6 -4t-4 -6q-70 -37 -130 -37q-33 0 -54 13.5t-21 37.5q0 19 10 43t20 41t10 18q0 2 -1 2.5t-2 -1.5q-74 -83 -141 -116.5t-138 -33.5
q-89 0 -89 77q0 31 23 73q21 38 79.5 130.5t79.5 131.5q4 8 4 12q0 9 -15 9q-3 0 -19.5 -0.5t-26.5 -0.5q-5 0 -13 0.5t-11 0.5q-5 0 -7.5 3t-0.5 6t7 3q4 0 32.5 -1.5t47.5 -1.5q37 0 82 4t50 4t5 -3q-1 -4 -6 -6q-24 -4 -34 -16q-67 -84 -160 -249q-31 -55 -31 -90
q0 -59 58 -59q132 0 254 184q13 19 29.5 49.5t28.5 54t27 55.5t19 39q12 23 35 31q10 3 56 15.5t51 12.5q7 0 6 -6q-1 -4 -4 -4zM527 500q0 -2 -1.5 -2.5t-3.5 1.5q-28 52 -49 93q-3 6 -3 11q0 3 6 12.5t8 9.5q3 0 4 -4q24 -61 39 -121z" />
    <glyph glyph-name="Uacute" unicode="&#xda;" horiz-adv-x="629" 
d="M759 447q-15 -3 -25 -14q-85 -104 -152 -239q-53 -106 -53 -152q0 -22 7.5 -30t29.5 -8q12 0 27 4.5t25.5 9.5t19 9.5t9.5 4.5q5 0 6 -4t-4 -6q-70 -37 -130 -37q-33 0 -54 13.5t-21 37.5q0 19 10 43t20 41t10 18q0 2 -1 2.5t-2 -1.5q-74 -83 -141 -116.5t-138 -33.5
q-89 0 -89 77q0 31 23 73q21 38 79.5 130.5t79.5 131.5q4 8 4 12q0 9 -15 9q-3 0 -19.5 -0.5t-26.5 -0.5q-5 0 -13 0.5t-11 0.5q-5 0 -7.5 3t-0.5 6t7 3q4 0 32.5 -1.5t47.5 -1.5q37 0 82 4t50 4t5 -3q-1 -4 -6 -6q-24 -4 -34 -16q-67 -84 -160 -249q-31 -55 -31 -90
q0 -59 58 -59q132 0 254 184q13 19 29.5 49.5t28.5 54t27 55.5t19 39q12 23 35 31q10 3 56 15.5t51 12.5q7 0 6 -6q-1 -4 -4 -4zM698 612l1 -4q0 -2 -3 -5q-14 -11 -163 -111q-6 -4 -7 0q0 1 1 2q21 18 74 62.5t80 66.5q4 2 5 2q2 0 6.5 -5t5.5 -8z" />
    <glyph glyph-name="Ucircumflex" unicode="&#xdb;" horiz-adv-x="629" 
d="M759 447q-15 -3 -25 -14q-85 -104 -152 -239q-53 -106 -53 -152q0 -22 7.5 -30t29.5 -8q12 0 27 4.5t25.5 9.5t19 9.5t9.5 4.5q5 0 6 -4t-4 -6q-70 -37 -130 -37q-33 0 -54 13.5t-21 37.5q0 19 10 43t20 41t10 18q0 2 -1 2.5t-2 -1.5q-74 -83 -141 -116.5t-138 -33.5
q-89 0 -89 77q0 31 23 73q21 38 79.5 130.5t79.5 131.5q4 8 4 12q0 9 -15 9q-3 0 -19.5 -0.5t-26.5 -0.5q-5 0 -13 0.5t-11 0.5q-5 0 -7.5 3t-0.5 6t7 3q4 0 32.5 -1.5t47.5 -1.5q37 0 82 4t50 4t5 -3q-1 -4 -6 -6q-24 -4 -34 -16q-67 -84 -160 -249q-31 -55 -31 -90
q0 -59 58 -59q132 0 254 184q13 19 29.5 49.5t28.5 54t27 55.5t19 39q12 23 35 31q10 3 56 15.5t51 12.5q7 0 6 -6q-1 -4 -4 -4zM616 524q0 -12 -4 -15l-23 -17q-3 0 -3 7q0 16 -2 46.5t-2 38.5q0 6 -4 6q-2 0 -5 -3q-37 -33 -70 -70l-13 -15q-9 0 -9 8q0 4 11 13
q46 40 77 71q21 21 32 28q4 2 5 2q4 0 4 -5q1 -16 3.5 -49t2.5 -46z" />
    <glyph glyph-name="Udieresis" unicode="&#xdc;" horiz-adv-x="629" 
d="M759 447q-15 -3 -25 -14q-85 -104 -152 -239q-53 -106 -53 -152q0 -22 7.5 -30t29.5 -8q12 0 27 4.5t25.5 9.5t19 9.5t9.5 4.5q5 0 6 -4t-4 -6q-70 -37 -130 -37q-33 0 -54 13.5t-21 37.5q0 19 10 43t20 41t10 18q0 2 -1 2.5t-2 -1.5q-74 -83 -141 -116.5t-138 -33.5
q-89 0 -89 77q0 31 23 73q21 38 79.5 130.5t79.5 131.5q4 8 4 12q0 9 -15 9q-3 0 -19.5 -0.5t-26.5 -0.5q-5 0 -13 0.5t-11 0.5q-5 0 -7.5 3t-0.5 6t7 3q4 0 32.5 -1.5t47.5 -1.5q37 0 82 4t50 4t5 -3q-1 -4 -6 -6q-24 -4 -34 -16q-67 -84 -160 -249q-31 -55 -31 -90
q0 -59 58 -59q132 0 254 184q13 19 29.5 49.5t28.5 54t27 55.5t19 39q12 23 35 31q10 3 56 15.5t51 12.5q7 0 6 -6q-1 -4 -4 -4zM647 553q0 -16 -13.5 -30.5t-29.5 -14.5q-14 0 -14 15q0 17 12 31.5t29 14.5q16 0 16 -16zM545 560q0 -15 -13.5 -30t-28.5 -15t-15 15
q0 16 12.5 31t28.5 15t16 -16z" />
    <glyph glyph-name="Yacute" unicode="&#xdd;" horiz-adv-x="371" 
d="M744 445l-3 -3q-6 2 -22 2q-55 0 -175.5 -80.5t-211.5 -168.5q-15 -15 -32 -44q-31 -54 -64 -143q-4 -9 -13 -8q-62 6 -104 -27q-3 -1 -3.5 3t2.5 7q19 15 53 64.5t56 93.5q33 64 33 133q0 137 -107 137q-63 0 -97 -47q-4 -4 -8.5 -3.5t0.5 8.5q64 80 159 80
q64 0 93.5 -39t29.5 -100q0 -14 -2.5 -35.5t-5 -37.5t-2.5 -17q-1 -5 1.5 -7.5t6.5 1.5q32 25 88.5 69.5t102.5 80t87 64.5q60 43 101 43q11 0 21.5 -8.5t15.5 -17.5zM628 612l1 -4q0 -2 -3 -5q-14 -11 -163 -111q-6 -4 -7 0q0 1 1 2q21 18 74 62.5t80 66.5q4 2 5 2
q2 0 6.5 -5t5.5 -8z" />
    <glyph glyph-name="Thorn" unicode="&#xde;" horiz-adv-x="417" 
d="M524 251q0 91 -129 91q-18 0 -31.5 -3t-21 -5.5t-9.5 -2.5q-3 0 -3 2l4 7q5 8 16.5 29t24.5 43q12 20 12 25t-8 5l-99 -6q-36 -4 -66 -4q-5 0 -6.5 -3t0.5 -5.5t6 -2.5t28.5 1t29.5 1q20 0 20 -14q0 -29 -118 -231q-21 -36 -48 -80t-37.5 -62t-10.5 -25q0 -15 18 -16
q5 0 25 1t49 2t52 1q7 0 0 7q-10 0 -24 2q-23 6 -23 22q0 5 2.5 13t9 22t13 27t20 38t25 45.5t32 58t37.5 67.5q16 30 67 30q66 0 66 -80q0 -64 -40 -102t-104 -38q-28 0 -40 5q-6 2 -6 -1.5t3 -5.5q14 -7 50 -7t71 8t68.5 24t54 46.5t20.5 70.5z" />
    <glyph glyph-name="germandbls" unicode="&#xdf;" horiz-adv-x="327" 
d="M532 539q0 -26 -31 -66t-146 -158q-30 -31 -39.5 -48.5t-9.5 -36.5q0 -27 6 -58q7 -37 7 -62q0 -46 -46 -80.5t-102 -34.5q-35 0 -52 3q-66 -120 -110.5 -191.5t-95.5 -135.5t-99 -92t-100 -28q-48 0 -82 41q-1 3 0.5 5t4.5 0q25 -22 78 -22q45 0 83 17t69.5 45.5
t68 86.5t68 118t80.5 163q-27 18 -27 42q0 28 35 79q5 3 5 -2q-19 -30 -19 -60q0 -29 16 -40q85 190 159 309q39 62 143 166q22 21 65 49q21 15 44 15q12 0 19.5 -6.5t7.5 -17.5zM479 505q0 22 -20 22q-26 0 -50.5 -27t-59.5 -85q-71 -118 -137.5 -245.5t-84.5 -159.5
q15 -7 39 -7q45 0 69.5 26.5t24.5 60.5q0 24 -3 48q-4 33 -4 54q0 28 29 57q197 197 197 256z" />
    <glyph glyph-name="agrave" unicode="&#xe0;" horiz-adv-x="316" 
d="M424 133q-53 -67 -108.5 -110t-99.5 -43q-47 0 -47 39q0 30 32 82q-27 -40 -73 -76.5t-78 -36.5q-24 0 -24 29q0 54 75.5 128.5t163.5 74.5q11 18 16 20l55 11l2 -1q-5 -5 -19 -28q12 0 30 -3q8 -4 4 -7q-1 -1 -2 -1q-16 4 -36 4q-87 -154 -87 -192q0 -21 20 -21
q62 0 170 134q2 3 4 1.5t2 -4.5zM260 212l-1 1q-60 0 -114.5 -70.5t-54.5 -110.5q0 -10 8 -10q15 0 46.5 26t57.5 65q11 17 58 99zM302 278q0 -2 -2 -2.5t-3 1.5q-10 18 -33 66t-25 53q-3 6 -3 11q0 3 9.5 5.5t13.5 2.5q3 0 4 -4q16 -40 39 -133z" />
    <glyph glyph-name="aacute" unicode="&#xe1;" horiz-adv-x="316" 
d="M424 133q-53 -67 -108.5 -110t-99.5 -43q-47 0 -47 39q0 30 32 82q-27 -40 -73 -76.5t-78 -36.5q-24 0 -24 29q0 54 75.5 128.5t163.5 74.5q11 18 16 20l55 11l2 -1q-5 -5 -19 -28q12 0 30 -3q8 -4 4 -7q-1 -1 -2 -1q-16 4 -36 4q-87 -154 -87 -192q0 -21 20 -21
q62 0 170 134q2 3 4 1.5t2 -4.5zM260 212l-1 1q-60 0 -114.5 -70.5t-54.5 -110.5q0 -10 8 -10q15 0 46.5 26t57.5 65q11 17 58 99zM429 393l1 -4q0 -2 -3 -5q-14 -11 -163 -111q-6 -4 -7 0q-1 1 1 2q21 18 74 62.5t80 66.5q4 2 5 2q2 0 6.5 -5t5.5 -8z" />
    <glyph glyph-name="acircumflex" unicode="&#xe2;" horiz-adv-x="316" 
d="M424 133q-53 -67 -108.5 -110t-99.5 -43q-47 0 -47 39q0 30 32 82q-27 -40 -73 -76.5t-78 -36.5q-24 0 -24 29q0 54 75.5 128.5t163.5 74.5q11 18 16 20l55 11l2 -1q-5 -5 -19 -28q12 0 30 -3q8 -4 4 -7q-1 -1 -2 -1q-16 4 -36 4q-87 -154 -87 -192q0 -21 20 -21
q62 0 170 134q2 3 4 1.5t2 -4.5zM260 212l-1 1q-60 0 -114.5 -70.5t-54.5 -110.5q0 -10 8 -10q15 0 46.5 26t57.5 65q11 17 58 99zM355 307q0 -12 -4 -15l-23 -17q-3 0 -3 7q0 16 -2 46.5t-2 38.5q0 6 -4 6q-2 0 -5 -3q-37 -33 -70 -70l-13 -15q-9 0 -9 8q0 4 11 13
q46 40 77 71q21 21 32 28q4 2 5 2q4 0 4 -5q1 -16 3.5 -49t2.5 -46z" />
    <glyph glyph-name="atilde" unicode="&#xe3;" horiz-adv-x="316" 
d="M424 133q-53 -67 -108.5 -110t-99.5 -43q-47 0 -47 39q0 30 32 82q-27 -40 -73 -76.5t-78 -36.5q-24 0 -24 29q0 54 75.5 128.5t163.5 74.5q11 18 16 20l55 11l2 -1q-5 -5 -19 -28q12 0 30 -3q8 -4 4 -7q-1 -1 -2 -1q-16 4 -36 4q-87 -154 -87 -192q0 -21 20 -21
q62 0 170 134q2 3 4 1.5t2 -4.5zM260 212l-1 1q-60 0 -114.5 -70.5t-54.5 -110.5q0 -10 8 -10q15 0 46.5 26t57.5 65q11 17 58 99zM421 365q-3 -23 -28 -48t-48 -25q-20 0 -48.5 27.5t-41.5 27.5q-4 0 -8.5 -1t-8.5 -4.5t-6.5 -5t-7 -7t-6 -7t-6.5 -8.5l-4 -6q-5 -7 -8.5 -5
t2.5 11q22 28 52 50q17 13 28 13q14 0 42 -28.5t47 -28.5t30 14.5t11 30.5q0 5 4.5 7t4.5 -7z" />
    <glyph glyph-name="adieresis" unicode="&#xe4;" horiz-adv-x="316" 
d="M424 133q-53 -67 -108.5 -110t-99.5 -43q-47 0 -47 39q0 30 32 82q-27 -40 -73 -76.5t-78 -36.5q-24 0 -24 29q0 54 75.5 128.5t163.5 74.5q11 18 16 20l55 11l2 -1q-5 -5 -19 -28q12 0 30 -3q8 -4 4 -7q-1 -1 -2 -1q-16 4 -36 4q-87 -154 -87 -192q0 -21 20 -21
q62 0 170 134q2 3 4 1.5t2 -4.5zM260 212l-1 1q-60 0 -114.5 -70.5t-54.5 -110.5q0 -10 8 -10q15 0 46.5 26t57.5 65q11 17 58 99zM402 365q0 -16 -13.5 -30.5t-29.5 -14.5q-14 0 -14 15q0 17 12 31.5t29 14.5q16 0 16 -16zM300 367q0 -15 -13.5 -30t-28.5 -15t-15 15
q0 16 12.5 31t28.5 15t16 -16z" />
    <glyph glyph-name="aring" unicode="&#xe5;" horiz-adv-x="316" 
d="M424 133q-53 -67 -108.5 -110t-99.5 -43q-47 0 -47 39q0 30 32 82q-27 -40 -73 -76.5t-78 -36.5q-24 0 -24 29q0 54 75.5 128.5t163.5 74.5q11 18 16 20l55 11l2 -1q-5 -5 -19 -28q12 0 30 -3q8 -4 4 -7q-1 -1 -2 -1q-16 4 -36 4q-87 -154 -87 -192q0 -21 20 -21
q62 0 170 134q2 3 4 1.5t2 -4.5zM260 212l-1 1q-60 0 -114.5 -70.5t-54.5 -110.5q0 -10 8 -10q15 0 46.5 26t57.5 65q11 17 58 99zM375 353q0 -25 -19.5 -42t-43.5 -17q-18 0 -29.5 10.5t-11.5 26.5q0 26 19 42t43 16q18 0 30 -10t12 -26zM353 350q0 29 -23 29
q-18 0 -28.5 -14t-10.5 -32q0 -28 25 -28q17 0 27 13.5t10 31.5z" />
    <glyph glyph-name="ae" unicode="&#xe6;" horiz-adv-x="349" 
d="M204 143q-103 -152 -168 -154q-22 0 -22 23q0 40 41.5 91.5t107.5 90.5q41 24 76 24q4 8 10.5 18t12 18.5t6.5 9.5t6 -2.5t10 -8.5t5 -7q0 -1 -18 -50q38 38 74 41q25 0 25 -19q0 -30 -36 -61.5t-93 -31.5q-17 -41 -17 -69q0 -45 37 -45q43 0 92 37t83 85q2 2 4.5 1
t2.5 -4q-41 -56 -99.5 -96.5t-112.5 -40.5q-46 0 -56 20q-9 9 -31 -16q-3 -2 -5 -1q23 40 65 147zM322 199q0 11 -10 11q-37 0 -67 -76q6 -2 13 -2q28 0 46 20t18 47zM235 210q-2 1 -7 1q-39 0 -95 -63.5t-56 -104.5q0 -11 11 -11q19 0 62 49t85 129z" />
    <glyph glyph-name="ccedilla" unicode="&#xe7;" horiz-adv-x="221" 
d="M326 138q-33 -41 -78.5 -79t-82.5 -54q-40 -16 -69 -16q-60 0 -60 45q0 14 11 42q18 44 61.5 85.5t86.5 59.5q21 9 27 9q36 0 36 -29q0 -15 -7 -23q-1 -1 -8.5 -7.5t-14.5 -13.5t-11 -12l-3 1q3 8 3 17q0 15 -9 25.5t-21 10.5q-36 0 -61.5 -43.5t-25.5 -98.5
q0 -45 37 -45q31 0 82.5 34.5t101.5 96.5q7 7 8 1q0 -3 -3 -6zM134 -6q-11 -3 -24 -11.5t-13 -16.5q0 -6 16 -14t16 -19t-23 -29q-33 -28 -77 -50q-4 -2 -8 -2q-2 0 -5 3.5t-3 5.5t5 4q11 3 24.5 8t28.5 14.5t15 18.5q0 8 -16 17t-16 18q0 12 29 31t48 27q4 0 5.5 -1
t-2.5 -4z" />
    <glyph glyph-name="egrave" unicode="&#xe8;" horiz-adv-x="215" 
d="M305 119q-40 -50 -103 -92t-120 -42q-47 0 -47 44q0 61 62.5 127t115.5 66q25 0 25 -18q0 -28 -36.5 -56t-93.5 -28q-11 -26 -11 -64q0 -41 37 -41q42 0 87 33t77 74q2 2 4.5 1t2.5 -4zM191 190q0 13 -13 13q-19 0 -38 -23t-28 -50q6 -2 15 -2q29 0 46.5 17t17.5 45z
M227 278q0 -2 -1.5 -2.5t-3.5 1.5q-10 18 -33 66t-25 53q-3 6 -3 11q0 3 9.5 5.5t13.5 2.5q3 0 4 -4q16 -40 39 -133z" />
    <glyph glyph-name="eacute" unicode="&#xe9;" horiz-adv-x="215" 
d="M305 119q-40 -50 -103 -92t-120 -42q-47 0 -47 44q0 61 62.5 127t115.5 66q25 0 25 -18q0 -28 -36.5 -56t-93.5 -28q-11 -26 -11 -64q0 -41 37 -41q42 0 87 33t77 74q2 2 4.5 1t2.5 -4zM191 190q0 13 -13 13q-19 0 -38 -23t-28 -50q6 -2 15 -2q29 0 46.5 17t17.5 45z
M386 393l1 -4q0 -2 -3 -5q-14 -11 -163 -111q-6 -4 -7 0q-1 1 1 2q21 18 74 62.5t80 66.5q4 2 5 2q2 0 6.5 -5t5.5 -8z" />
    <glyph glyph-name="ecircumflex" unicode="&#xea;" horiz-adv-x="215" 
d="M305 119q-40 -50 -103 -92t-120 -42q-47 0 -47 44q0 61 62.5 127t115.5 66q25 0 25 -18q0 -28 -36.5 -56t-93.5 -28q-11 -26 -11 -64q0 -41 37 -41q42 0 87 33t77 74q2 2 4.5 1t2.5 -4zM191 190q0 13 -13 13q-19 0 -38 -23t-28 -50q6 -2 15 -2q29 0 46.5 17t17.5 45z
M302 307q0 -12 -4 -15l-23 -17q-3 0 -3 7q0 16 -2 46.5t-2 38.5q0 6 -4 6q-2 0 -5 -3q-37 -33 -70 -70l-13 -15q-9 0 -9 8q0 4 11 13q46 40 77 71q21 21 32 28q4 2 5 2q4 0 4 -5q1 -16 3.5 -49t2.5 -46z" />
    <glyph glyph-name="edieresis" unicode="&#xeb;" horiz-adv-x="215" 
d="M305 119q-40 -50 -103 -92t-120 -42q-47 0 -47 44q0 61 62.5 127t115.5 66q25 0 25 -18q0 -28 -36.5 -56t-93.5 -28q-11 -26 -11 -64q0 -41 37 -41q42 0 87 33t77 74q2 2 4.5 1t2.5 -4zM191 190q0 13 -13 13q-19 0 -38 -23t-28 -50q6 -2 15 -2q29 0 46.5 17t17.5 45z
M339 365q0 -16 -13.5 -30.5t-29.5 -14.5q-14 0 -14 15q0 17 12 31.5t29 14.5q16 0 16 -16zM237 367q0 -15 -13.5 -30t-28.5 -15t-15 15q0 16 12.5 31t28.5 15t16 -16z" />
    <glyph glyph-name="igrave" unicode="&#xec;" horiz-adv-x="197" 
d="M303 137q-50 -65 -115 -107q-21 -14 -51.5 -25.5t-49.5 -11.5q-21 0 -29.5 7.5t-8.5 28.5q0 23 28 76.5t50 85.5q5 7 31 18t31 11t5 -3q0 -5 -5 -12q-30 -44 -55 -95t-25 -71t22 -20q36 0 88 42t80 81q6 6 6 2q0 -3 -2 -7zM181 278q0 -2 -1.5 -2.5t-3.5 1.5
q-10 18 -33 66t-25 53q-3 6 -3 11q0 3 9.5 5.5t13.5 2.5q3 0 4 -4q16 -40 39 -133z" />
    <glyph glyph-name="iacute" unicode="&#xed;" horiz-adv-x="197" 
d="M303 137q-50 -65 -115 -107q-21 -14 -51.5 -25.5t-49.5 -11.5q-21 0 -29.5 7.5t-8.5 28.5q0 23 28 76.5t50 85.5q5 7 31 18t31 11t5 -3q0 -5 -5 -12q-30 -44 -55 -95t-25 -71t22 -20q36 0 88 42t80 81q6 6 6 2q0 -3 -2 -7zM362 393l1 -4q0 -2 -3 -5q-14 -11 -163 -111
q-6 -4 -7 0q0 1 1 2q21 18 74 62.5t80 66.5q4 2 5 2q2 0 6.5 -5t5.5 -8z" />
    <glyph glyph-name="icircumflex" unicode="&#xee;" horiz-adv-x="197" 
d="M303 137q-50 -65 -115 -107q-21 -14 -51.5 -25.5t-49.5 -11.5q-21 0 -29.5 7.5t-8.5 28.5q0 23 28 76.5t50 85.5q5 7 31 18t31 11t5 -3q0 -5 -5 -12q-30 -44 -55 -95t-25 -71t22 -20q36 0 88 42t80 81q6 6 6 2q0 -3 -2 -7zM277 307q0 -12 -4 -15l-23 -17q-3 0 -3 7
q0 16 -2 46.5t-2 38.5q0 6 -4 6q-2 0 -5 -3q-37 -33 -70 -70l-13 -15q-9 0 -9 8q0 4 11 13q46 40 77 71q21 21 32 28q4 2 5 2q4 0 4 -5q1 -16 3.5 -49t2.5 -46z" />
    <glyph glyph-name="idieresis" unicode="&#xef;" horiz-adv-x="197" 
d="M303 137q-50 -65 -115 -107q-21 -14 -51.5 -25.5t-49.5 -11.5q-21 0 -29.5 7.5t-8.5 28.5q0 23 28 76.5t50 85.5q5 7 31 18t31 11t5 -3q0 -5 -5 -12q-30 -44 -55 -95t-25 -71t22 -20q36 0 88 42t80 81q6 6 6 2q0 -3 -2 -7zM316 365q0 -16 -13.5 -30.5t-29.5 -14.5
q-14 0 -14 15q0 17 12 31.5t29 14.5q16 0 16 -16zM214 367q0 -15 -13.5 -30t-28.5 -15t-15 15q0 16 12.5 31t28.5 15t16 -16z" />
    <glyph glyph-name="eth" unicode="&#xf0;" horiz-adv-x="234" 
d="M126 443q-54 -13 -68 -19q-7 -3 -8 -2l3 5l9 11l60 12q-41 64 -89 107q-11 9 -11 13t23 4q5 0 11 -3q63 -38 112 -109q68 15 78 19q8 3 8 -2q0 -10 -10 -12q-24 -4 -69 -14q67 -108 67 -233q0 -56 -30 -117t-67 -88t-73 -27q-39 0 -39 37q0 47 51 112.5t115 88.5q5 2 5 9
q-3 38 -25 100t-53 108zM203 220q-45 -23 -77 -82.5t-32 -98.5q0 -24 18 -24q43 0 69 63t26 130q0 12 -4 12z" />
    <glyph glyph-name="ntilde" unicode="&#xf1;" horiz-adv-x="286" 
d="M396 133q-41 -58 -99 -102t-109 -44q-37 0 -37 23q0 22 36 85t43 81q2 5 0 8.5t-6 0.5q-60 -40 -103 -89q-9 -15 -29 -49t-32 -53q-6 -9 -12 -9q-10 0 -18 14t-8 25q0 12 45 68q50 103 65 137q5 7 13 7q15 0 25.5 -9t10.5 -20q0 -2 -7.5 -15t-20.5 -34.5t-22 -38.5
q40 40 96 81.5t71 41.5q5 0 11.5 -6t6.5 -10t-5 -12q-31 -44 -65 -105t-34 -84q0 -17 15 -17q32 0 83.5 42.5t80.5 88.5q3 3 6 1t-1 -7zM388 365q-3 -23 -28 -48t-48 -25q-20 0 -48.5 27.5t-41.5 27.5q-4 0 -8.5 -1t-8.5 -4.5t-6.5 -5t-7 -7t-6 -7t-5.5 -8.5l-5 -6
q-5 -7 -8.5 -5t2.5 11q22 28 52 50q17 13 28 13q14 0 42 -28.5t47 -28.5t30 14.5t11 30.5q0 5 4.5 7t4.5 -7z" />
    <glyph glyph-name="ograve" unicode="&#xf2;" horiz-adv-x="256" 
d="M382 164q-45 -54 -92 -54q-46 0 -64 31q-39 -96 -104 -135q-30 -19 -53 -19q-36 0 -36 32t19.5 68.5t42.5 61.5q22 24 56.5 43t63.5 22q5 29 20 31q5 1 16.5 6.5t14.5 9.5q3 3 6 1t1 -6q-17 -28 -17 -65q0 -72 42 -72q38 0 78 49q2 5 6 2.5t0 -6.5zM218 161v-1
q-4 16 -4 44q0 3 -4 3q-34 0 -83 -81q-34 -61 -33 -94q0 -18 13 -18q29 0 68 57.5t43 89.5zM230 292q0 -2 -2 -2.5t-3 1.5q-10 18 -33 66t-25 53q-3 6 -3 11q0 3 9.5 5.5t13.5 2.5q3 0 4 -4q16 -40 39 -133z" />
    <glyph glyph-name="oacute" unicode="&#xf3;" horiz-adv-x="256" 
d="M382 164q-45 -54 -92 -54q-46 0 -64 31q-39 -96 -104 -135q-30 -19 -53 -19q-36 0 -36 32t19.5 68.5t42.5 61.5q22 24 56.5 43t63.5 22q5 29 20 31q5 1 16.5 6.5t14.5 9.5q3 3 6 1t1 -6q-17 -28 -17 -65q0 -72 42 -72q38 0 78 49q2 5 6 2.5t0 -6.5zM218 161v-1
q-4 16 -4 44q0 3 -4 3q-34 0 -83 -81q-34 -61 -33 -94q0 -18 13 -18q29 0 68 57.5t43 89.5zM384 393l1 -4q0 -2 -3 -5q-14 -11 -163 -111q-6 -4 -7 0q-1 1 1 2q21 18 74 62.5t80 66.5q4 2 5 2q2 0 6.5 -5t5.5 -8z" />
    <glyph glyph-name="ocircumflex" unicode="&#xf4;" horiz-adv-x="256" 
d="M382 164q-45 -54 -92 -54q-46 0 -64 31q-39 -96 -104 -135q-30 -19 -53 -19q-36 0 -36 32t19.5 68.5t42.5 61.5q22 24 56.5 43t63.5 22q5 29 20 31q5 1 16.5 6.5t14.5 9.5q3 3 6 1t1 -6q-17 -28 -17 -65q0 -72 42 -72q38 0 78 49q2 5 6 2.5t0 -6.5zM218 161v-1
q-4 16 -4 44q0 3 -4 3q-34 0 -83 -81q-34 -61 -33 -94q0 -18 13 -18q29 0 68 57.5t43 89.5zM312 307q0 -12 -4 -15l-23 -17q-3 0 -3 7q0 16 -2 46.5t-2 38.5q0 6 -4 6q-2 0 -5 -3q-37 -33 -70 -70l-13 -15q-9 0 -9 8q0 4 11 13q46 40 77 71q21 21 32 28q4 2 5 2q4 0 4 -5
q1 -16 3.5 -49t2.5 -46z" />
    <glyph glyph-name="otilde" unicode="&#xf5;" horiz-adv-x="256" 
d="M382 164q-45 -54 -92 -54q-46 0 -64 31q-39 -96 -104 -135q-30 -19 -53 -19q-36 0 -36 32t19.5 68.5t42.5 61.5q22 24 56.5 43t63.5 22q5 29 20 31q5 1 16.5 6.5t14.5 9.5q3 3 6 1t1 -6q-17 -28 -17 -65q0 -72 42 -72q38 0 78 49q2 5 6 2.5t0 -6.5zM218 161v-1
q-4 16 -4 44q0 3 -4 3q-34 0 -83 -81q-34 -61 -33 -94q0 -18 13 -18q29 0 68 57.5t43 89.5zM369 365q-3 -23 -28 -48t-48 -25q-20 0 -48.5 27.5t-41.5 27.5q-4 0 -8.5 -1t-8.5 -4.5t-6.5 -5t-7 -7t-6 -7t-6.5 -8.5l-4 -6q-5 -7 -8.5 -5t2.5 11q22 28 52 50q17 13 28 13
q14 0 42 -28.5t47 -28.5t30 14.5t11 30.5q0 5 4.5 7t4.5 -7z" />
    <glyph glyph-name="odieresis" unicode="&#xf6;" horiz-adv-x="256" 
d="M382 164q-45 -54 -92 -54q-46 0 -64 31q-39 -96 -104 -135q-30 -19 -53 -19q-36 0 -36 32t19.5 68.5t42.5 61.5q22 24 56.5 43t63.5 22q5 29 20 31q5 1 16.5 6.5t14.5 9.5q3 3 6 1t1 -6q-17 -28 -17 -65q0 -72 42 -72q38 0 78 49q2 5 6 2.5t0 -6.5zM218 161v-1
q-4 16 -4 44q0 3 -4 3q-34 0 -83 -81q-34 -61 -33 -94q0 -18 13 -18q29 0 68 57.5t43 89.5zM353 365q0 -16 -13.5 -30.5t-29.5 -14.5q-14 0 -14 15q0 17 12 31.5t29 14.5q16 0 16 -16zM251 367q0 -15 -13.5 -30t-28.5 -15t-15 15q0 16 12.5 31t28.5 15t16 -16z" />
    <glyph glyph-name="divide" unicode="&#xf7;" horiz-adv-x="400" 
d="M309 200q0 -8 -8 -16.5t-17 -8.5q-17 0 -17 15q0 9 8.5 17.5t18.5 8.5q15 0 15 -16zM379 144l-13 -25q-190 0 -239 9l19 24q36 -12 89 -12q14 0 144 4zM234 65q0 -9 -8.5 -17t-17.5 -8q-16 0 -16 13q0 9 8 18t18 9q16 0 16 -15z" />
    <glyph glyph-name="oslash" unicode="&#xf8;" horiz-adv-x="235" 
d="M47 -7q-8 -8 -20 -22.5t-13 -15.5q-5 -6 -8 -3.5t2 9.5l32 38q-7 12 -7 25q0 47 37 94t88 77q60 35 68 35q2 0 5 -3q5 -10 7 -12q7 9 34 40q7 8 8 3q1 -3 -3 -8q-21 -23 -34 -39q27 -23 67 -23q31 0 65 9q3 0 4 -1.5t-2 -2.5l-2 -1q-30 -10 -78 -10q-35 0 -63 3
q-3 -60 -56.5 -129t-106.5 -69q-17 0 -24 6zM83 41q32 39 129 148q-3 13 -19 13q-28 0 -69 -56.5t-41 -104.5zM85 34q0 -21 23 -21q31 0 69 57t38 105v6q-19 -22 -64.5 -73t-65.5 -74z" />
    <glyph glyph-name="ugrave" unicode="&#xf9;" horiz-adv-x="272" 
d="M377 124q-41 -59 -94 -105t-100 -46q-17 0 -28.5 10t-11.5 28t13 47q-17 -21 -43 -39.5t-52 -18.5q-27 0 -27 27q0 31 94 193q6 11 11 11q12 0 24.5 -10.5t12.5 -18.5q0 -3 -6 -12q-78 -119 -78 -152q0 -12 10 -12q11 0 30.5 16t41.5 49q50 92 63 113q6 8 11 8
q7 0 17.5 -13t10.5 -24q0 -8 -4 -15q-7 -11 -25 -36t-27.5 -40t-18.5 -37t-9 -40q0 -17 14 -17q29 0 75.5 37.5t89.5 101.5q6 2 6 -5zM221 278q0 -2 -1.5 -2.5t-3.5 1.5q-10 18 -33 66t-25 53q-3 6 -3 11q0 3 9.5 5.5t13.5 2.5q3 0 4 -4q16 -40 39 -133z" />
    <glyph glyph-name="uacute" unicode="&#xfa;" horiz-adv-x="272" 
d="M377 124q-41 -59 -94 -105t-100 -46q-17 0 -28.5 10t-11.5 28t13 47q-17 -21 -43 -39.5t-52 -18.5q-27 0 -27 27q0 31 94 193q6 11 11 11q12 0 24.5 -10.5t12.5 -18.5q0 -3 -6 -12q-78 -119 -78 -152q0 -12 10 -12q11 0 30.5 16t41.5 49q50 92 63 113q6 8 11 8
q7 0 17.5 -13t10.5 -24q0 -8 -4 -15q-7 -11 -25 -36t-27.5 -40t-18.5 -37t-9 -40q0 -17 14 -17q29 0 75.5 37.5t89.5 101.5q6 2 6 -5zM402 393l1 -4q0 -2 -3 -5q-14 -11 -163 -111q-6 -4 -7 0q-1 1 1 2q21 18 74 62.5t80 66.5q4 2 5 2q2 0 6.5 -5t5.5 -8z" />
    <glyph glyph-name="ucircumflex" unicode="&#xfb;" horiz-adv-x="272" 
d="M377 124q-41 -59 -94 -105t-100 -46q-17 0 -28.5 10t-11.5 28t13 47q-17 -21 -43 -39.5t-52 -18.5q-27 0 -27 27q0 31 94 193q6 11 11 11q12 0 24.5 -10.5t12.5 -18.5q0 -3 -6 -12q-78 -119 -78 -152q0 -12 10 -12q11 0 30.5 16t41.5 49q50 92 63 113q6 8 11 8
q7 0 17.5 -13t10.5 -24q0 -8 -4 -15q-7 -11 -25 -36t-27.5 -40t-18.5 -37t-9 -40q0 -17 14 -17q29 0 75.5 37.5t89.5 101.5q6 2 6 -5zM322 307q0 -12 -4 -15l-23 -17q-3 0 -3 7q0 16 -2 46.5t-2 38.5q0 6 -4 6q-2 0 -5 -3q-37 -33 -70 -70l-13 -15q-9 0 -9 8q0 4 11 13
q46 40 77 71q21 21 32 28q4 2 5 2q4 0 4 -5q1 -16 3.5 -49t2.5 -46z" />
    <glyph glyph-name="udieresis" unicode="&#xfc;" horiz-adv-x="272" 
d="M377 124q-41 -59 -94 -105t-100 -46q-17 0 -28.5 10t-11.5 28t13 47q-17 -21 -43 -39.5t-52 -18.5q-27 0 -27 27q0 31 94 193q6 11 11 11q12 0 24.5 -10.5t12.5 -18.5q0 -3 -6 -12q-78 -119 -78 -152q0 -12 10 -12q11 0 30.5 16t41.5 49q50 92 63 113q6 8 11 8
q7 0 17.5 -13t10.5 -24q0 -8 -4 -15q-7 -11 -25 -36t-27.5 -40t-18.5 -37t-9 -40q0 -17 14 -17q29 0 75.5 37.5t89.5 101.5q6 2 6 -5zM361 365q0 -16 -13.5 -30.5t-29.5 -14.5q-14 0 -14 15q0 17 12 31.5t29 14.5q16 0 16 -16zM259 367q0 -15 -13.5 -30t-28.5 -15t-15 15
q0 16 12.5 31t28.5 15t16 -16z" />
    <glyph glyph-name="yacute" unicode="&#xfd;" horiz-adv-x="250" 
d="M61 0q-30 0 -30 24q0 25 74 139l3 4.5l3 4.5t3 5q9 14 15 17q25 10 50 10q4 0 4 -3q-90 -128 -90 -164q0 -12 13 -12q10 0 28.5 10t27.5 20q5 5 14 22.5t24.5 48.5t28.5 54q29 52 40 52q7 -2 13 -12.5t6 -18.5q0 -7 -33.5 -52t-67.5 -86q-21 -33 -61 -96.5t-65 -101.5
t-62.5 -92t-68.5 -86.5t-68 -64.5t-75 -47t-77 -15q-35 0 -55.5 23.5t-20.5 59.5q0 19 5 34q1 4 4 4q1 0 1 -3q0 -61 91 -61q29 0 58.5 9.5t54.5 22.5t54 39.5t49 46.5t48 57.5t43.5 59t42 65t37.5 62t36 61.5q1 2 1 3q-1 1 -4 -2q-59 -41 -94 -41zM395 393l1 -4q0 -2 -3 -5
q-14 -11 -163 -111q-6 -4 -7 0q-1 1 1 2q21 18 74 62.5t80 66.5q4 2 5 2q2 0 6.5 -5t5.5 -8z" />
    <glyph glyph-name="thorn" unicode="&#xfe;" horiz-adv-x="220" 
d="M372 159q-99 -111 -269 -150q-3 -1 -74 -13q-113 -198 -142 -264q-3 -6 -22.5 -12.5t-57.5 -16t-63 -18.5q-6 -3 -7 1.5t5 6.5q51 20 71 36t60 67q45 57 137 200q-6 2 -6 11q0 6 17 9l46 79q46 80 108 199t62 141q0 17 -23 17q-7 0 -18 -1.5t-16 -1.5t-5 3t39.5 11.5
t54.5 8.5q10 0 16.5 -5t8.5 -9.5t2 -6.5q0 -16 -20 -50q-58 -99 -124 -214q23 25 53 44t50 19q22 0 22 -26q0 -13 -12.5 -36.5t-36.5 -53.5t-67.5 -63t-96.5 -58q73 8 156 45t146 105q2 2 4 0.5t2 -4.5zM209 190q0 18 -12 18q-15 0 -41.5 -24.5t-50.5 -59.5
q-27 -39 -65 -108q61 17 115 77t54 97z" />
    <glyph glyph-name="ydieresis" unicode="&#xff;" horiz-adv-x="250" 
d="M61 0q-30 0 -30 24q0 25 74 139l3 4.5l3 4.5t3 5q9 14 15 17q25 10 50 10q4 0 4 -3q-90 -128 -90 -164q0 -12 13 -12q10 0 28.5 10t27.5 20q5 5 14 22.5t24.5 48.5t28.5 54q29 52 40 52q7 -2 13 -12.5t6 -18.5q0 -7 -33.5 -52t-67.5 -86q-21 -33 -61 -96.5t-65 -101.5
t-62.5 -92t-68.5 -86.5t-68 -64.5t-75 -47t-77 -15q-35 0 -55.5 23.5t-20.5 59.5q0 19 5 34q1 4 4 4q1 0 1 -3q0 -61 91 -61q29 0 58.5 9.5t54.5 22.5t54 39.5t49 46.5t48 57.5t43.5 59t42 65t37.5 62t36 61.5q1 2 1 3q-1 1 -4 -2q-59 -41 -94 -41zM352 365
q0 -16 -13.5 -30.5t-29.5 -14.5q-14 0 -14 15q0 17 12 31.5t29 14.5q16 0 16 -16zM250 367q0 -15 -13.5 -30t-28.5 -15t-15 15q0 16 12.5 31t28.5 15t16 -16z" />
    <glyph glyph-name="Amacron" unicode="&#x100;" horiz-adv-x="520" 
d="M228 216q6 -15 88 -15q60 0 80 -4q12 -3 16 8q5 24 13.5 73.5t15.5 90.5t8 44q3 11 -3 8l-7 -5q-42 -34 -108.5 -97t-102.5 -103zM13 -89l-13 59q0 10 7 22.5t13.5 20t24.5 27.5q235 266 409 406q4 3 40 12.5t45 16.5q6 5 7 1t-2 -8q-17 -26 -24 -67q-7 -31 -31.5 -163
t-24.5 -161q0 -47 31 -47q3 0 7 1t10 2t10 2q8 1 8.5 -2t-7.5 -4q-4 -1 -55.5 -16t-66.5 -18q-15 0 -20 20q3 13 11 68.5t9 65.5q0 12 -10.5 23t-30.5 15q-22 5 -75 5q-60 0 -78 2q-117 -115 -173 -222q-10 -18 -15 -58q-1 -6 -6 -3zM585 545l-10 -21l-144 -2l6 21z" />
    <glyph glyph-name="amacron" unicode="&#x101;" horiz-adv-x="316" 
d="M424 133q-53 -67 -108.5 -110t-99.5 -43q-47 0 -47 39q0 30 32 82q-27 -40 -73 -76.5t-78 -36.5q-24 0 -24 29q0 54 75.5 128.5t163.5 74.5q11 18 16 20l55 11l2 -1q-5 -5 -19 -28q12 0 30 -3q8 -4 4 -7q-1 -1 -2 -1q-16 4 -36 4q-87 -154 -87 -192q0 -21 20 -21
q62 0 170 134q2 3 4 1.5t2 -4.5zM260 212l-1 1q-60 0 -114.5 -70.5t-54.5 -110.5q0 -10 8 -10q15 0 46.5 26t57.5 65q11 17 58 99zM404 341l-10 -21l-126 -2l6 21z" />
    <glyph glyph-name="Abreve" unicode="&#x102;" horiz-adv-x="520" 
d="M228 216q6 -15 88 -15q60 0 80 -4q12 -3 16 8q5 24 13.5 73.5t15.5 90.5t8 44q3 11 -3 8l-7 -5q-42 -34 -108.5 -97t-102.5 -103zM13 -89l-13 59q0 10 7 22.5t13.5 20t24.5 27.5q235 266 409 406q4 3 40 12.5t45 16.5q6 5 7 1t-2 -8q-17 -26 -24 -67q-7 -31 -31.5 -163
t-24.5 -161q0 -47 31 -47q3 0 7 1t10 2t10 2q8 1 8.5 -2t-7.5 -4q-4 -1 -55.5 -16t-66.5 -18q-15 0 -20 20q3 13 11 68.5t9 65.5q0 12 -10.5 23t-30.5 15q-22 5 -75 5q-60 0 -78 2q-117 -115 -173 -222q-10 -18 -15 -58q-1 -6 -6 -3zM576 567q0 -6 -6 -15q-16 -21 -41 -33
t-45 -12q-22 0 -35.5 13.5t-13.5 36.5q0 6 12 13t19 7q4 0 4 -6q0 -44 39 -44q32 0 50 35q6 12 11 12q1 0 3.5 -2.5t2.5 -4.5z" />
    <glyph glyph-name="abreve" unicode="&#x103;" horiz-adv-x="316" 
d="M424 133q-53 -67 -108.5 -110t-99.5 -43q-47 0 -47 39q0 30 32 82q-27 -40 -73 -76.5t-78 -36.5q-24 0 -24 29q0 54 75.5 128.5t163.5 74.5q11 18 16 20l55 11l2 -1q-5 -5 -19 -28q12 0 30 -3q8 -4 4 -7q-1 -1 -2 -1q-16 4 -36 4q-87 -154 -87 -192q0 -21 20 -21
q62 0 170 134q2 3 4 1.5t2 -4.5zM260 212l-1 1q-60 0 -114.5 -70.5t-54.5 -110.5q0 -10 8 -10q15 0 46.5 26t57.5 65q11 17 58 99zM389 356q0 -6 -6 -15q-16 -21 -41 -33t-45 -12q-22 0 -35.5 13.5t-13.5 36.5q0 6 12 13t19 7q4 0 4 -6q0 -44 39 -44q32 0 50 35q6 12 11 12
q1 0 3.5 -2.5t2.5 -4.5z" />
    <glyph glyph-name="Aogonek" unicode="&#x104;" horiz-adv-x="520" 
d="M228 216q6 -15 88 -15q60 0 80 -4q12 -3 16 8q5 24 13.5 73.5t15.5 90.5t8 44q3 11 -3 8l-7 -5q-42 -34 -108.5 -97t-102.5 -103zM13 -89l-13 59q0 10 7 22.5t13.5 20t24.5 27.5q235 266 409 406q4 3 40 12.5t45 16.5q6 5 7 1t-2 -8q-17 -26 -24 -67q-7 -31 -31.5 -163
t-24.5 -161q0 -47 31 -47q3 0 7 1t10 2t10 2q8 1 8.5 -2t-7.5 -4q-4 -1 -55.5 -16t-66.5 -18q-15 0 -20 20q3 13 11 68.5t9 65.5q0 12 -10.5 23t-30.5 15q-22 5 -75 5q-60 0 -78 2q-117 -115 -173 -222q-10 -18 -15 -58q-1 -6 -6 -3zM447 10q0 -2 -4 -3q-29 -11 -45.5 -30
t-16.5 -38q0 -13 10 -21.5t24 -8.5q2 0 6 1t6 1q5 0 1 -4q-1 -2 -3 -2q-17 -5 -46 -5q-38 0 -38 29q0 16 20 35q15 14 45 31t38 17q3 0 3 -2z" />
    <glyph glyph-name="aogonek" unicode="&#x105;" horiz-adv-x="316" 
d="M424 133q-53 -67 -108.5 -110t-99.5 -43q-47 0 -47 39q0 30 32 82q-27 -40 -73 -76.5t-78 -36.5q-24 0 -24 29q0 54 75.5 128.5t163.5 74.5q11 18 16 20l55 11l2 -1q-5 -5 -19 -28q12 0 30 -3q8 -4 4 -7q-1 -1 -2 -1q-16 4 -36 4q-87 -154 -87 -192q0 -21 20 -21
q62 0 170 134q2 3 4 1.5t2 -4.5zM260 212l-1 1q-60 0 -114.5 -70.5t-54.5 -110.5q0 -10 8 -10q15 0 46.5 26t57.5 65q11 17 58 99zM267 -5q0 -2 -4 -3q-29 -11 -45.5 -30t-16.5 -38q0 -13 10 -21.5t24 -8.5q2 0 6 1t6 1q5 0 1 -4q-1 -2 -3 -2q-17 -5 -46 -5q-38 0 -38 29
q0 16 20 35q15 14 45 31t38 17q3 0 3 -2z" />
    <glyph glyph-name="Cacute" unicode="&#x106;" horiz-adv-x="516" 
d="M558 317l-9 -3q5 18 5 34q0 35 -30.5 62t-87.5 27q-52 0 -105 -43q-55 -45 -108 -138t-53 -176q0 -82 93 -82q154 0 280 174q3 4 5 4q4 0 4 -14q0 -10 -8 -24q-98 -148 -287 -148q-163 0 -163 117q0 72 53 150.5t122 127.5q86 61 174 61q93 0 146 -31q8 -4 8 -12
q-25 -45 -39 -86zM616 612l1 -4q0 -2 -3 -5q-14 -11 -163 -111q-6 -4 -7 0q0 1 1 2q21 18 74 62.5t80 66.5q4 2 5 2q2 0 6.5 -5t5.5 -8z" />
    <glyph glyph-name="cacute" unicode="&#x107;" horiz-adv-x="221" 
d="M326 138q-33 -41 -78.5 -79t-82.5 -54q-40 -16 -69 -16q-60 0 -60 45q0 14 11 42q18 44 61.5 85.5t86.5 59.5q21 9 27 9q36 0 36 -29q0 -15 -7 -23q-1 -1 -8.5 -7.5t-14.5 -13.5t-11 -12l-3 1q3 8 3 17q0 15 -9 25.5t-21 10.5q-36 0 -61.5 -43.5t-25.5 -98.5
q0 -45 37 -45q31 0 82.5 34.5t101.5 96.5q7 7 8 1q0 -3 -3 -6zM405 393l1 -4q0 -2 -3 -5q-14 -11 -163 -111q-6 -4 -7 0q-1 1 1 2q21 18 74 62.5t80 66.5q4 2 5 2q2 0 6.5 -5t5.5 -8z" />
    <glyph glyph-name="Ccircumflex" unicode="&#x108;" horiz-adv-x="516" 
d="M558 317l-9 -3q5 18 5 34q0 35 -30.5 62t-87.5 27q-52 0 -105 -43q-55 -45 -108 -138t-53 -176q0 -82 93 -82q154 0 280 174q3 4 5 4q4 0 4 -14q0 -10 -8 -24q-98 -148 -287 -148q-163 0 -163 117q0 72 53 150.5t122 127.5q86 61 174 61q93 0 146 -31q8 -4 8 -12
q-25 -45 -39 -86zM541 524q0 -12 -4 -15l-23 -17q-3 0 -3 7q0 16 -2 46.5t-2 38.5q0 6 -4 6q-2 0 -5 -3q-37 -33 -70 -70l-13 -15q-9 0 -9 8q0 4 11 13q46 40 77 71q21 21 32 28q4 2 5 2q4 0 4 -5q1 -16 3.5 -49t2.5 -46z" />
    <glyph glyph-name="ccircumflex" unicode="&#x109;" horiz-adv-x="221" 
d="M326 138q-33 -41 -78.5 -79t-82.5 -54q-40 -16 -69 -16q-60 0 -60 45q0 14 11 42q18 44 61.5 85.5t86.5 59.5q21 9 27 9q36 0 36 -29q0 -15 -7 -23q-1 -1 -8.5 -7.5t-14.5 -13.5t-11 -12l-3 1q3 8 3 17q0 15 -9 25.5t-21 10.5q-36 0 -61.5 -43.5t-25.5 -98.5
q0 -45 37 -45q31 0 82.5 34.5t101.5 96.5q7 7 8 1q0 -3 -3 -6zM317 307q0 -12 -4 -15l-23 -17q-3 0 -3 7q0 16 -2 46.5t-2 38.5q0 6 -4 6q-2 0 -5 -3q-37 -33 -70 -70l-13 -15q-9 0 -9 8q0 4 11 13q46 40 77 71q21 21 32 28q4 2 5 2q4 0 4 -5q1 -16 3.5 -49t2.5 -46z" />
    <glyph glyph-name="Cdotaccent" unicode="&#x10a;" horiz-adv-x="516" 
d="M558 317l-9 -3q5 18 5 34q0 35 -30.5 62t-87.5 27q-52 0 -105 -43q-55 -45 -108 -138t-53 -176q0 -82 93 -82q154 0 280 174q3 4 5 4q4 0 4 -14q0 -10 -8 -24q-98 -148 -287 -148q-163 0 -163 117q0 72 53 150.5t122 127.5q86 61 174 61q93 0 146 -31q8 -4 8 -12
q-25 -45 -39 -86zM519 551q0 -22 -14 -37.5t-33 -15.5q-9 0 -15 6t-6 14q0 19 14.5 35.5t34.5 16.5q19 0 19 -19z" />
    <glyph glyph-name="cdotaccent" unicode="&#x10b;" horiz-adv-x="221" 
d="M326 138q-33 -41 -78.5 -79t-82.5 -54q-40 -16 -69 -16q-60 0 -60 45q0 14 11 42q18 44 61.5 85.5t86.5 59.5q21 9 27 9q36 0 36 -29q0 -15 -7 -23q-1 -1 -8.5 -7.5t-14.5 -13.5t-11 -12l-3 1q3 8 3 17q0 15 -9 25.5t-21 10.5q-36 0 -61.5 -43.5t-25.5 -98.5
q0 -45 37 -45q31 0 82.5 34.5t101.5 96.5q7 7 8 1q0 -3 -3 -6zM307 364q0 -22 -14 -37.5t-33 -15.5q-9 0 -15 6t-6 14q0 19 14.5 35.5t34.5 16.5q19 0 19 -19z" />
    <glyph glyph-name="Ccaron" unicode="&#x10c;" horiz-adv-x="516" 
d="M558 317l-9 -3q5 18 5 34q0 35 -30.5 62t-87.5 27q-52 0 -105 -43q-55 -45 -108 -138t-53 -176q0 -82 93 -82q154 0 280 174q3 4 5 4q4 0 4 -14q0 -10 -8 -24q-98 -148 -287 -148q-163 0 -163 117q0 72 53 150.5t122 127.5q86 61 174 61q93 0 146 -31q8 -4 8 -12
q-25 -45 -39 -86zM450 584q0 12 4 15l23 17q3 0 3 -7q0 -16 2 -46.5t2 -38.5q0 -6 4 -6q2 0 5 3q37 33 70 70l13 15q9 0 9 -8q0 -4 -11 -13q-46 -40 -77 -71q-21 -21 -32 -28q-4 -2 -5 -2q-4 0 -4 5q-1 16 -3.5 49t-2.5 46z" />
    <glyph glyph-name="ccaron" unicode="&#x10d;" horiz-adv-x="221" 
d="M326 138q-33 -41 -78.5 -79t-82.5 -54q-40 -16 -69 -16q-60 0 -60 45q0 14 11 42q18 44 61.5 85.5t86.5 59.5q21 9 27 9q36 0 36 -29q0 -15 -7 -23q-1 -1 -8.5 -7.5t-14.5 -13.5t-11 -12l-3 1q3 8 3 17q0 15 -9 25.5t-21 10.5q-36 0 -61.5 -43.5t-25.5 -98.5
q0 -45 37 -45q31 0 82.5 34.5t101.5 96.5q7 7 8 1q0 -3 -3 -6zM219 375q0 12 4 15l23 17q3 0 3 -7q0 -16 2 -46.5t2 -38.5q0 -6 4 -6q2 0 5 3q37 33 70 70l13 15q9 0 9 -8q0 -4 -11 -13q-46 -40 -77 -71q-21 -21 -32 -28q-4 -2 -5 -2q-4 0 -4 5q-1 16 -3.5 49t-2.5 46z" />
    <glyph glyph-name="Dcaron" unicode="&#x10e;" horiz-adv-x="610" 
d="M575 309q0 52 -36 88t-121 36q-19 0 -26 -12q-102 -160 -202 -361q-4 -8 -4 -12q0 -6 6 -12q16 -17 48.5 -26.5t62.5 -9.5q111 0 191.5 90t80.5 219zM71 -3l-6 5q25 28 41 58q184 321 204 365q0 5 -8 5q-22 0 -63.5 -6.5t-62.5 -6.5q-18 0 -18 16q0 14 5 14l7 -3
q7 -3 17.5 -6t18.5 -3q27 0 97 5q99 3 129 3q221 0 221 -140q0 -82 -57.5 -164.5t-134.5 -116.5q-70 -30 -164 -30q-109 0 -157 25q-10 5 -17 5q-20 0 -52 -25zM415 584q0 12 4 15l23 17q3 0 3 -7q0 -16 2 -46.5t2 -38.5q0 -6 4 -6q2 0 5 3q37 33 70 70l13 15q9 0 9 -8
q0 -4 -11 -13q-46 -40 -77 -71q-21 -21 -32 -28q-4 -2 -5 -2q-4 0 -4 5q-1 16 -3.5 49t-2.5 46z" />
    <glyph glyph-name="dcaron" unicode="&#x10f;" horiz-adv-x="387" 
d="M703 674q0 -1 -9.5 -18t-11.5 -25q-2 -9 -4 -9l-17 8q-17 7 -35 7q-38 0 -70 -23q-40 -28 -96 -109q-122 -175 -189.5 -320.5t-67.5 -198.5q0 -14 4.5 -21.5t20.5 -7.5q38 0 81.5 50.5t75.5 115.5q3 4 6.5 2.5t-0.5 -7.5q-37 -77 -86 -127.5t-96 -50.5q-59 0 -59 52
q0 39 39 119q-100 -130 -149 -130q-29 0 -29 26q0 24 23 60q39 64 93 106t116 48q92 169 178 275q43 53 99 101.5t99 69.5q34 16 59 16t25 -9zM234 203q-37 0 -55.5 -10t-36.5 -33q-61 -76 -61 -118q0 -13 12 -13q17 0 62.5 52.5t78.5 121.5zM620 567q0 -23 -27.5 -61.5
t-85.5 -82.5q-8 -2 -8 5q84 60 84 109q0 24 -17 33q-4 3 -4 5t16 16t21 14q3 0 7.5 -3.5t9 -12.5t4.5 -22z" />
    <glyph glyph-name="Dcroat" unicode="&#x110;" horiz-adv-x="610" 
d="M71 -3l-6 5q25 28 41 58q4 8 16.5 29.5t34.5 59.5t38 65q-38 -3 -56 -3q-16 0 -16 17q0 2 2 2q9 -3 37 -3q1 0 15.5 0.5t25.5 0.5q91 160 107 197q0 5 -8 5q-22 0 -63.5 -6.5t-62.5 -6.5q-18 0 -18 16q0 14 5 14l7 -3q7 -3 17.5 -6t18.5 -3q27 0 97 5q99 3 129 3
q221 0 221 -140q0 -82 -57.5 -164.5t-134.5 -116.5q-70 -30 -164 -30q-109 0 -157 25q-10 5 -17 5q-20 0 -52 -25zM575 309q0 52 -36 88t-121 36q-19 0 -26 -12q-48 -74 -112 -190q21 0 56 0.5t42 0.5q22 0 25 -1q3 0 4.5 -4.5t0 -8.5t-3.5 -4q-5 4 -31 4q-62 0 -101 -1
q-43 -80 -82 -157q-4 -8 -4 -12q0 -6 6 -12q16 -17 48.5 -26.5t62.5 -9.5q111 0 191.5 90t80.5 219z" />
    <glyph glyph-name="dcroat" unicode="&#x111;" horiz-adv-x="297" 
d="M703 674q0 -1 -9.5 -18t-11.5 -25q-2 -9 -4 -9l-17 8q-17 7 -35 7q-38 0 -70 -23q-40 -28 -96 -109q-60 -87 -106 -166q11 0 25 1t23.5 1.5t11.5 0.5q8 0 4 -7q-2 -5 -6 -5q-19 0 -40.5 -0.5t-24.5 -0.5q-69 -119 -106.5 -212.5t-37.5 -130.5q0 -14 4.5 -21.5t20.5 -7.5
q38 0 81.5 50.5t75.5 115.5q3 4 6.5 2.5t-0.5 -7.5q-37 -77 -86 -127.5t-96 -50.5q-59 0 -59 52q0 39 39 119q-100 -130 -149 -130q-29 0 -29 26q0 24 23 60q39 64 93 106t116 48q43 78 60 105q-64 -5 -103 -10q-4 0 -5.5 1.5t0 4.5t3.5 4q3 3 18 5q45 4 94 6q57 93 111 159
q43 53 99 101.5t99 69.5q34 16 59 16t25 -9zM234 203q-37 0 -55.5 -10t-36.5 -33q-61 -76 -61 -118q0 -13 12 -13q17 0 62.5 52.5t78.5 121.5z" />
    <glyph glyph-name="Emacron" unicode="&#x112;" horiz-adv-x="484" 
d="M505 67q1 1 2.5 -0.5t1.5 -3.5q-10 -9 -21 -26q-7 -13 -28 -18q-108 -27 -210 -27q-158 0 -158 41q0 18 11 38q3 5 25.5 44.5t41.5 73t19 34.5q0 5 -17 5q-5 0 -5 3q0 7 12 9q23 3 34 24q83 149 83 159q0 4 -6 4q-74 0 -113 -10l-2 1q1 16 8 23q82 -4 131 -4q10 0 108 3
t134 3q6 0 6 -5q-2 -9 -18 -42l-3 1q0 17 -7 19q-37 12 -118 12q-24 0 -31 -10q-42 -56 -106 -170q-5 -9 6 -9q18 -1 57 -1q73 0 133 13l3 -3q-7 -11 -10 -21q-1 -4 -8 -4q-70 2 -101 2q-60 0 -85 -1q-8 0 -11 -6q-44 -77 -65 -127q-10 -23 -10 -41q0 -47 71 -47
q62 0 135 17.5t111 46.5zM489 545l-10 -21l-144 -2l6 21z" />
    <glyph glyph-name="emacron" unicode="&#x113;" horiz-adv-x="215" 
d="M305 119q-40 -50 -103 -92t-120 -42q-47 0 -47 44q0 61 62.5 127t115.5 66q25 0 25 -18q0 -28 -36.5 -56t-93.5 -28q-11 -26 -11 -64q0 -41 37 -41q42 0 87 33t77 74q2 2 4.5 1t2.5 -4zM191 190q0 13 -13 13q-19 0 -38 -23t-28 -50q6 -2 15 -2q29 0 46.5 17t17.5 45z
M324 341l-10 -21l-126 -2l6 21z" />
    <glyph glyph-name="Ebreve" unicode="&#x114;" horiz-adv-x="484" 
d="M505 67q1 1 2.5 -0.5t1.5 -3.5q-10 -9 -21 -26q-7 -13 -28 -18q-108 -27 -210 -27q-158 0 -158 41q0 18 11 38q3 5 25.5 44.5t41.5 73t19 34.5q0 5 -17 5q-5 0 -5 3q0 7 12 9q23 3 34 24q83 149 83 159q0 4 -6 4q-74 0 -113 -10l-2 1q1 16 8 23q82 -4 131 -4q10 0 108 3
t134 3q6 0 6 -5q-2 -9 -18 -42l-3 1q0 17 -7 19q-37 12 -118 12q-24 0 -31 -10q-42 -56 -106 -170q-5 -9 6 -9q18 -1 57 -1q73 0 133 13l3 -3q-7 -11 -10 -21q-1 -4 -8 -4q-70 2 -101 2q-60 0 -85 -1q-8 0 -11 -6q-44 -77 -65 -127q-10 -23 -10 -41q0 -47 71 -47
q62 0 135 17.5t111 46.5zM467 567q0 -6 -6 -15q-16 -21 -41 -33t-45 -12q-22 0 -35.5 13.5t-13.5 36.5q0 6 12 13t19 7q4 0 4 -6q0 -44 39 -44q32 0 50 35q6 12 11 12q1 0 3.5 -2.5t2.5 -4.5z" />
    <glyph glyph-name="ebreve" unicode="&#x115;" horiz-adv-x="215" 
d="M305 119q-40 -50 -103 -92t-120 -42q-47 0 -47 44q0 61 62.5 127t115.5 66q25 0 25 -18q0 -28 -36.5 -56t-93.5 -28q-11 -26 -11 -64q0 -41 37 -41q42 0 87 33t77 74q2 2 4.5 1t2.5 -4zM191 190q0 13 -13 13q-19 0 -38 -23t-28 -50q6 -2 15 -2q29 0 46.5 17t17.5 45z
M314 356q0 -6 -6 -15q-16 -21 -41 -33t-45 -12q-22 0 -35.5 13.5t-13.5 36.5q0 6 12 13t19 7q4 0 4 -6q0 -44 39 -44q32 0 50 35q6 12 11 12q1 0 3.5 -2.5t2.5 -4.5z" />
    <glyph glyph-name="Edotaccent" unicode="&#x116;" horiz-adv-x="484" 
d="M505 67q1 1 2.5 -0.5t1.5 -3.5q-10 -9 -21 -26q-7 -13 -28 -18q-108 -27 -210 -27q-158 0 -158 41q0 18 11 38q3 5 25.5 44.5t41.5 73t19 34.5q0 5 -17 5q-5 0 -5 3q0 7 12 9q23 3 34 24q83 149 83 159q0 4 -6 4q-74 0 -113 -10l-2 1q1 16 8 23q82 -4 131 -4q10 0 108 3
t134 3q6 0 6 -5q-2 -9 -18 -42l-3 1q0 17 -7 19q-37 12 -118 12q-24 0 -31 -10q-42 -56 -106 -170q-5 -9 6 -9q18 -1 57 -1q73 0 133 13l3 -3q-7 -11 -10 -21q-1 -4 -8 -4q-70 2 -101 2q-60 0 -85 -1q-8 0 -11 -6q-44 -77 -65 -127q-10 -23 -10 -41q0 -47 71 -47
q62 0 135 17.5t111 46.5zM444 551q0 -22 -14 -37.5t-33 -15.5q-9 0 -15 6t-6 14q0 19 14.5 35.5t34.5 16.5q19 0 19 -19z" />
    <glyph glyph-name="edotaccent" unicode="&#x117;" horiz-adv-x="215" 
d="M305 119q-40 -50 -103 -92t-120 -42q-47 0 -47 44q0 61 62.5 127t115.5 66q25 0 25 -18q0 -28 -36.5 -56t-93.5 -28q-11 -26 -11 -64q0 -41 37 -41q42 0 87 33t77 74q2 2 4.5 1t2.5 -4zM191 190q0 13 -13 13q-19 0 -38 -23t-28 -50q6 -2 15 -2q29 0 46.5 17t17.5 45z
M282 364q0 -22 -14 -37.5t-33 -15.5q-9 0 -15 6t-6 14q0 19 14.5 35.5t34.5 16.5q19 0 19 -19z" />
    <glyph glyph-name="Eogonek" unicode="&#x118;" horiz-adv-x="484" 
d="M505 67q1 1 2.5 -0.5t1.5 -3.5q-10 -9 -21 -26q-7 -13 -28 -18q-108 -27 -210 -27q-158 0 -158 41q0 18 11 38q3 5 25.5 44.5t41.5 73t19 34.5q0 5 -17 5q-5 0 -5 3q0 7 12 9q23 3 34 24q83 149 83 159q0 4 -6 4q-74 0 -113 -10l-2 1q1 16 8 23q82 -4 131 -4q10 0 108 3
t134 3q6 0 6 -5q-2 -9 -18 -42l-3 1q0 17 -7 19q-37 12 -118 12q-24 0 -31 -10q-42 -56 -106 -170q-5 -9 6 -9q18 -1 57 -1q73 0 133 13l3 -3q-7 -11 -10 -21q-1 -4 -8 -4q-70 2 -101 2q-60 0 -85 -1q-8 0 -11 -6q-44 -77 -65 -127q-10 -23 -10 -41q0 -47 71 -47
q62 0 135 17.5t111 46.5zM450 18q0 -2 -4 -3q-29 -11 -45.5 -30t-16.5 -38q0 -13 10 -21.5t24 -8.5q2 0 6 1t6 1q5 0 1 -4q-1 -2 -3 -2q-17 -5 -46 -5q-38 0 -38 29q0 16 20 35q15 14 45 31t38 17q3 0 3 -2z" />
    <glyph glyph-name="eogonek" unicode="&#x119;" horiz-adv-x="215" 
d="M305 119q-40 -50 -103 -92t-120 -42q-47 0 -47 44q0 61 62.5 127t115.5 66q25 0 25 -18q0 -28 -36.5 -56t-93.5 -28q-11 -26 -11 -64q0 -41 37 -41q42 0 87 33t77 74q2 2 4.5 1t2.5 -4zM191 190q0 13 -13 13q-19 0 -38 -23t-28 -50q6 -2 15 -2q29 0 46.5 17t17.5 45z
M169 10q0 -2 -4 -3q-29 -11 -45.5 -30t-16.5 -38q0 -13 10 -21.5t24 -8.5q2 0 6 1t6 1q5 0 1 -4q-1 -2 -3 -2q-17 -5 -46 -5q-38 0 -38 29q0 16 20 35q15 14 45 31t38 17q3 0 3 -2z" />
    <glyph glyph-name="Ecaron" unicode="&#x11a;" horiz-adv-x="484" 
d="M505 67q1 1 2.5 -0.5t1.5 -3.5q-10 -9 -21 -26q-7 -13 -28 -18q-108 -27 -210 -27q-158 0 -158 41q0 18 11 38q3 5 25.5 44.5t41.5 73t19 34.5q0 5 -17 5q-5 0 -5 3q0 7 12 9q23 3 34 24q83 149 83 159q0 4 -6 4q-74 0 -113 -10l-2 1q1 16 8 23q82 -4 131 -4q10 0 108 3
t134 3q6 0 6 -5q-2 -9 -18 -42l-3 1q0 17 -7 19q-37 12 -118 12q-24 0 -31 -10q-42 -56 -106 -170q-5 -9 6 -9q18 -1 57 -1q73 0 133 13l3 -3q-7 -11 -10 -21q-1 -4 -8 -4q-70 2 -101 2q-60 0 -85 -1q-8 0 -11 -6q-44 -77 -65 -127q-10 -23 -10 -41q0 -47 71 -47
q62 0 135 17.5t111 46.5zM359 584q0 12 4 15l23 17q3 0 3 -7q0 -16 2 -46.5t2 -38.5q0 -6 4 -6q2 0 5 3q37 33 70 70l13 15q9 0 9 -8q0 -4 -11 -13q-46 -40 -77 -71q-21 -21 -32 -28q-4 -2 -5 -2q-4 0 -4 5q-1 16 -3.5 49t-2.5 46z" />
    <glyph glyph-name="ecaron" unicode="&#x11b;" horiz-adv-x="215" 
d="M305 119q-40 -50 -103 -92t-120 -42q-47 0 -47 44q0 61 62.5 127t115.5 66q25 0 25 -18q0 -28 -36.5 -56t-93.5 -28q-11 -26 -11 -64q0 -41 37 -41q42 0 87 33t77 74q2 2 4.5 1t2.5 -4zM191 190q0 13 -13 13q-19 0 -38 -23t-28 -50q6 -2 15 -2q29 0 46.5 17t17.5 45z
M214 375q0 12 4 15l23 17q3 0 3 -7q0 -16 2 -46.5t2 -38.5q0 -6 4 -6q2 0 5 3q37 33 70 70l13 15q9 0 9 -8q0 -4 -11 -13q-46 -40 -77 -71q-21 -21 -32 -28q-4 -2 -5 -2q-4 0 -4 5q-1 16 -3.5 49t-2.5 46z" />
    <glyph glyph-name="Gcircumflex" unicode="&#x11c;" horiz-adv-x="569" 
d="M99 -251l-1 3q0 7 5 4q23 -13 54 -13q38 0 76.5 22.5t71 58t62.5 79t54 86t43 77.5q1 3 2 5t2.5 4.5t2.5 4.5q0 8 -6 2l-15 -14q-16 -13 -25 -20.5t-30 -20.5t-39.5 -20.5t-46 -13.5t-55.5 -6q-158 0 -158 115q0 25 14.5 64.5t43.5 88t86.5 95.5t130.5 73
q30 10 53.5 14.5t35.5 5t41 0.5q40 0 81.5 -9t57.5 -27q-5 -22 -34 -92l-7 -2l-1 3q4 16 4 25q0 37 -38 64t-92 27q-49 0 -96.5 -23.5t-80.5 -61.5q-44 -49 -84 -129t-40 -141q0 -82 89 -82q82 0 157.5 60.5t99.5 127.5q5 10 3.5 15t-11.5 5q-13 -1 -90 -7l-3 1l3 11
q137 0 211 19q4 -3 0 -9q-26 -6 -37 -29q-41 -86 -97.5 -182.5t-100.5 -146.5q-109 -124 -234 -124q-47 0 -62 13zM573 524q0 -12 -4 -15l-23 -17q-3 0 -3 7q0 16 -2 46.5t-2 38.5q0 6 -4 6q-2 0 -5 -3q-37 -33 -70 -70l-13 -15q-9 0 -9 8q0 4 11 13q46 40 77 71
q21 21 32 28q4 2 5 2q4 0 4 -5q1 -16 3.5 -49t2.5 -46z" />
    <glyph glyph-name="gcircumflex" unicode="&#x11d;" horiz-adv-x="262" 
d="M306 257q0 -11 -6 -23q-122 -262 -296 -515q-77 -112 -183.5 -183t-238.5 -71q-89 0 -138.5 57t-49.5 124q0 30 8 52q1 5 5 3l2 -4q-3 -10 -3 -26q0 -79 69.5 -124.5t159.5 -45.5q129 0 213.5 65t177.5 222q54 92 163 329q-85 -137 -138 -137q-10 0 -17 6.5t-7 18.5
q0 50 48.5 115.5t102.5 90.5q24 12 50 12q9 0 12 -1q11 19 35 63q7 13 13 13q5 0 11.5 -15t6.5 -26zM234 208q-4 2 -15 2q-34 0 -52 -14q-39 -31 -57.5 -78.5t-18.5 -75.5q0 -16 8 -16q15 0 57 56t78 126zM347 332q0 -12 -4 -15l-23 -17q-3 0 -3 7q0 16 -2 46.5t-2 38.5
q0 6 -4 6q-2 0 -5 -3q-37 -33 -70 -70l-13 -15q-9 0 -9 8q0 4 11 13q46 40 77 71q21 21 32 28q4 2 5 2q4 0 4 -5q1 -16 3.5 -49t2.5 -46z" />
    <glyph glyph-name="Gbreve" unicode="&#x11e;" horiz-adv-x="569" 
d="M99 -251l-1 3q0 7 5 4q23 -13 54 -13q38 0 76.5 22.5t71 58t62.5 79t54 86t43 77.5q1 3 2 5t2.5 4.5t2.5 4.5q0 8 -6 2l-15 -14q-16 -13 -25 -20.5t-30 -20.5t-39.5 -20.5t-46 -13.5t-55.5 -6q-158 0 -158 115q0 25 14.5 64.5t43.5 88t86.5 95.5t130.5 73
q30 10 53.5 14.5t35.5 5t41 0.5q40 0 81.5 -9t57.5 -27q-5 -22 -34 -92l-7 -2l-1 3q4 16 4 25q0 37 -38 64t-92 27q-49 0 -96.5 -23.5t-80.5 -61.5q-44 -49 -84 -129t-40 -141q0 -82 89 -82q82 0 157.5 60.5t99.5 127.5q5 10 3.5 15t-11.5 5q-13 -1 -90 -7l-3 1l3 11
q137 0 211 19q4 -3 0 -9q-26 -6 -37 -29q-41 -86 -97.5 -182.5t-100.5 -146.5q-109 -124 -234 -124q-47 0 -62 13zM572 567q0 -6 -6 -15q-16 -21 -41 -33t-45 -12q-22 0 -35.5 13.5t-13.5 36.5q0 6 12 13t19 7q4 0 4 -6q0 -44 39 -44q32 0 50 35q6 12 11 12q1 0 3.5 -2.5
t2.5 -4.5z" />
    <glyph glyph-name="gbreve" unicode="&#x11f;" horiz-adv-x="262" 
d="M306 257q0 -11 -6 -23q-122 -262 -296 -515q-77 -112 -183.5 -183t-238.5 -71q-89 0 -138.5 57t-49.5 124q0 30 8 52q1 5 5 3l2 -4q-3 -10 -3 -26q0 -79 69.5 -124.5t159.5 -45.5q129 0 213.5 65t177.5 222q54 92 163 329q-85 -137 -138 -137q-10 0 -17 6.5t-7 18.5
q0 50 48.5 115.5t102.5 90.5q24 12 50 12q9 0 12 -1q11 19 35 63q7 13 13 13q5 0 11.5 -15t6.5 -26zM234 208q-4 2 -15 2q-34 0 -52 -14q-39 -31 -57.5 -78.5t-18.5 -75.5q0 -16 8 -16q15 0 57 56t78 126zM331 394q0 -6 -6 -15q-16 -21 -41 -33t-45 -12q-22 0 -35.5 13.5
t-13.5 36.5q0 6 12 13t19 7q4 0 4 -6q0 -44 39 -44q32 0 50 35q6 12 11 12q1 0 3.5 -2.5t2.5 -4.5z" />
    <glyph glyph-name="Gdotaccent" unicode="&#x120;" horiz-adv-x="569" 
d="M99 -251l-1 3q0 7 5 4q23 -13 54 -13q38 0 76.5 22.5t71 58t62.5 79t54 86t43 77.5q1 3 2 5t2.5 4.5t2.5 4.5q0 8 -6 2l-15 -14q-16 -13 -25 -20.5t-30 -20.5t-39.5 -20.5t-46 -13.5t-55.5 -6q-158 0 -158 115q0 25 14.5 64.5t43.5 88t86.5 95.5t130.5 73
q30 10 53.5 14.5t35.5 5t41 0.5q40 0 81.5 -9t57.5 -27q-5 -22 -34 -92l-7 -2l-1 3q4 16 4 25q0 37 -38 64t-92 27q-49 0 -96.5 -23.5t-80.5 -61.5q-44 -49 -84 -129t-40 -141q0 -82 89 -82q82 0 157.5 60.5t99.5 127.5q5 10 3.5 15t-11.5 5q-13 -1 -90 -7l-3 1l3 11
q137 0 211 19q4 -3 0 -9q-26 -6 -37 -29q-41 -86 -97.5 -182.5t-100.5 -146.5q-109 -124 -234 -124q-47 0 -62 13zM534 551q0 -22 -14 -37.5t-33 -15.5q-9 0 -15 6t-6 14q0 19 14.5 35.5t34.5 16.5q19 0 19 -19z" />
    <glyph glyph-name="gdotaccent" unicode="&#x121;" horiz-adv-x="262" 
d="M306 257q0 -11 -6 -23q-122 -262 -296 -515q-77 -112 -183.5 -183t-238.5 -71q-89 0 -138.5 57t-49.5 124q0 30 8 52q1 5 5 3l2 -4q-3 -10 -3 -26q0 -79 69.5 -124.5t159.5 -45.5q129 0 213.5 65t177.5 222q54 92 163 329q-85 -137 -138 -137q-10 0 -17 6.5t-7 18.5
q0 50 48.5 115.5t102.5 90.5q24 12 50 12q9 0 12 -1q11 19 35 63q7 13 13 13q5 0 11.5 -15t6.5 -26zM234 208q-4 2 -15 2q-34 0 -52 -14q-39 -31 -57.5 -78.5t-18.5 -75.5q0 -16 8 -16q15 0 57 56t78 126zM289 384q0 -22 -14 -37.5t-33 -15.5q-9 0 -15 6t-6 14
q0 19 14.5 35.5t34.5 16.5q19 0 19 -19z" />
    <glyph glyph-name="Gcommaaccent" unicode="&#x122;" horiz-adv-x="569" 
d="M433 404q0 13 6 25q-84 -13 -144 -82q-44 -49 -84 -129t-40 -141q0 -82 89 -82q82 0 157.5 60.5t99.5 127.5q5 10 3.5 15t-11.5 5q-13 -1 -90 -7l-3 1l3 11q137 0 211 19q4 -3 0 -9q-26 -6 -37 -29q-41 -86 -97.5 -182.5t-100.5 -146.5q-109 -124 -234 -124q-47 0 -62 13
l-1 3q0 7 5 4q23 -13 54 -13q38 0 76.5 22.5t71 58t62.5 79t54 86t43 77.5q1 3 2 5t2.5 4.5t2.5 4.5q0 8 -6 2l-15 -14q-16 -13 -25 -20.5t-30 -20.5t-39.5 -20.5t-46 -13.5t-55.5 -6q-158 0 -158 115q0 25 14.5 64.5t43.5 88t86.5 95.5t130.5 73q36 12 74 18q27 51 101 107
q8 2 8 -5q-77 -55 -84 -100h31q40 0 81.5 -9t57.5 -27q-5 -22 -34 -92l-7 -2l-1 3q4 16 4 25q0 37 -38 64t-92 27h-2q0 -23 17 -31q4 -3 4 -5t-16 -16t-21 -14q-3 0 -7.5 3.5t-9 12.5t-4.5 22z" />
    <glyph glyph-name="gcommaaccent" unicode="&#x123;" horiz-adv-x="262" 
d="M306 257q0 -11 -6 -23q-122 -262 -296 -515q-77 -112 -183.5 -183t-238.5 -71q-89 0 -138.5 57t-49.5 124q0 30 8 52q1 5 5 3l2 -4q-3 -10 -3 -26q0 -79 69.5 -124.5t159.5 -45.5q129 0 213.5 65t177.5 222q54 92 163 329q-85 -137 -138 -137q-10 0 -17 6.5t-7 18.5
q0 50 48.5 115.5t102.5 90.5q24 12 50 12q9 0 12 -1q11 19 35 63q7 13 13 13q5 0 11.5 -15t6.5 -26zM234 208q-4 2 -15 2q-34 0 -52 -14q-39 -31 -57.5 -78.5t-18.5 -75.5q0 -16 8 -16q15 0 57 56t78 126zM234 363q0 23 27.5 61.5t85.5 82.5q8 2 8 -5q-84 -60 -84 -109
q0 -24 17 -33q4 -3 4 -5t-16 -16t-21 -14q-3 0 -7.5 3.5t-9 12.5t-4.5 22z" />
    <glyph glyph-name="Hcircumflex" unicode="&#x124;" horiz-adv-x="603" 
d="M155 7h-29q-42 0 -64 -19l-3 2q37 52 141 214q-12 18 -15 27q1 5 10 5h17h2h1q1 1 2 1q4 4 5 7q77 142 77 161q0 11 -5.5 14.5t-19.5 3.5q-12 -1 -20.5 -1t-14 -0.5l-16.5 -1.5q-6 0 -6 6t8 6h21q14 0 92 5q3 0 14.5 1t22 2t18.5 2q3 1 4.5 -0.5t1 -5t-2.5 -7.5
q-19 -26 -43 -67q-20 -35 -62 -119q-4 -10 2 -11q20 -2 97 -2t111 6q9 1 15 12q71 137 109 198q5 7 13 11q34 19 87.5 37t80.5 18q12 0 12 -5q0 -4 -10 -4q-12 0 -35.5 -6.5t-39.5 -20.5q-21 -17 -45 -50q-60 -84 -108 -183q-68 -142 -68 -188q0 -35 46 -35q33 0 61 18
q3 0 3.5 -2.5t-2.5 -6.5q-65 -40 -145 -40q-20 1 -31 13.5t-11 29.5q0 16 6 36q16 47 46 111q4 8 4 17q0 24 -44 24q-33 0 -93 -4q-39 -3 -73 -8q-9 -1 -18 -15q-26 -44 -91 -177q-4 -9 -15 -9zM597 524q0 -12 -4 -15l-23 -17q-3 0 -3 7q0 16 -2 46.5t-2 38.5q0 6 -4 6
q-2 0 -5 -3q-37 -33 -70 -70l-13 -15q-9 0 -9 8q0 4 11 13q46 40 77 71q21 21 32 28q4 2 5 2q4 0 4 -5q1 -16 3.5 -49t2.5 -46z" />
    <glyph glyph-name="hcircumflex" unicode="&#x125;" horiz-adv-x="298" 
d="M481 627q0 -12 -4 -15l-23 -17q-3 0 -3 7q0 12 -2 42q-52 -48 -118.5 -159t-179.5 -334q27 27 76 58t77 31q9 0 9 -7q0 -6 -9 -18q-20 -29 -52 -94.5t-32 -88.5q0 -20 17 -20q23 0 64 30.5t90 95.5q1 2 3.5 2t2.5 -4q-43 -60 -101.5 -106t-103.5 -46q-33 0 -33 32
q0 23 35.5 92t35.5 79q0 5 -3 5q-12 0 -38 -19.5t-57 -61.5q-38 -66 -55 -100q-11 -21 -20 -21q-12 0 -23 7.5t-11 14.5q0 5 3 11q126 232 154 279q141 241 268 351q0 6 -0.5 17.5t-0.5 16.5q0 6 -4 6q-2 0 -5 -3q-37 -33 -70 -70l-13 -15q-9 0 -9 8q0 4 11 13q46 40 77 71
q21 21 32 28q4 2 5 2q4 0 4 -5q1 -24 3 -45q78 57 142 57q34 0 60.5 -16t26.5 -52q0 -10 -5.5 -24.5t-9.5 -15.5q0 30 -27.5 53.5t-74.5 23.5q-61 0 -112 -35q0 -4 1.5 -19.5t1.5 -21.5z" />
    <glyph glyph-name="Hbar" unicode="&#x126;" horiz-adv-x="603" 
d="M155 7h-29q-42 0 -64 -19l-3 2q37 52 141 214q-12 18 -15 27q1 5 10 5h19h1q1 1 2 1q4 4 5 7q21 37 33 61q-3 5 -15 6q-14 3 -14 7q0 7 9 7h28q1 0 2 1q34 64 34 79q0 11 -5.5 14.5t-19.5 3.5q-12 -1 -20.5 -1t-14 -0.5l-16.5 -1.5q-6 0 -6 6t8 6h21q14 0 92 5
q3 0 14.5 1t22 2t18.5 2q3 1 4.5 -0.5t1 -5t-2.5 -7.5q-19 -26 -43 -67q-4 -6 -11 -19.5t-11 -20.5h24q101 2 203 7q42 77 67 117q5 7 13 11q34 19 87.5 37t80.5 18q12 0 12 -5q0 -4 -10 -4q-12 0 -35.5 -6.5t-39.5 -20.5q-21 -17 -45 -50q-27 -37 -59 -92q7 1 21.5 2.5
t16.5 1.5q7 0 6 -6q-1 -3 -5 -4q-3 0 -19.5 -1.5t-25.5 -2.5q-14 -23 -43 -81q-68 -142 -68 -188q0 -35 46 -35q33 0 61 18q3 0 3.5 -2.5t-2.5 -6.5q-65 -40 -145 -40q-20 1 -31 13.5t-11 29.5q0 16 6 36q16 47 46 111q4 8 4 17q0 24 -44 24q-33 0 -93 -4q-39 -3 -73 -8
q-9 -1 -18 -15q-26 -44 -91 -177q-4 -9 -15 -9zM516 248q13 25 37 71q-220 -11 -230 -12q-6 -12 -17 -33.5t-15 -30.5q-4 -10 2 -11q20 -2 97 -2t111 6q9 1 15 12z" />
    <glyph glyph-name="hbar" unicode="&#x127;" horiz-adv-x="266" 
d="M707 666q0 -10 -5.5 -24.5t-9.5 -15.5q0 29 -27.5 50.5t-74.5 21.5q-60 0 -104.5 -27t-100 -104t-138.5 -231q12 0 50 2t47 2t5 -8q-2 -5 -7 -4q-45 0 -101 -4q-29 -52 -90 -173q27 27 76 58t77 31q9 0 9 -7q0 -6 -9 -18q-20 -29 -52 -94.5t-32 -88.5q0 -20 17 -20
q23 0 64 30.5t90 95.5q1 2 3.5 2t2.5 -4q-43 -60 -101.5 -106t-103.5 -46q-33 0 -33 32q0 23 35.5 92t35.5 79q0 5 -3 5q-12 0 -38 -19.5t-57 -61.5q-38 -66 -55 -100q-11 -21 -20 -21q-12 0 -23 7.5t-11 14.5q0 5 3 11q126 232 154 279q2 3 6 10t5 9q-40 -4 -42 -4
q-4 0 -5.5 2t-0.5 4t4 4t16 4q7 0 35 2q243 401 422 401q34 0 60.5 -16t26.5 -52z" />
    <glyph glyph-name="Itilde" unicode="&#x128;" horiz-adv-x="250" 
d="M36 3q16 2 28 17q42 51 127 190t103 194q2 6 2 11q0 11 -27 11q-34 0 -55 -5l-3 1q1 8 6 12q127 3 188 17q5 -3 5 -8q0 -3 -6 -4q-10 -3 -23 -25q-125 -234 -228 -380q-16 -22 -40 -28q-37 -10 -75 -8q-2 1 -2 5zM488 580q-3 -23 -28 -48t-48 -25q-20 0 -48.5 27.5
t-41.5 27.5q-4 0 -8.5 -1t-8.5 -4.5t-6.5 -5t-7 -7t-6 -7t-5.5 -7.5l-5 -7q-5 -7 -8.5 -5t2.5 11q22 28 52 50q17 13 28 13q14 0 42 -28.5t47 -28.5t30 14.5t11 30.5q0 5 4.5 7t4.5 -7z" />
    <glyph glyph-name="itilde" unicode="&#x129;" horiz-adv-x="197" 
d="M303 137q-50 -65 -115 -107q-21 -14 -51.5 -25.5t-49.5 -11.5q-21 0 -29.5 7.5t-8.5 28.5q0 23 28 76.5t50 85.5q5 7 31 18t31 11t5 -3q0 -5 -5 -12q-30 -44 -55 -95t-25 -71t22 -20q36 0 88 42t80 81q6 6 6 2q0 -3 -2 -7zM339 365q-3 -23 -28 -48t-48 -25
q-20 0 -48.5 27.5t-41.5 27.5q-4 0 -8.5 -1t-8.5 -4.5t-6.5 -5t-7 -7t-6 -7t-6.5 -8.5l-4 -6q-5 -7 -8.5 -5t2.5 11q22 28 52 50q17 13 28 13q14 0 42 -28.5t47 -28.5t30 14.5t11 30.5q0 5 4.5 7t4.5 -7z" />
    <glyph glyph-name="Imacron" unicode="&#x12a;" horiz-adv-x="250" 
d="M36 3q16 2 28 17q42 51 127 190t103 194q2 6 2 11q0 11 -27 11q-34 0 -55 -5l-3 1q1 8 6 12q127 3 188 17q5 -3 5 -8q0 -3 -6 -4q-10 -3 -23 -25q-125 -234 -228 -380q-16 -22 -40 -28q-37 -10 -75 -8q-2 1 -2 5zM458 545l-10 -21l-144 -2l6 21z" />
    <glyph glyph-name="imacron" unicode="&#x12b;" horiz-adv-x="197" 
d="M303 137q-50 -65 -115 -107q-21 -14 -51.5 -25.5t-49.5 -11.5q-21 0 -29.5 7.5t-8.5 28.5q0 23 28 76.5t50 85.5q5 7 31 18t31 11t5 -3q0 -5 -5 -12q-30 -44 -55 -95t-25 -71t22 -20q36 0 88 42t80 81q6 6 6 2q0 -3 -2 -7zM305 341l-10 -21l-126 -2l6 21z" />
    <glyph glyph-name="Iogonek" unicode="&#x12e;" horiz-adv-x="250" 
d="M36 3q16 2 28 17q42 51 127 190t103 194q2 6 2 11q0 11 -27 11q-34 0 -55 -5l-3 1q1 8 6 12q127 3 188 17q5 -3 5 -8q0 -3 -6 -4q-10 -3 -23 -25q-125 -234 -228 -380q-16 -22 -40 -28q-37 -10 -75 -8q-2 1 -2 5zM116 10q0 -2 -4 -3q-29 -11 -45.5 -30t-16.5 -38
q0 -13 10 -21.5t24 -8.5q2 0 6 1t6 1q5 0 1 -4q-1 -2 -3 -2q-17 -5 -46 -5q-38 0 -38 29q0 16 20 35q15 14 45 31t38 17q3 0 3 -2z" />
    <glyph glyph-name="iogonek" unicode="&#x12f;" horiz-adv-x="197" 
d="M269 364q0 -19 -16 -36t-35 -17q-17 0 -17 17q0 20 15 37.5t34 17.5t19 -19zM304 137q-50 -65 -115 -107q-21 -14 -51.5 -25.5t-49.5 -11.5q-21 0 -29.5 7.5t-8.5 28.5q0 23 28 76.5t50 85.5q5 7 31 18t31 11t5 -3q0 -5 -5 -12q-30 -44 -55 -95t-25 -71t22 -20
q36 0 88 42t80 81q6 6 6 2q0 -3 -2 -7zM144 10q0 -2 -4 -3q-29 -11 -45.5 -30t-16.5 -38q0 -13 10 -21.5t24 -8.5q2 0 6 1t6 1q5 0 1 -4q-1 -2 -3 -2q-17 -5 -46 -5q-38 0 -38 29q0 16 20 35q15 14 45 31t38 17q3 0 3 -2z" />
    <glyph glyph-name="Idotaccent" unicode="&#x130;" horiz-adv-x="250" 
d="M36 3q16 2 28 17q42 51 127 190t103 194q2 6 2 11q0 11 -27 11q-34 0 -55 -5l-3 1q1 8 6 12q127 3 188 17q5 -3 5 -8q0 -3 -6 -4q-10 -3 -23 -25q-125 -234 -228 -380q-16 -22 -40 -28q-37 -10 -75 -8q-2 1 -2 5zM433 551q0 -22 -14 -37.5t-33 -15.5q-9 0 -15 6t-6 14
q0 19 14.5 35.5t34.5 16.5q19 0 19 -19z" />
    <glyph glyph-name="dotlessi" unicode="&#x131;" horiz-adv-x="197" 
d="M303 137q-50 -65 -115 -107q-21 -14 -51.5 -25.5t-49.5 -11.5q-21 0 -29.5 7.5t-8.5 28.5q0 23 28 76.5t50 85.5q5 7 31 18t31 11t5 -3q0 -5 -5 -12q-30 -44 -55 -95t-25 -71t22 -20q36 0 88 42t80 81q6 6 6 2q0 -3 -2 -7z" />
    <glyph glyph-name="Jcircumflex" unicode="&#x134;" horiz-adv-x="355" 
d="M539 445q4 -1 4 -5t-4 -4q-8 1 -18 1q-15 0 -23 -9q-10 -13 -23 -34t-21 -36t-25.5 -47t-22.5 -42q-65 -115 -93 -159q-37 -62 -81 -104q-122 -114 -272 -114q-45 0 -77 13q-10 4 -9 14q0 10 2 46l7 2q9 -63 95 -63q84 0 152 68q59 58 144 202q87 146 134 251q3 9 -5 9
q-108 0 -172 -35q-46 -26 -46 -72q0 -11 2 -19q1 -3 -2 -3q-25 17 -25 45q0 49 79 71q84 24 300 24zM531 524q0 -12 -4 -15l-23 -17q-3 0 -3 7q0 16 -2 46.5t-2 38.5q0 6 -4 6q-2 0 -5 -3q-37 -33 -70 -70l-13 -15q-9 0 -9 8q0 4 11 13q46 40 77 71q21 21 32 28q4 2 5 2
q4 0 4 -5q1 -16 3.5 -49t2.5 -46z" />
    <glyph glyph-name="jcircumflex" unicode="&#x135;" horiz-adv-x="209" 
d="M304 126q0 -46 -65 -106q-63 -59 -290 -247q-9 -7 -50 -60t-57 -65q-2 -2 -6 -2q-5 0 -9 12.5t-4 18.5q0 9 5 16q16 20 54.5 48t63.5 72q26 46 49 94t61 132t56 124q5 13 5 17q0 8 -9 6q-2 0 -16 -3t-19 -4q-3 -1 -4 3q1 4 5 6q26 4 52.5 14.5t43 18t21.5 7.5q8 0 8 -8
q0 -5 -6 -17q-78 -146 -131 -234q-58 -99 -115 -184q14 11 70 55.5t91.5 74t81.5 75.5t72 85q22 32 22 65q0 14 -6 22q-3 6 0.5 6.5t6.5 -2.5q19 -16 19 -40zM260 307q0 -12 -4 -15l-23 -17q-3 0 -3 7q0 16 -2 46.5t-2 38.5q0 6 -4 6q-2 0 -5 -3q-37 -33 -70 -70l-13 -15
q-9 0 -9 8q0 4 11 13q46 40 77 71q21 21 32 28q4 2 5 2q4 0 4 -5q1 -16 3.5 -49t2.5 -46z" />
    <glyph glyph-name="Kcommaaccent" unicode="&#x136;" horiz-adv-x="535" 
d="M45 -20q-6 0 -6 3q35 42 83 119q108 176 176 317q3 6 3 8q0 3 -5 3q-19 0 -55.5 -3t-50.5 -3q-11 0 -11 4q0 5 6.5 16.5t10.5 11.5q0 -8 10 -11q30 -7 78 -7q92 0 158 5q3 -5 -1 -9q-15 0 -39 -2q-7 0 -12 -8q-37 -59 -122 -201q-4 -6 -1.5 -7.5t7.5 1.5q96 56 192 122
q159 110 162 111h4q12 -8 39 -14q1 -3 -1 -5q-70 -23 -225 -120q-81 -51 -110 -72q-4 -3 -4 -6q107 -157 225 -272q106 -105 219 -105q69 0 118 34q8 5 8 -2q0 -2 -4 -5q-63 -41 -165 -41q-78 0 -154 35t-159 125q-83 91 -156 195q-5 7 -11 -3q-41 -68 -90 -174
q-6 -11 -9 -26q-23 7 -55 7t-53 -21zM288 -61q0 -23 -27.5 -61.5t-85.5 -82.5q-8 -2 -8 5q84 60 84 109q0 24 -17 33q-4 3 -4 5t16 16t21 14q3 0 7.5 -3.5t9 -12.5t4.5 -22z" />
    <glyph glyph-name="kcommaaccent" unicode="&#x137;" horiz-adv-x="316" 
d="M599 596q0 -8 -6 -23t-7 -24q0 -4 -3 -5q-4 -1 -4 4q0 2 1 5.5t1 5.5q0 20 -17.5 32.5t-39.5 12.5q-78 0 -140 -64q-9 -9 -18 -20t-16.5 -20t-17 -23.5t-15 -22.5t-16.5 -25t-15 -23.5t-16 -26.5l-15 -25q-18 -30 -41.5 -74.5t-40 -77.5t-34.5 -69.5t-19 -39.5
q-3 -7 -3 -8q1 -1 8 6q27 27 44 41q-1 3 -1 13q0 7 20.5 22.5t29.5 18.5q3 0 3 -12q105 89 112 89q11 0 16 -13q0 -6 -10 -9q-21 -7 -57.5 -31.5t-59.5 -44.5q6 -69 32 -120q13 -26 32 -26q40 0 128 119q4 6 7 1q3 -2 0 -5q-30 -40 -67 -78t-64 -54q-32 -19 -50 -19
q-27 0 -40 27t-29 112q-58 -49 -102 -128q-4 -8 -12 -8q-10 0 -21 11t-11 22q0 3 3 9q63 125 152 265q66 106 165 220q83 95 162 121q18 6 38 6t37 -11.5t17 -32.5zM168 -61q0 -23 -27.5 -61.5t-85.5 -82.5q-8 -2 -8 5q84 60 84 109q0 24 -17 33q-4 3 -4 5t16 16t21 14
q3 0 7.5 -3.5t9 -12.5t4.5 -22z" />
    <glyph glyph-name="Lacute" unicode="&#x139;" horiz-adv-x="440" 
d="M469 436q-16 4 -32 4q-39 0 -61 -35q-6 -9 -46 -84q-60 -115 -109 -191q-43 -68 -108 -104q-7 -3 -7 -6t8 -3q172 23 245 23q45 0 60 -3q16 -4 16 -14q0 -15 -18 -51q-2 0 -2 4q0 14 -9 17q-52 19 -148 19q-180 0 -248 -20q-10 2 -10 11q0 6 8 6q40 0 56 10q28 17 66 80
q31 52 89.5 170.5t75.5 150.5q4 8 16 12q19 7 72.5 12.5t84.5 5.5q4 -2 4 -7t-3 -7zM549 612l1 -4q0 -2 -3 -5q-14 -11 -163 -111q-6 -4 -7 0q-1 1 1 2q21 18 74 62.5t80 66.5q4 2 5 2q2 0 6.5 -5t5.5 -8z" />
    <glyph glyph-name="lacute" unicode="&#x13a;" horiz-adv-x="196" 
d="M56 34q0 -15 2 -23.5t12 -15.5t29 -7q42 0 84 24t67 49.5t56 64.5q6 6 2 8q-3 -1 -7 -4q-92 -119 -157 -119q-26 0 -26 31q0 41 48 139q164 330 254 405q63 52 123 52q37 0 52 -20q2 -2 4 4q4 10 4 24q0 31 -35 31q-34 0 -77.5 -27t-75.5 -58q-83 -78 -162.5 -188.5
t-140.5 -220.5q-56 -101 -56 -149zM580 767l1 -4q0 -2 -3 -5q-14 -11 -163 -111q-6 -4 -7 0q0 1 1 2q21 18 74 62.5t80 66.5q4 2 5 2q2 0 6.5 -5t5.5 -8z" />
    <glyph glyph-name="Lcommaaccent" unicode="&#x13b;" horiz-adv-x="440" 
d="M469 436q-16 4 -32 4q-39 0 -61 -35q-6 -9 -46 -84q-60 -115 -109 -191q-43 -68 -108 -104q-7 -3 -7 -6t8 -3q172 23 245 23q45 0 60 -3q16 -4 16 -14q0 -15 -18 -51q-2 0 -2 4q0 14 -9 17q-52 19 -148 19q-180 0 -248 -20q-10 2 -10 11q0 6 8 6q40 0 56 10q28 17 66 80
q31 52 89.5 170.5t75.5 150.5q4 8 16 12q19 7 72.5 12.5t84.5 5.5q4 -2 4 -7t-3 -7zM256 -61q0 -23 -27.5 -61.5t-85.5 -82.5q-8 -2 -8 5q84 60 84 109q0 24 -17 33q-4 3 -4 5t16 16t21 14q3 0 7.5 -3.5t9 -12.5t4.5 -22z" />
    <glyph glyph-name="lcommaaccent" unicode="&#x13c;" horiz-adv-x="196" 
d="M56 34q0 -15 2 -23.5t12 -15.5t29 -7q42 0 84 24t67 49.5t56 64.5q6 6 2 8q-3 -1 -7 -4q-92 -119 -157 -119q-26 0 -26 31q0 41 48 139q164 330 254 405q63 52 123 52q37 0 52 -20q2 -2 4 4q4 10 4 24q0 31 -35 31q-34 0 -77.5 -27t-75.5 -58q-83 -78 -162.5 -188.5
t-140.5 -220.5q-56 -101 -56 -149zM135 -61q0 -23 -27.5 -61.5t-85.5 -82.5q-8 -2 -8 5q84 60 84 109q0 24 -17 33q-4 3 -4 5t16 16t21 14q3 0 7.5 -3.5t9 -12.5t4.5 -22z" />
    <glyph glyph-name="Lcaron" unicode="&#x13d;" horiz-adv-x="440" 
d="M469 436q-16 4 -32 4q-39 0 -61 -35q-6 -9 -46 -84q-60 -115 -109 -191q-43 -68 -108 -104q-7 -3 -7 -6t8 -3q172 23 245 23q45 0 60 -3q16 -4 16 -14q0 -15 -18 -51q-2 0 -2 4q0 14 -9 17q-52 19 -148 19q-180 0 -248 -20q-10 2 -10 11q0 6 8 6q40 0 56 10q28 17 66 80
q31 52 89.5 170.5t75.5 150.5q4 8 16 12q19 7 72.5 12.5t84.5 5.5q4 -2 4 -7t-3 -7zM537 469q0 -23 -27.5 -61.5t-85.5 -82.5q-8 -2 -8 5q84 60 84 109q0 24 -17 33q-4 3 -4 5t16 16t21 14q3 0 7.5 -3.5t9 -12.5t4.5 -22z" />
    <glyph glyph-name="lcaron" unicode="&#x13e;" horiz-adv-x="250" 
d="M56 34q0 -15 2 -23.5t12 -15.5t29 -7q42 0 84 24t67 49.5t56 64.5q6 6 2 8q-3 -1 -7 -4q-92 -119 -157 -119q-26 0 -26 31q0 41 48 139q164 330 254 405q63 52 123 52q37 0 52 -20q2 -2 4 4q4 10 4 24q0 31 -35 31q-34 0 -77.5 -27t-75.5 -58q-83 -78 -162.5 -188.5
t-140.5 -220.5q-56 -101 -56 -149zM507 564q0 -23 -27.5 -61.5t-85.5 -82.5q-8 -2 -8 5q84 60 84 109q0 24 -17 33q-4 3 -4 5t16 16t21 14q3 0 7.5 -3.5t9 -12.5t4.5 -22z" />
    <glyph glyph-name="Ldot" unicode="&#x13f;" horiz-adv-x="440" 
d="M469 436q-16 4 -32 4q-39 0 -61 -35q-6 -9 -46 -84q-60 -115 -109 -191q-43 -68 -108 -104q-7 -3 -7 -6t8 -3q172 23 245 23q45 0 60 -3q16 -4 16 -14q0 -15 -18 -51q-2 0 -2 4q0 14 -9 17q-52 19 -148 19q-180 0 -248 -20q-10 2 -10 11q0 6 8 6q40 0 56 10q28 17 66 80
q31 52 89.5 170.5t75.5 150.5q4 8 16 12q19 7 72.5 12.5t84.5 5.5q4 -2 4 -7t-3 -7zM441 262q0 -22 -14 -37.5t-33 -15.5q-9 0 -15 6t-6 14q0 19 14.5 35.5t34.5 16.5q19 0 19 -19z" />
    <glyph glyph-name="ldot" unicode="&#x140;" horiz-adv-x="250" 
d="M56 34q0 -15 2 -23.5t12 -15.5t29 -7q42 0 84 24t67 49.5t56 64.5q6 6 2 8q-3 -1 -7 -4q-92 -119 -157 -119q-26 0 -26 31q0 41 48 139q164 330 254 405q63 52 123 52q37 0 52 -20q2 -2 4 4q4 10 4 24q0 31 -35 31q-34 0 -77.5 -27t-75.5 -58q-83 -78 -162.5 -188.5
t-140.5 -220.5q-56 -101 -56 -149zM393 364q0 -22 -14 -37.5t-33 -15.5q-9 0 -15 6t-6 14q0 19 14.5 35.5t34.5 16.5q19 0 19 -19z" />
    <glyph glyph-name="Lslash" unicode="&#x141;" horiz-adv-x="440" 
d="M469 436q-16 4 -32 4q-39 0 -61 -35q-6 -9 -46 -84q-19 -36 -44 -82q9 3 51 14t68 19q9 0 8 -12q0 -4 -2 -4t-4 1l-130 -34q-38 -66 -56 -93q-43 -68 -108 -104q-7 -3 -7 -6t8 -3q172 23 245 23q45 0 60 -3q16 -4 16 -14q0 -15 -18 -51q-2 0 -2 4q0 14 -9 17
q-52 19 -148 19q-180 0 -248 -20q-10 2 -10 11q0 6 8 6q40 0 56 10q28 17 66 80q24 40 50 91q-10 -3 -19.5 -6.5t-16 -6t-11.5 -4t-7 -2.5l-2 -1q-6 0 -10.5 5.5t-4.5 8.5q2 2 3 2q8 0 76 21q10 20 49.5 100t57.5 113q4 8 16 12q19 7 72.5 12.5t84.5 5.5q4 -2 4 -7t-3 -7z
" />
    <glyph glyph-name="lslash" unicode="&#x142;" horiz-adv-x="196" 
d="M56 34q0 -15 2 -23.5t12 -15.5t29 -7q42 0 84 24t67 49.5t56 64.5q6 6 2 8q-3 -1 -7 -4q-92 -119 -157 -119q-26 0 -26 31q0 41 48 139q80 160 129 241q82 16 105 17q5 1 5 3q0 11 -7 11q-22 0 -93 -15q70 112 115 148q63 52 123 52q37 0 52 -20q2 -2 4 4q4 10 4 24
q0 31 -35 31q-34 0 -77.5 -27t-75.5 -58q-62 -58 -139 -158q-99 -19 -101 -21q0 -12 11 -12q42 10 77 16q-87 -118 -151 -234q-56 -101 -56 -149z" />
    <glyph glyph-name="Nacute" unicode="&#x143;" horiz-adv-x="554" 
d="M110 -15h-3q-4 4 -13 20t-9 24q0 14 20 47q25 44 101 170q50 82 66 124q5 13 5 27q0 26 -25 26q-21 0 -49 -2q-9 0 -9 14q0 4 3 4q20 -6 53 -6q29 0 96 21q6 0 8 -9q2 -29 8 -50q8 -32 25 -80t41 -108.5t33 -86.5q7 -16 13 -16q4 0 11 15q118 239 183 339q41 63 79 63
q12 0 23.5 -9t14.5 -19q0 -2 -3 -2q-69 0 -117 -69q-83 -117 -177 -325q-38 -86 -50 -111q-4 -7 -6 -7q-4 0 -9 7q-41 147 -123 352q-6 13 -11 13t-13 -12q-99 -152 -145 -257q-21 -48 -21 -97zM664 612l1 -4q0 -2 -3 -5q-14 -11 -163 -111q-6 -4 -7 0q0 1 1 2
q21 18 74 62.5t80 66.5q4 2 5 2q2 0 6.5 -5t5.5 -8z" />
    <glyph glyph-name="nacute" unicode="&#x144;" horiz-adv-x="286" 
d="M396 133q-41 -58 -99 -102t-109 -44q-37 0 -37 23q0 22 36 85t43 81q2 5 0 8.5t-6 0.5q-60 -40 -103 -89q-9 -15 -29 -49t-32 -53q-6 -9 -12 -9q-10 0 -18 14t-8 25q0 12 45 68q50 103 65 137q5 7 13 7q15 0 25.5 -9t10.5 -20q0 -2 -7.5 -15t-20.5 -34.5t-22 -38.5
q40 40 96 81.5t71 41.5q5 0 11.5 -6t6.5 -10t-5 -12q-31 -44 -65 -105t-34 -84q0 -17 15 -17q32 0 83.5 42.5t80.5 88.5q3 3 6 1t-1 -7zM396 393l1 -4q0 -2 -3 -5q-14 -11 -163 -111q-6 -4 -7 0q-1 1 1 2q21 18 74 62.5t80 66.5q4 2 5 2q2 0 6.5 -5t5.5 -8z" />
    <glyph glyph-name="Ncommaaccent" unicode="&#x145;" horiz-adv-x="554" 
d="M110 -15h-3q-4 4 -13 20t-9 24q0 14 20 47q25 44 101 170q50 82 66 124q5 13 5 27q0 26 -25 26q-21 0 -49 -2q-9 0 -9 14q0 4 3 4q20 -6 53 -6q29 0 96 21q6 0 8 -9q2 -29 8 -50q8 -32 25 -80t41 -108.5t33 -86.5q7 -16 13 -16q4 0 11 15q118 239 183 339q41 63 79 63
q12 0 23.5 -9t14.5 -19q0 -2 -3 -2q-69 0 -117 -69q-83 -117 -177 -325q-38 -86 -50 -111q-4 -7 -6 -7q-4 0 -9 7q-41 147 -123 352q-6 13 -11 13t-13 -12q-99 -152 -145 -257q-21 -48 -21 -97zM302 -61q0 -23 -27.5 -61.5t-85.5 -82.5q-8 -2 -8 5q84 60 84 109q0 24 -17 33
q-4 3 -4 5t16 16t21 14q3 0 7.5 -3.5t9 -12.5t4.5 -22z" />
    <glyph glyph-name="ncommaaccent" unicode="&#x146;" horiz-adv-x="286" 
d="M396 133q-41 -58 -99 -102t-109 -44q-37 0 -37 23q0 22 36 85t43 81q2 5 0 8.5t-6 0.5q-60 -40 -103 -89q-9 -15 -29 -49t-32 -53q-6 -9 -12 -9q-10 0 -18 14t-8 25q0 12 45 68q50 103 65 137q5 7 13 7q15 0 25.5 -9t10.5 -20q0 -2 -7.5 -15t-20.5 -34.5t-22 -38.5
q40 40 96 81.5t71 41.5q5 0 11.5 -6t6.5 -10t-5 -12q-31 -44 -65 -105t-34 -84q0 -17 15 -17q32 0 83.5 42.5t80.5 88.5q3 3 6 1t-1 -7zM137 -61q0 -23 -27.5 -61.5t-85.5 -82.5q-8 -2 -8 5q84 60 84 109q0 24 -17 33q-4 3 -4 5t16 16t21 14q3 0 7.5 -3.5t9 -12.5t4.5 -22z
" />
    <glyph glyph-name="Ncaron" unicode="&#x147;" horiz-adv-x="554" 
d="M110 -15h-3q-4 4 -13 20t-9 24q0 14 20 47q25 44 101 170q50 82 66 124q5 13 5 27q0 26 -25 26q-21 0 -49 -2q-9 0 -9 14q0 4 3 4q20 -6 53 -6q29 0 96 21q6 0 8 -9q2 -29 8 -50q8 -32 25 -80t41 -108.5t33 -86.5q7 -16 13 -16q4 0 11 15q118 239 183 339q41 63 79 63
q12 0 23.5 -9t14.5 -19q0 -2 -3 -2q-69 0 -117 -69q-83 -117 -177 -325q-38 -86 -50 -111q-4 -7 -6 -7q-4 0 -9 7q-41 147 -123 352q-6 13 -11 13t-13 -12q-99 -152 -145 -257q-21 -48 -21 -97zM482 584q0 12 4 15l23 17q3 0 3 -7q0 -16 2 -46.5t2 -38.5q0 -6 4 -6q2 0 5 3
q37 33 70 70l13 15q9 0 9 -8q0 -4 -11 -13q-46 -40 -77 -71q-21 -21 -32 -28q-4 -2 -5 -2q-4 0 -4 5q-1 16 -3.5 49t-2.5 46z" />
    <glyph glyph-name="ncaron" unicode="&#x148;" horiz-adv-x="286" 
d="M396 133q-41 -58 -99 -102t-109 -44q-37 0 -37 23q0 22 36 85t43 81q2 5 0 8.5t-6 0.5q-60 -40 -103 -89q-9 -15 -29 -49t-32 -53q-6 -9 -12 -9q-10 0 -18 14t-8 25q0 12 45 68q50 103 65 137q5 7 13 7q15 0 25.5 -9t10.5 -20q0 -2 -7.5 -15t-20.5 -34.5t-22 -38.5
q40 40 96 81.5t71 41.5q5 0 11.5 -6t6.5 -10t-5 -12q-31 -44 -65 -105t-34 -84q0 -17 15 -17q32 0 83.5 42.5t80.5 88.5q3 3 6 1t-1 -7zM231 375q0 12 4 15l23 17q3 0 3 -7q0 -16 2 -46.5t2 -38.5q0 -6 4 -6q2 0 5 3q37 33 70 70l13 15q9 0 9 -8q0 -4 -11 -13
q-46 -40 -77 -71q-21 -21 -32 -28q-4 -2 -5 -2q-4 0 -4 5q-1 16 -3.5 49t-2.5 46z" />
    <glyph glyph-name="Omacron" unicode="&#x14c;" horiz-adv-x="605" 
d="M666 319q0 -125 -107.5 -226.5t-244.5 -101.5q-42 0 -73.5 5t-60.5 18t-44.5 40t-15.5 67q0 61 41.5 134.5t92.5 116.5q87 75 219 75q49 0 89.5 -10t72 -40.5t31.5 -77.5zM591 326q0 113 -122 113q-98 0 -164 -80q-41 -49 -75.5 -120.5t-34.5 -127.5q0 -111 118 -111
q70 0 136 51.5t104 127.5t38 147zM585 545l-10 -21l-144 -2l6 21z" />
    <glyph glyph-name="omacron" unicode="&#x14d;" horiz-adv-x="256" 
d="M382 164q-45 -54 -92 -54q-46 0 -64 31q-39 -96 -104 -135q-30 -19 -53 -19q-36 0 -36 32t19.5 68.5t42.5 61.5q22 24 56.5 43t63.5 22q5 29 20 31q5 1 16.5 6.5t14.5 9.5q3 3 6 1t1 -6q-17 -28 -17 -65q0 -72 42 -72q38 0 78 49q2 5 6 2.5t0 -6.5zM218 161v-1
q-4 16 -4 44q0 3 -4 3q-34 0 -83 -81q-34 -61 -33 -94q0 -18 13 -18q29 0 68 57.5t43 89.5zM349 341l-10 -21l-126 -2l6 21z" />
    <glyph glyph-name="Obreve" unicode="&#x14e;" horiz-adv-x="605" 
d="M666 319q0 -125 -107.5 -226.5t-244.5 -101.5q-42 0 -73.5 5t-60.5 18t-44.5 40t-15.5 67q0 61 41.5 134.5t92.5 116.5q87 75 219 75q49 0 89.5 -10t72 -40.5t31.5 -77.5zM591 326q0 113 -122 113q-98 0 -164 -80q-41 -49 -75.5 -120.5t-34.5 -127.5q0 -111 118 -111
q70 0 136 51.5t104 127.5t38 147zM576 567q0 -6 -6 -15q-16 -21 -41 -33t-45 -12q-22 0 -35.5 13.5t-13.5 36.5q0 6 12 13t19 7q4 0 4 -6q0 -44 39 -44q32 0 50 35q6 12 11 12q1 0 3.5 -2.5t2.5 -4.5z" />
    <glyph glyph-name="obreve" unicode="&#x14f;" horiz-adv-x="256" 
d="M382 164q-45 -54 -92 -54q-46 0 -64 31q-39 -96 -104 -135q-30 -19 -53 -19q-36 0 -36 32t19.5 68.5t42.5 61.5q22 24 56.5 43t63.5 22q5 29 20 31q5 1 16.5 6.5t14.5 9.5q3 3 6 1t1 -6q-17 -28 -17 -65q0 -72 42 -72q38 0 78 49q2 5 6 2.5t0 -6.5zM218 161v-1
q-4 16 -4 44q0 3 -4 3q-34 0 -83 -81q-34 -61 -33 -94q0 -18 13 -18q29 0 68 57.5t43 89.5zM346 356q0 -6 -6 -15q-16 -21 -41 -33t-45 -12q-22 0 -35.5 13.5t-13.5 36.5q0 6 12 13t19 7q4 0 4 -6q0 -44 39 -44q32 0 50 35q6 12 11 12q1 0 3.5 -2.5t2.5 -4.5z" />
    <glyph glyph-name="Ohungarumlaut" unicode="&#x150;" horiz-adv-x="605" 
d="M666 319q0 -125 -107.5 -226.5t-244.5 -101.5q-42 0 -73.5 5t-60.5 18t-44.5 40t-15.5 67q0 61 41.5 134.5t92.5 116.5q87 75 219 75q49 0 89.5 -10t72 -40.5t31.5 -77.5zM591 326q0 113 -122 113q-98 0 -164 -80q-41 -49 -75.5 -120.5t-34.5 -127.5q0 -111 118 -111
q70 0 136 51.5t104 127.5t38 147zM603 580q0 -1 -9 -12q-34 -36 -75 -72q-3 -2 -4 -2q-2 2 1 5q4 7 68 92q3 3 6 3q5 0 9 -4.5t4 -9.5zM530 582q0 -4 -10 -14q-11 -12 -38.5 -38.5t-36.5 -35.5q-2 -2 -3.5 -0.5t0.5 3.5q9 15 21 31t27.5 35t23.5 30q2 3 5 3q4 0 7.5 -5
t3.5 -9z" />
    <glyph glyph-name="ohungarumlaut" unicode="&#x151;" horiz-adv-x="256" 
d="M382 164q-45 -54 -92 -54q-46 0 -64 31q-39 -96 -104 -135q-30 -19 -53 -19q-36 0 -36 32t19.5 68.5t42.5 61.5q22 24 56.5 43t63.5 22q5 29 20 31q5 1 16.5 6.5t14.5 9.5q3 3 6 1t1 -6q-17 -28 -17 -65q0 -72 42 -72q38 0 78 49q2 5 6 2.5t0 -6.5zM218 161v-1
q-4 16 -4 44q0 3 -4 3q-34 0 -83 -81q-34 -61 -33 -94q0 -18 13 -18q29 0 68 57.5t43 89.5zM373 366q0 -1 -9 -12q-34 -36 -75 -72q-3 -2 -4 -2q-2 2 1 5q4 7 68 92q3 3 6 3q5 0 9 -4.5t4 -9.5zM300 368q0 -4 -10 -14q-11 -12 -38.5 -38.5t-36.5 -35.5q-2 -2 -3.5 -0.5
t0.5 3.5q9 15 21 31t27.5 35t23.5 30q2 3 5 3q4 0 7.5 -5t3.5 -9z" />
    <glyph glyph-name="OE" unicode="&#x152;" horiz-adv-x="840" 
d="M570 311q0 26 -4 44.5t-16 39t-39 31.5t-69 11q-54 0 -104 -36t-82.5 -88.5t-51.5 -107.5t-19 -95q0 -113 110 -113q74 0 147.5 54.5t111.5 165.5q16 48 16 94zM646 236q19 -2 40 -2q106 0 153 10q3 1 4.5 -0.5t0.5 -3.5q-4 -6 -7 -16q-1 -4 -8 -4h-1q-68 2 -126 2
q-33 0 -57 -1q-8 0 -11 -6q-15 -24 -43 -84t-28 -85q0 -45 40 -45q83 0 165 22q58 16 93 39q7 2 8 0l-3 -6q-13 -12 -21 -24q-7 -13 -29 -18q-80 -18 -196 -23q-79 0 -113.5 7t-34.5 30q0 17 17 48q-94 -91 -206 -91q-97 0 -137 28t-40 103q0 47 25.5 103t68.5 106.5
t108 84.5t135 34q168 0 168 -121q0 -13 -1 -20q54 107 55 112q2 7 -2 13q0 5 10 5q26 0 106 2.5t115 2.5q24 0 24 -5q0 -3 -3 -8q-2 -3 -5.5 -13.5t-4.5 -12.5q-4 -9 -8 2t-10 13q-53 9 -131 9q-39 -56 -110 -187z" />
    <glyph glyph-name="oe" unicode="&#x153;" horiz-adv-x="353" 
d="M179 55q-22 -28 -58.5 -48t-56.5 -20q-41 0 -41 43q0 18 14 45.5t35 51.5q37 43 119 90q10 -2 1 -8q-51 -26 -79 -71.5t-28 -92.5q0 -30 19 -30q36 0 68.5 51.5t32.5 95.5q0 24 -6 36q1 2 15.5 11t21.5 11q6 2 6 -2q6 -31 -4 -62q29 34 62.5 51t54.5 17q20 0 20 -17
q0 -36 -52.5 -76.5t-98.5 -55.5q-2 -7 -2 -19q0 -18 13 -32.5t37 -14.5q36 0 83 26t89 77q4 4 5 0.5t-2 -6.5q-101 -117 -207 -117q-32 0 -47.5 11.5t-15.5 39.5q0 7 2 15zM225 83q41 15 66.5 46.5t25.5 55.5q0 20 -24 4q-51 -32 -68 -106z" />
    <glyph glyph-name="Racute" unicode="&#x154;" horiz-adv-x="539" 
d="M136 328q-2 -1 -4 0t-2 2q8 22 11 40q1 15 12 21q47 25 123 41q59 12 132 12q93 0 139 -18.5t46 -61.5q0 -50 -48 -90.5t-143 -48.5q-11 -1 -7 -12q46 -85 128 -199q53 -72 108 -113.5t126 -41.5q50 0 109 31q6 4 6 -2q0 -4 -4 -5q-73 -38 -142 -38q-109 0 -175.5 44.5
t-139.5 156.5q-15 24 -56.5 94.5t-47.5 80.5q0 4 3 4q92 0 145.5 34.5t53.5 101.5q0 32 -16 52t-64 20q-15 0 -27 -13q-32 -37 -123 -195.5t-120 -222.5q-1 -2 -4 -2q-12 2 -41 2q-20 0 -31 -2q-25 -14 -29 -19q-2 0 -3.5 1.5t-0.5 2.5q156 227 265 431q5 12 -5 12
q-55 -3 -116 -36q-34 -19 -58 -64zM564 612l1 -4q0 -2 -3 -5q-14 -11 -163 -111q-6 -4 -7 0q-1 1 1 2q21 18 74 62.5t80 66.5q4 2 5 2q2 0 6.5 -5t5.5 -8z" />
    <glyph glyph-name="racute" unicode="&#x155;" horiz-adv-x="210" 
d="M300 217q-17 -19 -26 -40q-2 -3 -4 -3q-1 0 -4.5 4t-11.5 8t-20 4q-24 0 -59 -31q-24 -21 -44 -48.5t-29 -43.5t-36 -66q-2 -5 -9 -5q-8 0 -19 10t-11 20q0 6 7 18q18 32 102 180q4 9 11 9q10 0 19.5 -10.5t9.5 -19.5q0 -8 -24 -51q-3 -5 -1 -5t5 3q78 81 122 81
q9 0 15.5 -4.5t6.5 -9.5zM395 393l1 -4q0 -2 -3 -5q-14 -11 -163 -111q-6 -4 -7 0q-1 1 1 2q21 18 74 62.5t80 66.5q4 2 5 2q2 0 6.5 -5t5.5 -8z" />
    <glyph glyph-name="Rcommaaccent" unicode="&#x156;" horiz-adv-x="539" 
d="M136 328q-2 -1 -4 0t-2 2q8 22 11 40q1 15 12 21q47 25 123 41q59 12 132 12q93 0 139 -18.5t46 -61.5q0 -50 -48 -90.5t-143 -48.5q-11 -1 -7 -12q46 -85 128 -199q53 -72 108 -113.5t126 -41.5q50 0 109 31q6 4 6 -2q0 -4 -4 -5q-73 -38 -142 -38q-109 0 -175.5 44.5
t-139.5 156.5q-15 24 -56.5 94.5t-47.5 80.5q0 4 3 4q92 0 145.5 34.5t53.5 101.5q0 32 -16 52t-64 20q-15 0 -27 -13q-32 -37 -123 -195.5t-120 -222.5q-1 -2 -4 -2q-12 2 -41 2q-20 0 -31 -2q-25 -14 -29 -19q-2 0 -3.5 1.5t-0.5 2.5q156 227 265 431q5 12 -5 12
q-55 -3 -116 -36q-34 -19 -58 -64zM298 -61q0 -23 -27.5 -61.5t-85.5 -82.5q-8 -2 -8 5q84 60 84 109q0 24 -17 33q-4 3 -4 5t16 16t21 14q3 0 7.5 -3.5t9 -12.5t4.5 -22z" />
    <glyph glyph-name="rcommaaccent" unicode="&#x157;" horiz-adv-x="210" 
d="M300 217q-17 -19 -26 -40q-2 -3 -4 -3q-1 0 -4.5 4t-11.5 8t-20 4q-24 0 -59 -31q-24 -21 -44 -48.5t-29 -43.5t-36 -66q-2 -5 -9 -5q-8 0 -19 10t-11 20q0 6 7 18q18 32 102 180q4 9 11 9q10 0 19.5 -10.5t9.5 -19.5q0 -8 -24 -51q-3 -5 -1 -5t5 3q78 81 122 81
q9 0 15.5 -4.5t6.5 -9.5zM133 -61q0 -23 -27.5 -61.5t-85.5 -82.5q-8 -2 -8 5q84 60 84 109q0 24 -17 33q-4 3 -4 5t16 16t21 14q3 0 7.5 -3.5t9 -12.5t4.5 -22z" />
    <glyph glyph-name="Rcaron" unicode="&#x158;" horiz-adv-x="539" 
d="M136 328q-2 -1 -4 0t-2 2q8 22 11 40q1 15 12 21q47 25 123 41q59 12 132 12q93 0 139 -18.5t46 -61.5q0 -50 -48 -90.5t-143 -48.5q-11 -1 -7 -12q46 -85 128 -199q53 -72 108 -113.5t126 -41.5q50 0 109 31q6 4 6 -2q0 -4 -4 -5q-73 -38 -142 -38q-109 0 -175.5 44.5
t-139.5 156.5q-15 24 -56.5 94.5t-47.5 80.5q0 4 3 4q92 0 145.5 34.5t53.5 101.5q0 32 -16 52t-64 20q-15 0 -27 -13q-32 -37 -123 -195.5t-120 -222.5q-1 -2 -4 -2q-12 2 -41 2q-20 0 -31 -2q-25 -14 -29 -19q-2 0 -3.5 1.5t-0.5 2.5q156 227 265 431q5 12 -5 12
q-55 -3 -116 -36q-34 -19 -58 -64zM402 584q0 12 4 15l23 17q3 0 3 -7q0 -16 2 -46.5t2 -38.5q0 -6 4 -6q2 0 5 3q37 33 70 70l13 15q9 0 9 -8q0 -4 -11 -13q-46 -40 -77 -71q-21 -21 -32 -28q-4 -2 -5 -2q-4 0 -4 5q-1 16 -3.5 49t-2.5 46z" />
    <glyph glyph-name="rcaron" unicode="&#x159;" horiz-adv-x="210" 
d="M300 217q-17 -19 -26 -40q-2 -3 -4 -3q-1 0 -4.5 4t-11.5 8t-20 4q-24 0 -59 -31q-24 -21 -44 -48.5t-29 -43.5t-36 -66q-2 -5 -9 -5q-8 0 -19 10t-11 20q0 6 7 18q18 32 102 180q4 9 11 9q10 0 19.5 -10.5t9.5 -19.5q0 -8 -24 -51q-3 -5 -1 -5t5 3q78 81 122 81
q9 0 15.5 -4.5t6.5 -9.5zM227 375q0 12 4 15l23 17q3 0 3 -7q0 -16 2 -46.5t2 -38.5q0 -6 4 -6q2 0 5 3q37 33 70 70l13 15q9 0 9 -8q0 -4 -11 -13q-46 -40 -77 -71q-21 -21 -32 -28q-4 -2 -5 -2q-4 0 -4 5q-1 16 -3.5 49t-2.5 46z" />
    <glyph glyph-name="Sacute" unicode="&#x15a;" horiz-adv-x="357" 
d="M469 407q-15 -24 -24 -59q-4 -2 -7 3q3 6 3 15q0 19 -29.5 38.5t-65.5 19.5q-38 0 -68 -23.5t-30 -67.5q0 -25 12 -44.5t42 -44.5q54 -45 54 -93q0 -73 -68.5 -115.5t-147.5 -42.5q-71 0 -114 22q-13 5 -14 11q4 20 29 81q1 3 3 3q4 0 4 -4q-3 -6 -3 -17
q0 -37 31.5 -61.5t73.5 -24.5q58 0 96 26.5t38 74.5q0 27 -12.5 48t-41.5 48q-46 43 -46 91q0 63 68 107t141 44q51 0 71 -21q5 -7 5 -14zM550 612l1 -4q0 -2 -3 -5q-14 -11 -163 -111q-6 -4 -7 0q0 1 1 2q21 18 74 62.5t80 66.5q4 2 5 2q2 0 6.5 -5t5.5 -8z" />
    <glyph glyph-name="sacute" unicode="&#x15b;" horiz-adv-x="185" 
d="M202 188q-1 -3 -3 -3t-3 2q-3 7 -15 13.5t-25 6.5q-11 0 -19.5 -8.5t-8.5 -21.5q0 -18 20 -42q28 -35 28 -57q0 -45 -40 -69.5t-77 -24.5q-69 0 -75 45q19 8 32 27q4 0 4 -5q2 -23 17 -39t38 -16q24 0 37.5 9t13.5 37q0 20 -24 51q-16 22 -16 44q0 26 41 62t70 36
q21 0 21 -15q-12 -18 -16 -32zM353 393l1 -4q0 -2 -3 -5q-14 -11 -163 -111q-6 -4 -7 0q-1 1 1 2q21 18 74 62.5t80 66.5q4 2 5 2q2 0 6.5 -5t5.5 -8z" />
    <glyph glyph-name="Scircumflex" unicode="&#x15c;" horiz-adv-x="357" 
d="M469 407q-15 -24 -24 -59q-4 -2 -7 3q3 6 3 15q0 19 -29.5 38.5t-65.5 19.5q-38 0 -68 -23.5t-30 -67.5q0 -25 12 -44.5t42 -44.5q54 -45 54 -93q0 -73 -68.5 -115.5t-147.5 -42.5q-71 0 -114 22q-13 5 -14 11q4 20 29 81q1 3 3 3q4 0 4 -4q-3 -6 -3 -17
q0 -37 31.5 -61.5t73.5 -24.5q58 0 96 26.5t38 74.5q0 27 -12.5 48t-41.5 48q-46 43 -46 91q0 63 68 107t141 44q51 0 71 -21q5 -7 5 -14zM477 524q0 -12 -4 -15l-23 -17q-3 0 -3 7q0 16 -2 46.5t-2 38.5q0 6 -4 6q-2 0 -5 -3q-37 -33 -70 -70l-13 -15q-9 0 -9 8q0 4 11 13
q46 40 77 71q21 21 32 28q4 2 5 2q4 0 4 -5q1 -16 3.5 -49t2.5 -46z" />
    <glyph glyph-name="scircumflex" unicode="&#x15d;" horiz-adv-x="185" 
d="M202 188q-1 -3 -3 -3t-3 2q-3 7 -15 13.5t-25 6.5q-11 0 -19.5 -8.5t-8.5 -21.5q0 -18 20 -42q28 -35 28 -57q0 -45 -40 -69.5t-77 -24.5q-69 0 -75 45q19 8 32 27q4 0 4 -5q2 -23 17 -39t38 -16q24 0 37.5 9t13.5 37q0 20 -24 51q-16 22 -16 44q0 26 41 62t70 36
q21 0 21 -15q-12 -18 -16 -32zM278 307q0 -12 -4 -15l-23 -17q-3 0 -3 7q0 16 -2 46.5t-2 38.5q0 6 -4 6q-2 0 -5 -3q-37 -33 -70 -70l-13 -15q-9 0 -9 8q0 4 11 13q46 40 77 71q21 21 32 28q4 2 5 2q4 0 4 -5q1 -16 3.5 -49t2.5 -46z" />
    <glyph glyph-name="Scedilla" unicode="&#x15e;" horiz-adv-x="357" 
d="M178 -6q-11 -3 -24 -11.5t-13 -16.5q0 -6 16 -14t16 -19t-23 -29q-33 -28 -77 -50q-4 -2 -8 -2q-2 0 -5 3.5t-3 5.5t5 4q11 3 24.5 8t28.5 14.5t15 18.5q0 8 -16 17t-16 18q0 12 29 31t48 27q4 0 5.5 -1t-2.5 -4zM469 407q-15 -24 -24 -59q-4 -2 -7 3q3 6 3 15
q0 19 -29.5 38.5t-65.5 19.5q-38 0 -68 -23.5t-30 -67.5q0 -25 12 -44.5t42 -44.5q54 -45 54 -93q0 -73 -68.5 -115.5t-147.5 -42.5q-71 0 -114 22q-13 5 -14 11q4 20 29 81q1 3 3 3q4 0 4 -4q-3 -6 -3 -17q0 -37 31.5 -61.5t73.5 -24.5q58 0 96 26.5t38 74.5q0 27 -12.5 48
t-41.5 48q-46 43 -46 91q0 63 68 107t141 44q51 0 71 -21q5 -7 5 -14z" />
    <glyph glyph-name="scedilla" unicode="&#x15f;" horiz-adv-x="185" 
d="M202 188q-1 -3 -3 -3t-3 2q-3 7 -15 13.5t-25 6.5q-11 0 -19.5 -8.5t-8.5 -21.5q0 -18 20 -42q28 -35 28 -57q0 -45 -40 -69.5t-77 -24.5q-69 0 -75 45q19 8 32 27q4 0 4 -5q2 -23 17 -39t38 -16q24 0 37.5 9t13.5 37q0 20 -24 51q-16 22 -16 44q0 26 41 62t70 36
q21 0 21 -15q-12 -18 -16 -32zM106 -6q-11 -3 -24 -11.5t-13 -16.5q0 -6 16 -14t16 -19t-23 -29q-33 -28 -77 -50q-4 -2 -8 -2q-2 0 -5 3.5t-3 5.5t5 4q11 3 24.5 8t28.5 14.5t15 18.5q0 8 -16 17t-16 18q0 12 29 31t48 27q4 0 5.5 -1t-2.5 -4z" />
    <glyph glyph-name="Scaron" unicode="&#x160;" horiz-adv-x="357" 
d="M469 407q-15 -24 -24 -59q-4 -2 -7 3q3 6 3 15q0 19 -29.5 38.5t-65.5 19.5q-38 0 -68 -23.5t-30 -67.5q0 -25 12 -44.5t42 -44.5q54 -45 54 -93q0 -73 -68.5 -115.5t-147.5 -42.5q-71 0 -114 22q-13 5 -14 11q4 20 29 81q1 3 3 3q4 0 4 -4q-3 -6 -3 -17
q0 -37 31.5 -61.5t73.5 -24.5q58 0 96 26.5t38 74.5q0 27 -12.5 48t-41.5 48q-46 43 -46 91q0 63 68 107t141 44q51 0 71 -21q5 -7 5 -14zM365 584q0 12 4 15l23 17q3 0 3 -7q0 -16 2 -46.5t2 -38.5q0 -6 4 -6q2 0 5 3q37 33 70 70l13 15q9 0 9 -8q0 -4 -11 -13
q-46 -40 -77 -71q-21 -21 -32 -28q-4 -2 -5 -2q-4 0 -4 5q-1 16 -3.5 49t-2.5 46z" />
    <glyph glyph-name="scaron" unicode="&#x161;" horiz-adv-x="185" 
d="M202 188q-1 -3 -3 -3t-3 2q-3 7 -15 13.5t-25 6.5q-11 0 -19.5 -8.5t-8.5 -21.5q0 -18 20 -42q28 -35 28 -57q0 -45 -40 -69.5t-77 -24.5q-69 0 -75 45q19 8 32 27q4 0 4 -5q2 -23 17 -39t38 -16q24 0 37.5 9t13.5 37q0 20 -24 51q-16 22 -16 44q0 26 41 62t70 36
q21 0 21 -15q-12 -18 -16 -32zM206 375q0 12 4 15l23 17q3 0 3 -7q0 -16 2 -46.5t2 -38.5q0 -6 4 -6q2 0 5 3q37 33 70 70l13 15q9 0 9 -8q0 -4 -11 -13q-46 -40 -77 -71q-21 -21 -32 -28q-4 -2 -5 -2q-4 0 -4 5q-1 16 -3.5 49t-2.5 46z" />
    <glyph glyph-name="Tcommaaccent" unicode="&#x162;" horiz-adv-x="378" 
d="M375 431h-33q-117 0 -173.5 -28.5t-97.5 -125.5q-3 -7 -7 1q-1 1 -2 4q15 60 46 103.5t74 51.5q22 4 123 4q29 0 93 -1t92 -1q80 0 132 30q43 25 43 61q0 5 -1 7q-1 1 -1 3q0 4 3 4q1 0 3 -2q3 -5 9.5 -15.5t8.5 -14.5q3 -5 3 -12q0 -6 -4 -14q-30 -51 -132 -54h-35.5
t-34.5 -1q-14 0 -21 -10q-79 -124 -187 -318q-20 -36 -21 -58q0 -19 13.5 -30t53.5 -11q18 0 24 1q3 -4 -3 -8q-35 -3 -77 -3q-111 0 -111 37q0 14 15 39q138 219 210 352q4 9 -5 9zM223 -61q0 -23 -27.5 -61.5t-85.5 -82.5q-8 -2 -8 5q84 60 84 109q0 24 -17 33q-4 3 -4 5
t16 16t21 14q3 0 7.5 -3.5t9 -12.5t4.5 -22z" />
    <glyph glyph-name="tcommaaccent" unicode="&#x163;" horiz-adv-x="207" 
d="M307 365q-23 -7 -33 -21q-52 -73 -87 -136h117q3 -2 2.5 -4.5t-2.5 -3.5q-56 0 -124 -5q-65 -116 -65 -155q0 -29 26 -29q17 0 46 12t52 28q3 3 6 -0.5t-2 -5.5q-77 -54 -151 -54q-17 0 -28.5 11t-11.5 33q0 33 77 160q-10 0 -31 -1l-20 -1q-5 0 -5 3q4 6 11 12h53
q47 80 84 138q53 14 86 26q5 0 3 -5q-1 -1 -3 -2zM121 -61q0 -23 -27.5 -61.5t-85.5 -82.5q-8 -2 -8 5q84 60 84 109q0 24 -17 33q-4 3 -4 5t16 16t21 14q3 0 7.5 -3.5t9 -12.5t4.5 -22z" />
    <glyph glyph-name="Tcaron" unicode="&#x164;" horiz-adv-x="378" 
d="M375 431h-33q-117 0 -173.5 -28.5t-97.5 -125.5q-3 -7 -7 1q-1 1 -2 4q15 60 46 103.5t74 51.5q22 4 123 4q29 0 93 -1t92 -1q80 0 132 30q43 25 43 61q0 5 -1 7q-1 1 -1 3q0 4 3 4q1 0 3 -2q3 -5 9.5 -15.5t8.5 -14.5q3 -5 3 -12q0 -6 -4 -14q-30 -51 -132 -54h-35.5
t-34.5 -1q-14 0 -21 -10q-79 -124 -187 -318q-20 -36 -21 -58q0 -19 13.5 -30t53.5 -11q18 0 24 1q3 -4 -3 -8q-35 -3 -77 -3q-111 0 -111 37q0 14 15 39q138 219 210 352q4 9 -5 9zM437 584q0 12 4 15l23 17q3 0 3 -7q0 -16 2 -46.5t2 -38.5q0 -6 4 -6q2 0 5 3q37 33 70 70
l13 15q9 0 9 -8q0 -4 -11 -13q-46 -40 -77 -71q-21 -21 -32 -28q-4 -2 -5 -2q-4 0 -4 5q-1 16 -3.5 49t-2.5 46z" />
    <glyph glyph-name="tcaron" unicode="&#x165;" horiz-adv-x="207" 
d="M307 365q-23 -7 -33 -21q-52 -73 -87 -136h117q3 -2 2.5 -4.5t-2.5 -3.5q-56 0 -124 -5q-65 -116 -65 -155q0 -29 26 -29q17 0 46 12t52 28q3 3 6 -0.5t-2 -5.5q-77 -54 -151 -54q-17 0 -28.5 11t-11.5 33q0 33 77 160q-10 0 -31 -1l-20 -1q-5 0 -5 3q4 6 11 12h53
q47 80 84 138q53 14 86 26q5 0 3 -5q-1 -1 -3 -2zM443 466q0 -23 -27.5 -61.5t-85.5 -82.5q-8 -2 -8 5q84 60 84 109q0 24 -17 33q-4 3 -4 5t16 16t21 14q3 0 7.5 -3.5t9 -12.5t4.5 -22z" />
    <glyph glyph-name="Tbar" unicode="&#x166;" horiz-adv-x="378" 
d="M376 431h-33q-117 0 -173.5 -28.5t-97.5 -125.5q-3 -7 -7 1q-1 1 -2 4q15 60 46 103.5t74 51.5q22 4 123 4q29 0 93 -1t92 -1q80 0 132 30q43 25 43 61q0 5 -1 7q-1 1 -1 3q0 4 3 4q1 0 3 -2q3 -5 9.5 -15.5t8.5 -14.5q3 -5 3 -12q0 -6 -4 -14q-30 -51 -132 -54h-35.5
t-34.5 -1q-14 0 -21 -10q-66 -103 -125 -207h62q27 0 46 -1q6 0 2.5 -4.5t-12.5 -4.5q-19 0 -50 -0.5t-54 -0.5q-29 -50 -56 -100q-20 -36 -21 -58q0 -19 13.5 -30t53.5 -11q18 0 24 1q3 -4 -3 -8q-34 -3 -77 -3q-111 0 -111 37q0 14 15 39q27 43 83 133q-19 0 -35.5 -0.5
t-26 -1t-16 -1t-9.5 -0.5l-3 -1q-9 0 1 8q9 7 95 7q80 131 121 208q5 9 -5 9z" />
    <glyph glyph-name="tbar" unicode="&#x167;" horiz-adv-x="207" 
d="M307 365q-23 -7 -33 -21q-52 -73 -87 -136h117q3 -2 2.5 -4.5t-2.5 -3.5q-56 0 -124 -5q-11 -17 -21 -38h97q3 -1 3 -3.5t-2 -3.5q-41 0 -104 -5q-38 -73 -38 -105q0 -29 26 -29q17 0 46 12t52 28q3 3 6 -0.5t-2 -5.5q-77 -54 -151 -54q-17 0 -28.5 11t-11.5 33
q0 28 46 107q-7 0 -18 -1t-18.5 -2t-9.5 -1q-5 0 -5 4q4 7 13 14l46 1q3 5 11 17.5t12 20.5q-10 0 -31 -1l-20 -1q-5 0 -5 3q4 6 11 12h53q47 80 84 138q53 14 86 26q5 0 3 -5q-1 -1 -3 -2z" />
    <glyph glyph-name="Utilde" unicode="&#x168;" horiz-adv-x="629" 
d="M759 447q-15 -3 -25 -14q-85 -104 -152 -239q-53 -106 -53 -152q0 -22 7.5 -30t29.5 -8q12 0 27 4.5t25.5 9.5t19 9.5t9.5 4.5q5 0 6 -4t-4 -6q-70 -37 -130 -37q-33 0 -54 13.5t-21 37.5q0 19 10 43t20 41t10 18q0 2 -1 2.5t-2 -1.5q-74 -83 -141 -116.5t-138 -33.5
q-89 0 -89 77q0 31 23 73q21 38 79.5 130.5t79.5 131.5q4 8 4 12q0 9 -15 9q-3 0 -19.5 -0.5t-26.5 -0.5q-5 0 -13 0.5t-11 0.5q-5 0 -7.5 3t-0.5 6t7 3q4 0 32.5 -1.5t47.5 -1.5q37 0 82 4t50 4t5 -3q-1 -4 -6 -6q-24 -4 -34 -16q-67 -84 -160 -249q-31 -55 -31 -90
q0 -59 58 -59q132 0 254 184q13 19 29.5 49.5t28.5 54t27 55.5t19 39q12 23 35 31q10 3 56 15.5t51 12.5q7 0 6 -6q-1 -4 -4 -4zM679 580q-3 -23 -28 -48t-48 -25q-20 0 -48.5 27.5t-41.5 27.5q-4 0 -8.5 -1t-8.5 -4.5t-6.5 -5t-7 -7t-6 -7t-6.5 -7.5l-4 -7q-5 -7 -8.5 -5
t2.5 11q22 28 52 50q17 13 28 13q14 0 42 -28.5t47 -28.5t30 14.5t11 30.5q0 5 4.5 7t4.5 -7z" />
    <glyph glyph-name="utilde" unicode="&#x169;" horiz-adv-x="272" 
d="M377 124q-41 -59 -94 -105t-100 -46q-17 0 -28.5 10t-11.5 28t13 47q-17 -21 -43 -39.5t-52 -18.5q-27 0 -27 27q0 31 94 193q6 11 11 11q12 0 24.5 -10.5t12.5 -18.5q0 -3 -6 -12q-78 -119 -78 -152q0 -12 10 -12q11 0 30.5 16t41.5 49q50 92 63 113q6 8 11 8
q7 0 17.5 -13t10.5 -24q0 -8 -4 -15q-7 -11 -25 -36t-27.5 -40t-18.5 -37t-9 -40q0 -17 14 -17q29 0 75.5 37.5t89.5 101.5q6 2 6 -5zM397 365q-3 -23 -28 -48t-48 -25q-20 0 -48.5 27.5t-41.5 27.5q-4 0 -8.5 -1t-8.5 -4.5t-6.5 -5t-7 -7t-6 -7t-6.5 -8.5l-4 -6
q-5 -7 -8.5 -5t2.5 11q22 28 52 50q17 13 28 13q14 0 42 -28.5t47 -28.5t30 14.5t11 30.5q0 5 4.5 7t4.5 -7z" />
    <glyph glyph-name="Umacron" unicode="&#x16a;" horiz-adv-x="629" 
d="M759 447q-15 -3 -25 -14q-85 -104 -152 -239q-53 -106 -53 -152q0 -22 7.5 -30t29.5 -8q12 0 27 4.5t25.5 9.5t19 9.5t9.5 4.5q5 0 6 -4t-4 -6q-70 -37 -130 -37q-33 0 -54 13.5t-21 37.5q0 19 10 43t20 41t10 18q0 2 -1 2.5t-2 -1.5q-74 -83 -141 -116.5t-138 -33.5
q-89 0 -89 77q0 31 23 73q21 38 79.5 130.5t79.5 131.5q4 8 4 12q0 9 -15 9q-3 0 -19.5 -0.5t-26.5 -0.5q-5 0 -13 0.5t-11 0.5q-5 0 -7.5 3t-0.5 6t7 3q4 0 32.5 -1.5t47.5 -1.5q37 0 82 4t50 4t5 -3q-1 -4 -6 -6q-24 -4 -34 -16q-67 -84 -160 -249q-31 -55 -31 -90
q0 -59 58 -59q132 0 254 184q13 19 29.5 49.5t28.5 54t27 55.5t19 39q12 23 35 31q10 3 56 15.5t51 12.5q7 0 6 -6q-1 -4 -4 -4zM613 545l-10 -21l-144 -2l6 21z" />
    <glyph glyph-name="umacron" unicode="&#x16b;" horiz-adv-x="272" 
d="M377 124q-41 -59 -94 -105t-100 -46q-17 0 -28.5 10t-11.5 28t13 47q-17 -21 -43 -39.5t-52 -18.5q-27 0 -27 27q0 31 94 193q6 11 11 11q12 0 24.5 -10.5t12.5 -18.5q0 -3 -6 -12q-78 -119 -78 -152q0 -12 10 -12q11 0 30.5 16t41.5 49q50 92 63 113q6 8 11 8
q7 0 17.5 -13t10.5 -24q0 -8 -4 -15q-7 -11 -25 -36t-27.5 -40t-18.5 -37t-9 -40q0 -17 14 -17q29 0 75.5 37.5t89.5 101.5q6 2 6 -5zM362 341l-10 -21l-126 -2l6 21z" />
    <glyph glyph-name="Ubreve" unicode="&#x16c;" horiz-adv-x="629" 
d="M759 447q-15 -3 -25 -14q-85 -104 -152 -239q-53 -106 -53 -152q0 -22 7.5 -30t29.5 -8q12 0 27 4.5t25.5 9.5t19 9.5t9.5 4.5q5 0 6 -4t-4 -6q-70 -37 -130 -37q-33 0 -54 13.5t-21 37.5q0 19 10 43t20 41t10 18q0 2 -1 2.5t-2 -1.5q-74 -83 -141 -116.5t-138 -33.5
q-89 0 -89 77q0 31 23 73q21 38 79.5 130.5t79.5 131.5q4 8 4 12q0 9 -15 9q-3 0 -19.5 -0.5t-26.5 -0.5q-5 0 -13 0.5t-11 0.5q-5 0 -7.5 3t-0.5 6t7 3q4 0 32.5 -1.5t47.5 -1.5q37 0 82 4t50 4t5 -3q-1 -4 -6 -6q-24 -4 -34 -16q-67 -84 -160 -249q-31 -55 -31 -90
q0 -59 58 -59q132 0 254 184q13 19 29.5 49.5t28.5 54t27 55.5t19 39q12 23 35 31q10 3 56 15.5t51 12.5q7 0 6 -6q-1 -4 -4 -4zM634 567q0 -6 -6 -15q-16 -21 -41 -33t-45 -12q-22 0 -35.5 13.5t-13.5 36.5q0 6 12 13t19 7q4 0 4 -6q0 -44 39 -44q32 0 50 35q6 12 11 12
q1 0 3.5 -2.5t2.5 -4.5z" />
    <glyph glyph-name="ubreve" unicode="&#x16d;" horiz-adv-x="272" 
d="M377 124q-41 -59 -94 -105t-100 -46q-17 0 -28.5 10t-11.5 28t13 47q-17 -21 -43 -39.5t-52 -18.5q-27 0 -27 27q0 31 94 193q6 11 11 11q12 0 24.5 -10.5t12.5 -18.5q0 -3 -6 -12q-78 -119 -78 -152q0 -12 10 -12q11 0 30.5 16t41.5 49q50 92 63 113q6 8 11 8
q7 0 17.5 -13t10.5 -24q0 -8 -4 -15q-7 -11 -25 -36t-27.5 -40t-18.5 -37t-9 -40q0 -17 14 -17q29 0 75.5 37.5t89.5 101.5q6 2 6 -5zM347 356q0 -6 -6 -15q-16 -21 -41 -33t-45 -12q-22 0 -35.5 13.5t-13.5 36.5q0 6 12 13t19 7q4 0 4 -6q0 -44 39 -44q32 0 50 35
q6 12 11 12q1 0 3.5 -2.5t2.5 -4.5z" />
    <glyph glyph-name="Uring" unicode="&#x16e;" horiz-adv-x="629" 
d="M759 447q-15 -3 -25 -14q-85 -104 -152 -239q-53 -106 -53 -152q0 -22 7.5 -30t29.5 -8q12 0 27 4.5t25.5 9.5t19 9.5t9.5 4.5q5 0 6 -4t-4 -6q-70 -37 -130 -37q-33 0 -54 13.5t-21 37.5q0 19 10 43t20 41t10 18q0 2 -1 2.5t-2 -1.5q-74 -83 -141 -116.5t-138 -33.5
q-89 0 -89 77q0 31 23 73q21 38 79.5 130.5t79.5 131.5q4 8 4 12q0 9 -15 9q-3 0 -19.5 -0.5t-26.5 -0.5q-5 0 -13 0.5t-11 0.5q-5 0 -7.5 3t-0.5 6t7 3q4 0 32.5 -1.5t47.5 -1.5q37 0 82 4t50 4t5 -3q-1 -4 -6 -6q-24 -4 -34 -16q-67 -84 -160 -249q-31 -55 -31 -90
q0 -59 58 -59q132 0 254 184q13 19 29.5 49.5t28.5 54t27 55.5t19 39q12 23 35 31q10 3 56 15.5t51 12.5q7 0 6 -6q-1 -4 -4 -4zM590 565q0 -25 -19.5 -42t-43.5 -17q-18 0 -29.5 10.5t-11.5 26.5q0 26 19 42t43 16q18 0 30 -10t12 -26zM568 562q0 29 -23 29
q-18 0 -28.5 -14t-10.5 -32q0 -28 25 -28q17 0 27 13.5t10 31.5z" />
    <glyph glyph-name="uring" unicode="&#x16f;" horiz-adv-x="272" 
d="M377 124q-41 -59 -94 -105t-100 -46q-17 0 -28.5 10t-11.5 28t13 47q-17 -21 -43 -39.5t-52 -18.5q-27 0 -27 27q0 31 94 193q6 11 11 11q12 0 24.5 -10.5t12.5 -18.5q0 -3 -6 -12q-78 -119 -78 -152q0 -12 10 -12q11 0 30.5 16t41.5 49q50 92 63 113q6 8 11 8
q7 0 17.5 -13t10.5 -24q0 -8 -4 -15q-7 -11 -25 -36t-27.5 -40t-18.5 -37t-9 -40q0 -17 14 -17q29 0 75.5 37.5t89.5 101.5q6 2 6 -5zM329 353q0 -25 -19.5 -42t-43.5 -17q-18 0 -29.5 10.5t-11.5 26.5q0 26 19 42t43 16q18 0 30 -10t12 -26zM307 350q0 29 -23 29
q-18 0 -28.5 -14t-10.5 -32q0 -28 25 -28q17 0 27 13.5t10 31.5z" />
    <glyph glyph-name="Uhungarumlaut" unicode="&#x170;" horiz-adv-x="629" 
d="M759 447q-15 -3 -25 -14q-85 -104 -152 -239q-53 -106 -53 -152q0 -22 7.5 -30t29.5 -8q12 0 27 4.5t25.5 9.5t19 9.5t9.5 4.5q5 0 6 -4t-4 -6q-70 -37 -130 -37q-33 0 -54 13.5t-21 37.5q0 19 10 43t20 41t10 18q0 2 -1 2.5t-2 -1.5q-74 -83 -141 -116.5t-138 -33.5
q-89 0 -89 77q0 31 23 73q21 38 79.5 130.5t79.5 131.5q4 8 4 12q0 9 -15 9q-3 0 -19.5 -0.5t-26.5 -0.5q-5 0 -13 0.5t-11 0.5q-5 0 -7.5 3t-0.5 6t7 3q4 0 32.5 -1.5t47.5 -1.5q37 0 82 4t50 4t5 -3q-1 -4 -6 -6q-24 -4 -34 -16q-67 -84 -160 -249q-31 -55 -31 -90
q0 -59 58 -59q132 0 254 184q13 19 29.5 49.5t28.5 54t27 55.5t19 39q12 23 35 31q10 3 56 15.5t51 12.5q7 0 6 -6q-1 -4 -4 -4zM662 580q0 -1 -9 -12q-34 -36 -75 -72q-3 -2 -4 -2q-2 2 1 5q4 7 68 92q3 3 6 3q5 0 9 -4.5t4 -9.5zM589 582q0 -4 -10 -14
q-11 -12 -38.5 -38.5t-36.5 -35.5q-2 -2 -3.5 -0.5t0.5 3.5q9 15 21 31t27.5 35t23.5 30q1 3 5 3t7.5 -5t3.5 -9z" />
    <glyph glyph-name="uhungarumlaut" unicode="&#x171;" horiz-adv-x="272" 
d="M377 124q-41 -59 -94 -105t-100 -46q-17 0 -28.5 10t-11.5 28t13 47q-17 -21 -43 -39.5t-52 -18.5q-27 0 -27 27q0 31 94 193q6 11 11 11q12 0 24.5 -10.5t12.5 -18.5q0 -3 -6 -12q-78 -119 -78 -152q0 -12 10 -12q11 0 30.5 16t41.5 49q50 92 63 113q6 8 11 8
q7 0 17.5 -13t10.5 -24q0 -8 -4 -15q-7 -11 -25 -36t-27.5 -40t-18.5 -37t-9 -40q0 -17 14 -17q29 0 75.5 37.5t89.5 101.5q6 2 6 -5zM360 366q0 -1 -9 -12q-34 -36 -75 -72q-3 -2 -4 -2q-2 2 1 5q4 7 68 92q3 3 6 3q5 0 9 -4.5t4 -9.5zM287 368q0 -4 -10 -14
q-11 -12 -38.5 -38.5t-36.5 -35.5q-2 -2 -3.5 -0.5t0.5 3.5q9 15 21 31t27.5 35t23.5 30q1 3 5 3t7.5 -5t3.5 -9z" />
    <glyph glyph-name="Uogonek" unicode="&#x172;" horiz-adv-x="629" 
d="M759 447q-15 -3 -25 -14q-85 -104 -152 -239q-53 -106 -53 -152q0 -22 7.5 -30t29.5 -8q12 0 27 4.5t25.5 9.5t19 9.5t9.5 4.5q5 0 6 -4t-4 -6q-70 -37 -130 -37q-33 0 -54 13.5t-21 37.5q0 19 10 43t20 41t10 18q0 2 -1 2.5t-2 -1.5q-74 -83 -141 -116.5t-138 -33.5
q-89 0 -89 77q0 31 23 73q21 38 79.5 130.5t79.5 131.5q4 8 4 12q0 9 -15 9q-3 0 -19.5 -0.5t-26.5 -0.5q-5 0 -13 0.5t-11 0.5q-5 0 -7.5 3t-0.5 6t7 3q4 0 32.5 -1.5t47.5 -1.5q37 0 82 4t50 4t5 -3q-1 -4 -6 -6q-24 -4 -34 -16q-67 -84 -160 -249q-31 -55 -31 -90
q0 -59 58 -59q132 0 254 184q13 19 29.5 49.5t28.5 54t27 55.5t19 39q12 23 35 31q10 3 56 15.5t51 12.5q7 0 6 -6q-1 -4 -4 -4zM577 -1q0 -2 -4 -3q-29 -11 -45.5 -30t-16.5 -38q0 -13 10 -21.5t24 -8.5q2 0 6 1t6 1q5 0 1 -4q-1 -2 -3 -2q-17 -5 -46 -5q-38 0 -38 29
q0 16 20 35q15 14 45 31t38 17q3 0 3 -2z" />
    <glyph glyph-name="uogonek" unicode="&#x173;" horiz-adv-x="272" 
d="M377 124q-41 -59 -94 -105t-100 -46q-17 0 -28.5 10t-11.5 28t13 47q-17 -21 -43 -39.5t-52 -18.5q-27 0 -27 27q0 31 94 193q6 11 11 11q12 0 24.5 -10.5t12.5 -18.5q0 -3 -6 -12q-78 -119 -78 -152q0 -12 10 -12q11 0 30.5 16t41.5 49q50 92 63 113q6 8 11 8
q7 0 17.5 -13t10.5 -24q0 -8 -4 -15q-7 -11 -25 -36t-27.5 -40t-18.5 -37t-9 -40q0 -17 14 -17q29 0 75.5 37.5t89.5 101.5q6 2 6 -5zM228 -14q0 -2 -4 -3q-29 -11 -45.5 -30t-16.5 -38q0 -13 10 -21.5t24 -8.5q2 0 6 1t6 1q5 0 1 -4q-1 -2 -3 -2q-17 -5 -46 -5
q-38 0 -38 29q0 16 20 35q15 14 45 31t38 17q3 0 3 -2z" />
    <glyph glyph-name="Wcircumflex" unicode="&#x174;" horiz-adv-x="719" 
d="M1080 486q2 -4 -2 -7q-1 0 -6.5 2t-7.5 2q-95 0 -316 -245q-41 -45 -96.5 -117.5t-77.5 -109.5q-6 -11 -15 -12q-13 -1 -30.5 -9.5t-25.5 -16.5q-9 0 -2 10q9 9 14.5 129t5.5 215q0 14 -7 14q-3 0 -10 -5q-43 -39 -147 -144t-176 -187q-9 -9 -12 -9q-35 0 -70 -19
q-7 0 -3 9q11 16 36 77q19 48 63.5 182t44.5 152q0 14 -15 14q-10 0 -28.5 -4t-23.5 -4q-3 0 -4.5 2t-0.5 4.5t5 2.5q52 8 94.5 20t62 19.5t20.5 7.5q3 0 4.5 -2t0.5 -4t-3 -4q-10 -9 -34 -74q-70 -188 -101 -295q-3 -13 1 -12l4 3q7 7 160.5 161t222.5 214q3 1 5.5 -2
t0.5 -5q-12 -6 -14 -21q-10 -77 -10 -214q0 -104 2 -129q1 -11 8 -3q104 128 146 176q141 160 201 215q49 45 82 45q20 0 54 -22zM662 524q0 -12 -4 -15l-23 -17q-3 0 -3 7q0 16 -2 46.5t-2 38.5q0 6 -4 6q-2 0 -5 -3q-37 -33 -70 -70l-13 -15q-9 0 -9 8q0 4 11 13
q46 40 77 71q21 21 32 28q4 2 5 2q4 0 4 -5q1 -16 3.5 -49t2.5 -46z" />
    <glyph glyph-name="wcircumflex" unicode="&#x175;" horiz-adv-x="376" 
d="M506 165q-47 -56 -95 -56q-35 0 -59 32q-17 -63 -52 -106t-77 -43q-25 0 -37.5 11.5t-12.5 28.5q0 18 9 43q-22 -30 -59 -56.5t-67 -26.5q-13 0 -17.5 6t-4.5 20q0 16 22.5 62.5t52.5 90.5q10 15 22 23q8 5 33.5 14t29.5 9q3 0 3 -4q-42 -48 -71 -99.5t-29 -77.5
q0 -13 11 -13q10 0 27.5 13t43.5 48.5t48 86.5q4 10 18 10q11 0 21 -8.5t10 -15.5q0 -5 -6 -15q-52 -87 -52 -116q0 -22 20 -22q31 0 62.5 43t38.5 117q-9 23 -9 39q0 9 9 19.5t20 10.5q6 0 6 -6q6 -108 57 -108q36 0 78 50q2 3 4 1t2 -5zM354 307q0 -12 -4 -15l-23 -17
q-3 0 -3 7q0 16 -2 46.5t-2 38.5q0 6 -4 6q-2 0 -5 -3q-37 -33 -70 -70l-13 -15q-9 0 -9 8q0 4 11 13q46 40 77 71q21 21 32 28q4 2 5 2q4 0 4 -5q1 -16 3.5 -49t2.5 -46z" />
    <glyph glyph-name="Ycircumflex" unicode="&#x176;" horiz-adv-x="371" 
d="M744 445l-3 -3q-6 2 -22 2q-55 0 -175.5 -80.5t-211.5 -168.5q-15 -15 -32 -44q-31 -54 -64 -143q-4 -9 -13 -8q-62 6 -104 -27q-3 -1 -3.5 3t2.5 7q19 15 53 64.5t56 93.5q33 64 33 133q0 137 -107 137q-63 0 -97 -47q-4 -4 -8.5 -3.5t0.5 8.5q64 80 159 80
q64 0 93.5 -39t29.5 -100q0 -14 -2.5 -35.5t-5 -37.5t-2.5 -17q-1 -5 1.5 -7.5t6.5 1.5q32 25 88.5 69.5t102.5 80t87 64.5q60 43 101 43q11 0 21.5 -8.5t15.5 -17.5zM536 524q0 -12 -4 -15l-23 -17q-3 0 -3 7q0 16 -2 46.5t-2 38.5q0 6 -4 6q-2 0 -5 -3q-37 -33 -70 -70
l-13 -15q-9 0 -9 8q0 4 11 13q46 40 77 71q21 21 32 28q4 2 5 2q4 0 4 -5q1 -16 3.5 -49t2.5 -46z" />
    <glyph glyph-name="ycircumflex" unicode="&#x177;" horiz-adv-x="250" 
d="M61 0q-30 0 -30 24q0 25 74 139l3 4.5l3 4.5t3 5q9 14 15 17q25 10 50 10q4 0 4 -3q-90 -128 -90 -164q0 -12 13 -12q10 0 28.5 10t27.5 20q5 5 14 22.5t24.5 48.5t28.5 54q29 52 40 52q7 -2 13 -12.5t6 -18.5q0 -7 -33.5 -52t-67.5 -86q-21 -33 -61 -96.5t-65 -101.5
t-62.5 -92t-68.5 -86.5t-68 -64.5t-75 -47t-77 -15q-35 0 -55.5 23.5t-20.5 59.5q0 19 5 34q1 4 4 4q1 0 1 -3q0 -61 91 -61q29 0 58.5 9.5t54.5 22.5t54 39.5t49 46.5t48 57.5t43.5 59t42 65t37.5 62t36 61.5q1 2 1 3q-1 1 -4 -2q-59 -41 -94 -41zM312 307q0 -12 -4 -15
l-23 -17q-3 0 -3 7q0 16 -2 46.5t-2 38.5q0 6 -4 6q-2 0 -5 -3q-37 -33 -70 -70l-13 -15q-9 0 -9 8q0 4 11 13q46 40 77 71q21 21 32 28q4 2 5 2q4 0 4 -5q1 -16 3.5 -49t2.5 -46z" />
    <glyph glyph-name="Ydieresis" unicode="&#x178;" horiz-adv-x="371" 
d="M744 445l-3 -3q-6 2 -22 2q-55 0 -175.5 -80.5t-211.5 -168.5q-15 -15 -32 -44q-31 -54 -64 -143q-4 -9 -13 -8q-62 6 -104 -27q-3 -1 -3.5 3t2.5 7q19 15 53 64.5t56 93.5q33 64 33 133q0 137 -107 137q-63 0 -97 -47q-4 -4 -8.5 -3.5t0.5 8.5q64 80 159 80
q64 0 93.5 -39t29.5 -100q0 -14 -2.5 -35.5t-5 -37.5t-2.5 -17q-1 -5 1.5 -7.5t6.5 1.5q32 25 88.5 69.5t102.5 80t87 64.5q60 43 101 43q11 0 21.5 -8.5t15.5 -17.5zM567 553q0 -16 -13.5 -30.5t-29.5 -14.5q-14 0 -14 15q0 17 12 31.5t29 14.5q16 0 16 -16zM465 560
q0 -15 -13.5 -30t-28.5 -15t-15 15q0 16 12.5 31t28.5 15t16 -16z" />
    <glyph glyph-name="Zacute" unicode="&#x179;" horiz-adv-x="437" 
d="M725 72q-13 -64 -47 -110q-43 -59 -101 -59q-53 0 -147.5 25t-204 50t-197.5 25q-3 0 -5.5 2.5t-1 5t6.5 2.5q26 0 46 17q314 264 408 378q8 10 8 14q0 8 -20 8q-120 0 -197 -10q-49 -7 -86 -47q-9 -9 -9 2q24 54 35 56q33 5 171 7q30 0 87.5 1t100.5 2t50 1q6 0 8 -2.5
t0 -5.5t-6 -3q-5 -1 -22 -15q-79 -68 -210.5 -189t-211.5 -203q-5 -7 -5 -10q0 -6 9 -9q56 -19 165 -37t196 -18q145 0 172 124q2 9 6 6q2 -2 2 -8zM589 612l1 -4q0 -2 -3 -5q-14 -11 -163 -111q-6 -4 -7 0q-1 1 1 2q21 18 74 62.5t80 66.5q4 2 5 2q2 0 6.5 -5t5.5 -8z" />
    <glyph glyph-name="zacute" unicode="&#x17a;" 
d="M563 -42q-9 -41 -56.5 -72.5t-111.5 -31.5q-87 0 -172 39t-191 116q-6 4 -13 0q-15 -9 -30 -19q-8 -6 -11 2q-2 6 5 9q55 27 112.5 64.5t89 63t31.5 28.5q0 2 -1 3.5t-3 0.5q-42 -19 -68 -19q-18 0 -29.5 13.5t-11.5 37.5q2 8 20 23t35 26q4 0 4 -4q-9 -9 -9 -28
q0 -17 12.5 -30.5t29.5 -13.5q35 0 86 49q3 3 6.5 2t5 -4.5t-1.5 -7.5q-30 -21 -66 -52q-58 -50 -135 -102q-11 -6 -2 -13q222 -173 327 -173q91 0 142 95q4 3 6 -2zM428 393l1 -4q0 -2 -3 -5q-14 -11 -163 -111q-6 -4 -7 0q-1 1 1 2q21 18 74 62.5t80 66.5q4 2 5 2
q2 0 6.5 -5t5.5 -8z" />
    <glyph glyph-name="Zdotaccent" unicode="&#x17b;" horiz-adv-x="437" 
d="M725 72q-13 -64 -47 -110q-43 -59 -101 -59q-53 0 -147.5 25t-204 50t-197.5 25q-3 0 -5.5 2.5t-1 5t6.5 2.5q26 0 46 17q314 264 408 378q8 10 8 14q0 8 -20 8q-120 0 -197 -10q-49 -7 -86 -47q-9 -9 -9 2q24 54 35 56q33 5 171 7q30 0 87.5 1t100.5 2t50 1q6 0 8 -2.5
t0 -5.5t-6 -3q-5 -1 -22 -15q-79 -68 -210.5 -189t-211.5 -203q-5 -7 -5 -10q0 -6 9 -9q56 -19 165 -37t196 -18q145 0 172 124q2 9 6 6q2 -2 2 -8zM488 551q0 -22 -14 -37.5t-33 -15.5q-9 0 -15 6t-6 14q0 19 14.5 35.5t34.5 16.5q19 0 19 -19z" />
    <glyph glyph-name="zdotaccent" unicode="&#x17c;" 
d="M563 -42q-9 -41 -56.5 -72.5t-111.5 -31.5q-87 0 -172 39t-191 116q-6 4 -13 0q-15 -9 -30 -19q-8 -6 -11 2q-2 6 5 9q55 27 112.5 64.5t89 63t31.5 28.5q0 2 -1 3.5t-3 0.5q-42 -19 -68 -19q-18 0 -29.5 13.5t-11.5 37.5q2 8 20 23t35 26q4 0 4 -4q-9 -9 -9 -28
q0 -17 12.5 -30.5t29.5 -13.5q35 0 86 49q3 3 6.5 2t5 -4.5t-1.5 -7.5q-30 -21 -66 -52q-58 -50 -135 -102q-11 -6 -2 -13q222 -173 327 -173q91 0 142 95q4 3 6 -2zM324 364q0 -22 -14 -37.5t-33 -15.5q-9 0 -15 6t-6 14q0 19 14.5 35.5t34.5 16.5q19 0 19 -19z" />
    <glyph glyph-name="Zcaron" unicode="&#x17d;" horiz-adv-x="437" 
d="M725 72q-13 -64 -47 -110q-43 -59 -101 -59q-53 0 -147.5 25t-204 50t-197.5 25q-3 0 -5.5 2.5t-1 5t6.5 2.5q26 0 46 17q314 264 408 378q8 10 8 14q0 8 -20 8q-120 0 -197 -10q-49 -7 -86 -47q-9 -9 -9 2q24 54 35 56q33 5 171 7q30 0 87.5 1t100.5 2t50 1q6 0 8 -2.5
t0 -5.5t-6 -3q-5 -1 -22 -15q-79 -68 -210.5 -189t-211.5 -203q-5 -7 -5 -10q0 -6 9 -9q56 -19 165 -37t196 -18q145 0 172 124q2 9 6 6q2 -2 2 -8zM417 584q0 12 4 15l23 17q3 0 3 -7q0 -16 2 -46.5t2 -38.5q0 -6 4 -6q2 0 5 3q37 33 70 70l13 15q9 0 9 -8q0 -4 -11 -13
q-46 -40 -77 -71q-21 -21 -32 -28q-4 -2 -5 -2q-4 0 -4 5q-1 16 -3.5 49t-2.5 46z" />
    <glyph glyph-name="zcaron" unicode="&#x17e;" 
d="M563 -42q-9 -41 -56.5 -72.5t-111.5 -31.5q-87 0 -172 39t-191 116q-6 4 -13 0q-15 -9 -30 -19q-8 -6 -11 2q-2 6 5 9q55 27 112.5 64.5t89 63t31.5 28.5q0 2 -1 3.5t-3 0.5q-42 -19 -68 -19q-18 0 -29.5 13.5t-11.5 37.5q2 8 20 23t35 26q4 0 4 -4q-9 -9 -9 -28
q0 -17 12.5 -30.5t29.5 -13.5q35 0 86 49q3 3 6.5 2t5 -4.5t-1.5 -7.5q-30 -21 -66 -52q-58 -50 -135 -102q-11 -6 -2 -13q222 -173 327 -173q91 0 142 95q4 3 6 -2zM232 375q0 12 4 15l23 17q3 0 3 -7q0 -16 2 -46.5t2 -38.5q0 -6 4 -6q2 0 5 3q37 33 70 70l13 15q9 0 9 -8
q0 -4 -11 -13q-46 -40 -77 -71q-21 -21 -32 -28q-4 -2 -5 -2q-4 0 -4 5q-1 16 -3.5 49t-2.5 46z" />
    <glyph glyph-name="florin" unicode="&#x192;" horiz-adv-x="362" 
d="M509 429q0 -9 -11 -27q-3 -3 -6 -3q-4 9 -17.5 18t-30.5 9q-33 0 -54 -21.5t-57 -95.5q-23 -47 -53 -101l106 3q10 0 0 -5q-78 -7 -112 -10q-32 -56 -46 -77q-42 -68 -93 -135q-79 -102 -189 -102q-20 0 -39.5 7t-19.5 22q0 9 13 20.5t17 11.5q2 0 2 -7q0 -16 12.5 -28.5
t39.5 -12.5q29 0 52 13q30 16 62 65q10 15 41.5 71.5t42.5 76.5q5 9 41 74q-42 -4 -61 -4q-8 0 -8 5q0 1 3 3q8 8 10 11q1 4 8 4q12 -6 57 -6q83 148 154 202q51 39 105 39q11 0 21 -5t10 -15z" />
    <glyph glyph-name="Scommaaccent" unicode="&#x218;" horiz-adv-x="357" 
d="M469 407q-15 -24 -24 -59q-4 -2 -7 3q3 6 3 15q0 19 -29.5 38.5t-65.5 19.5q-38 0 -68 -23.5t-30 -67.5q0 -25 12 -44.5t42 -44.5q54 -45 54 -93q0 -73 -68.5 -115.5t-147.5 -42.5q-71 0 -114 22q-13 5 -14 11q4 20 29 81q1 3 3 3q4 0 4 -4q-3 -6 -3 -17
q0 -37 31.5 -61.5t73.5 -24.5q58 0 96 26.5t38 74.5q0 27 -12.5 48t-41.5 48q-46 43 -46 91q0 63 68 107t141 44q51 0 71 -21q5 -7 5 -14zM176 -61q0 -23 -27.5 -61.5t-85.5 -82.5q-8 -2 -8 5q84 60 84 109q0 24 -17 33q-4 3 -4 5t16 16t21 14q3 0 7.5 -3.5t9 -12.5t4.5 -22
z" />
    <glyph glyph-name="scommaaccent" unicode="&#x219;" horiz-adv-x="185" 
d="M202 188q-1 -3 -3 -3t-3 2q-3 7 -15 13.5t-25 6.5q-11 0 -19.5 -8.5t-8.5 -21.5q0 -18 20 -42q28 -35 28 -57q0 -45 -40 -69.5t-77 -24.5q-69 0 -75 45q19 8 32 27q4 0 4 -5q2 -23 17 -39t38 -16q24 0 37.5 9t13.5 37q0 20 -24 51q-16 22 -16 44q0 26 41 62t70 36
q21 0 21 -15q-12 -18 -16 -32zM85 -61q0 -23 -27.5 -61.5t-85.5 -82.5q-8 -2 -8 5q84 60 84 109q0 24 -17 33q-4 3 -4 5t16 16t21 14q3 0 7.5 -3.5t9 -12.5t4.5 -22z" />
    <glyph glyph-name="uni021A" unicode="&#x21a;" horiz-adv-x="378" 
d="M375 431h-33q-117 0 -173.5 -28.5t-97.5 -125.5q-3 -7 -7 1q-1 1 -2 4q15 60 46 103.5t74 51.5q22 4 123 4q29 0 93 -1t92 -1q80 0 132 30q43 25 43 61q0 5 -1 7q-1 1 -1 3q0 4 3 4q1 0 3 -2q3 -5 9.5 -15.5t8.5 -14.5q3 -5 3 -12q0 -6 -4 -14q-30 -51 -132 -54h-35.5
t-34.5 -1q-14 0 -21 -10q-79 -124 -187 -318q-20 -36 -21 -58q0 -19 13.5 -30t53.5 -11q18 0 24 1q3 -4 -3 -8q-35 -3 -77 -3q-111 0 -111 37q0 14 15 39q138 219 210 352q4 9 -5 9zM223 -61q0 -23 -27.5 -61.5t-85.5 -82.5q-8 -2 -8 5q84 60 84 109q0 24 -17 33q-4 3 -4 5
t16 16t21 14q3 0 7.5 -3.5t9 -12.5t4.5 -22z" />
    <glyph glyph-name="uni021B" unicode="&#x21b;" horiz-adv-x="207" 
d="M307 365q-23 -7 -33 -21q-52 -73 -87 -136h117q3 -2 2.5 -4.5t-2.5 -3.5q-56 0 -124 -5q-65 -116 -65 -155q0 -29 26 -29q17 0 46 12t52 28q3 3 6 -0.5t-2 -5.5q-77 -54 -151 -54q-17 0 -28.5 11t-11.5 33q0 33 77 160q-10 0 -31 -1l-20 -1q-5 0 -5 3q4 6 11 12h53
q47 80 84 138q53 14 86 26q5 0 3 -5q-1 -1 -3 -2zM121 -61q0 -23 -27.5 -61.5t-85.5 -82.5q-8 -2 -8 5q84 60 84 109q0 24 -17 33q-4 3 -4 5t16 16t21 14q3 0 7.5 -3.5t9 -12.5t4.5 -22z" />
    <glyph glyph-name="circumflex" unicode="&#x2c6;" 
d="M183 307q0 -12 -4 -15l-23 -17q-3 0 -3 7q0 16 -2 46.5t-2 38.5q0 6 -4 6q-2 0 -5 -3q-37 -33 -70 -70l-13 -15q-9 0 -9 8q0 4 11 13q46 40 77 71q21 21 32 28q4 2 5 2q4 0 4 -5q1 -16 3.5 -49t2.5 -46z" />
    <glyph glyph-name="caron" unicode="&#x2c7;" 
d="M69 375q0 12 4 15l23 17q3 0 3 -7q0 -16 2 -46.5t2 -38.5q0 -6 4 -6q2 0 5 3q37 33 70 70l13 15q9 0 9 -8q0 -4 -11 -13q-46 -40 -77 -71q-21 -21 -32 -28q-4 -2 -5 -2q-4 0 -4 5q-1 16 -3.5 49t-2.5 46z" />
    <glyph glyph-name="uni02C9" unicode="&#x2c9;" 
d="M184 524l-10 -21l-96 -2l6 21z" />
    <glyph glyph-name="breve" unicode="&#x2d8;" 
d="M190 356q0 -6 -6 -15q-16 -21 -41 -33t-45 -12q-22 0 -35.5 13.5t-13.5 36.5q0 6 12 13t19 7q4 0 4 -6q0 -44 39 -44q32 0 50 35q6 12 11 12q1 0 3.5 -2.5t2.5 -4.5z" />
    <glyph glyph-name="dotaccent" unicode="&#x2d9;" 
d="M156 364q0 -22 -14 -37.5t-33 -15.5q-9 0 -15 6t-6 14q0 19 14.5 35.5t34.5 16.5q19 0 19 -19z" />
    <glyph glyph-name="ring" unicode="&#x2da;" 
d="M172 353q0 -25 -19.5 -42t-43.5 -17q-18 0 -29.5 10.5t-11.5 26.5q0 26 19 42t43 16q18 0 30 -10t12 -26zM150 350q0 29 -23 29q-18 0 -28.5 -14t-10.5 -32q0 -28 25 -28q17 0 27 13.5t10 31.5z" />
    <glyph glyph-name="ogonek" unicode="&#x2db;" 
d="M172 10q0 -2 -4 -3q-29 -11 -45.5 -30t-16.5 -38q0 -13 10 -21.5t24 -8.5q2 0 6 1t6 1q5 0 1 -4q-1 -2 -3 -2q-17 -5 -46 -5q-38 0 -38 29q0 16 20 35q15 14 45 31t38 17q3 0 3 -2z" />
    <glyph glyph-name="tilde" unicode="&#x2dc;" 
d="M233 365q-3 -23 -28 -48t-48 -25q-20 0 -48.5 27.5t-41.5 27.5q-4 0 -8.5 -1t-8.5 -4.5t-6.5 -5t-7 -7t-6 -7t-6.5 -8.5l-4 -6q-5 -7 -8.5 -5t2.5 11q22 28 52 50q17 13 28 13q14 0 42 -28.5t47 -28.5t30 14.5t11 30.5q0 5 4.5 7t4.5 -7z" />
    <glyph glyph-name="hungarumlaut" unicode="&#x2dd;" 
d="M207 366q0 -1 -9 -12q-34 -36 -75 -72q-3 -2 -4 -2q-2 2 1 5q4 7 68 92q3 3 6 3q5 0 9 -4.5t4 -9.5zM134 368q0 -4 -10 -14q-11 -12 -38.5 -38.5t-36.5 -35.5q-2 -2 -3.5 -0.5t0.5 3.5q9 15 21 31t27.5 35t23.5 30q2 3 5 3q4 0 7.5 -5t3.5 -9z" />
    <glyph glyph-name="uni0394" unicode="&#x394;" horiz-adv-x="600" 
d="M442 47h4q14 157 51 331q1 7 -1.5 8t-7.5 -4q-88 -80 -177 -170t-145 -159q-6 -6 5 -6h271zM96 -1l3 11q81 86 200.5 206.5t173.5 168.5q28 26 32 31l62 19q3 2 5 0t2 -8q-20 -55 -45 -204t-27 -223q0 -4 -4 -4q-80 4 -176 4q-174 0 -223 -4q-3 0 -3 3z" />
    <glyph glyph-name="uni03A9" unicode="&#x3a9;" horiz-adv-x="600" 
d="M337 3l10 21q1 3 10 3q84 9 139 85t55 176q0 148 -129 148q-59 0 -106 -26t-74.5 -68t-42 -90t-14.5 -96q0 -114 61 -133q-2 -5 -13 -21q-2 -3 -10 -3q-4 0 -50 1t-57 1q-30 0 -43 -38q-4 0 -4 5l4 12t5 14.5t5 14t6 14t6.5 11.5t8 9.5t8.5 5.5q7 0 37 -2t41 -2q14 0 3 7
q-20 16 -32 28.5t-25 40t-13 61.5q0 45 18.5 89.5t54 83.5t94.5 63.5t132 24.5q102 0 150.5 -40.5t48.5 -106.5q0 -176 -181 -249q-14 -6 0 -6q55 0 81 1q35 1 54 45q2 5 4.5 4.5t3.5 -4.5q-7 -17 -25 -44t-30 -40q-9 -10 -36 -10q-14 0 -77 3.5t-75 3.5q-3 0 -3 3z" />
    <glyph glyph-name="uni03BC" unicode="&#x3bc;" horiz-adv-x="400" 
d="M109 73q-105 -179 -105 -277q0 -31 7 -44q2 -3 0.5 -4.5t-4.5 0.5q-6 10 -36 23q-3 6 -3 23q0 53 133 277q61 102 79 135q2 5 20 5q27 0 42 10q6 0 0 -9q-56 -75 -80 -137q-9 -22 -9 -40q0 -21 19 -21q27 0 59.5 48.5t81.5 144.5q1 5 8 5q38 0 56 9q5 0 3 -6
q-26 -31 -60 -95t-34 -95q0 -14 14 -14t37.5 20.5t40.5 46.5q5 7 5 -4q-17 -29 -52.5 -57t-68.5 -28q-35 0 -35 23q0 15 14 45q1 3 0 3q-2 0 -7 -6q-9 -11 -19 -22t-20.5 -19.5t-25 -13.5t-32.5 -5q-20 0 -30 10t-10 25q0 16 12 44z" />
    <glyph glyph-name="pi" unicode="&#x3c0;" horiz-adv-x="400" 
d="M149 138q-1 -3 -3.5 -2.5t-2.5 3.5q10 24 31 54.5t34 30.5q31 0 87.5 -3.5t79.5 -3.5q22 0 33 19q2 4 4 3.5t0 -4.5q-31 -52 -51 -55q-14 -2 -17 -4q-18 -18 -36.5 -64.5t-18.5 -77.5q0 -16 15 -16q24 0 69 42q3 3 4.5 1.5t0.5 -5.5q-70 -62 -114 -62q-19 0 -19 26
q0 20 22.5 61.5t48.5 75.5q10 11 24 22q-32 0 -96 2q-33 -72 -68 -128t-57 -56q-23 13 -40 35q-4 5 2 5q78 -6 155 144q-49 0 -64 -8q-12 -8 -23 -35z" />
    <glyph glyph-name="endash" unicode="&#x2013;" horiz-adv-x="500" 
d="M471 143q6 0 6 -7q0 -8 -6 -8h-1q-5 0 -16.5 0.5t-18.5 0.5q-21 0 -138 -1t-139 -1h-21q-4 0 -4 7q0 8 5 8h1q9 0 29 -0.5t31 -0.5q210 0 272 2z" />
    <glyph glyph-name="emdash" unicode="&#x2014;" horiz-adv-x="1000" 
d="M742 143q9 0 9 -7q0 -8 -10 -8h-1q-8 0 -27 0.5t-31 0.5q-36 0 -228.5 -1t-229.5 -1h-35q-7 0 -7 7q0 8 9 8h1q14 0 47.5 -0.5t51.5 -0.5q347 0 451 2z" />
    <glyph glyph-name="quoteleft" unicode="&#x2018;" horiz-adv-x="210" 
d="M142 259q0 31 27.5 82.5t83.5 109.5q3 1 5.5 -1t2.5 -5q-39 -38 -61.5 -72t-22.5 -74q0 -29 18 -44q4 -3 4 -6t-15.5 -21.5t-20.5 -18.5q-3 0 -7.5 4.5t-9 16.5t-4.5 29z" />
    <glyph glyph-name="quoteright" unicode="&#x2019;" horiz-adv-x="210" 
d="M271 416q0 -31 -27.5 -82.5t-83.5 -109.5q-3 -1 -5.5 1t-2.5 5q39 38 61.5 72t22.5 74q0 29 -18 44q-4 3 -4 6t15.5 21.5t20.5 18.5q3 0 7.5 -4.5t9 -16.5t4.5 -29z" />
    <glyph glyph-name="quotesinglbase" unicode="&#x201a;" horiz-adv-x="210" 
d="M173 95q0 -31 -27.5 -82.5t-83.5 -109.5q-3 -1 -5.5 1t-2.5 5q83 81 83 146q0 30 -17 44q-4 3 -4 6t15.5 21.5t20.5 18.5q3 0 7.5 -4.5t9 -16.5t4.5 -29z" />
    <glyph glyph-name="quotedblleft" unicode="&#x201c;" horiz-adv-x="258" 
d="M142 259q0 31 27.5 82.5t83.5 109.5q3 1 5.5 -1t2.5 -5q-39 -38 -61.5 -72t-22.5 -74q0 -29 18 -44q4 -3 4 -6t-15.5 -21.5t-20.5 -18.5q-3 0 -7.5 4.5t-9 16.5t-4.5 29zM225 259q0 31 27.5 82.5t83.5 109.5q3 1 5.5 -1t2.5 -5q-83 -81 -83 -146q0 -30 17 -44q4 -3 4 -6
t-15.5 -21.5t-20.5 -18.5q-3 0 -7.5 4.5t-9 16.5t-4.5 29z" />
    <glyph glyph-name="quotedblright" unicode="&#x201d;" horiz-adv-x="293" 
d="M355 415q0 -31 -27.5 -82.5t-83.5 -109.5q-3 -1 -5.5 1t-2.5 5q39 38 61.5 72t22.5 74q0 29 -18 44q-4 3 -4 6t15.5 21.5t20.5 18.5q3 0 7.5 -4.5t9 -16.5t4.5 -29zM272 415q0 -31 -27.5 -82.5t-83.5 -109.5q-3 -1 -5.5 1t-2.5 5q83 81 83 146q0 30 -17 44q-4 3 -4 6
t15.5 21.5t20.5 18.5q3 0 7.5 -4.5t9 -16.5t4.5 -29z" />
    <glyph glyph-name="quotedblbase" unicode="&#x201e;" horiz-adv-x="293" 
d="M256 95q0 -31 -27.5 -82.5t-83.5 -109.5q-3 -1 -5.5 1t-2.5 5q39 38 61.5 72t22.5 74q0 29 -18 44q-4 3 -4 6t15.5 21.5t20.5 18.5q3 0 7.5 -4.5t9 -16.5t4.5 -29zM173 95q0 -31 -27.5 -82.5t-83.5 -109.5q-3 -1 -5.5 1t-2.5 5q83 81 83 146q0 30 -17 44q-4 3 -4 6
t15.5 21.5t20.5 18.5q3 0 7.5 -4.5t9 -16.5t4.5 -29z" />
    <glyph glyph-name="dagger" unicode="&#x2020;" horiz-adv-x="265" 
d="M92 276q31 -13 82 -13h10q19 35 37 76t28.5 68t10.5 28q8 15 18 15q12 0 21 -7t9 -18t-10 -24q-4 -6 -41 -54t-58 -84q43 2 90 12q7 0 13 -4.5t6 -10.5t-7 -20t-14 -14q-3 0 -7 2q-42 19 -88 23q-50 -90 -119 -258q-7 -16 -24 -26q-14 -8 -24 -8q-4 0 -12.5 15t-8.5 22
q0 9 8 20q103 125 165 235q-51 0 -85 -12q-18 -6 -25 -6q-5 0 -12.5 3.5t-7.5 11.5t11 19t22 11q6 0 12 -2z" />
    <glyph glyph-name="daggerdbl" unicode="&#x2021;" horiz-adv-x="265" 
d="M226 251q-45 0 -86 -12q-9 -3 -18 -3q-18 0 -18 10q0 8 9.5 21.5t20.5 13.5q5 0 8 -1q14 -6 42 -11.5t40 -5.5h9q15 27 31 59.5t26.5 54.5t18.5 40t9 19q8 15 18 15q7 0 15.5 -7t8.5 -17q0 -11 -10 -24q-5 -8 -43.5 -56t-59.5 -84l89 11q19 0 19 -12q0 -6 -6.5 -20
t-13.5 -14q-4 0 -6 1q-41 19 -89 21q-17 -24 -48 -80q17 1 49 4.5t40 4.5q3 0 7 0.5t7 0.5q9 0 15 -3q5 -3 5 -11q0 -2 -5 -12q-2 -4 -3 -8.5t-2 -6.5q-3 -7 -12 -7q-3 0 -9 2q-65 23 -99 23q-8 -14 -11 -21q-22 -44 -50 -143q-5 -18 -19 -25q-20 -8 -27 -8h-2l-2 -1
q-4 0 -8 7q-6 12 -7 20v2q0 9 8 20q13 19 44.5 62.5t50.5 72.5l9 14q-14 0 -42.5 -5t-34.5 -8q-9 -3 -18 -3q-23 0 -23 10q0 6 10.5 19t21.5 13q2 0 6 -0.5t5 -0.5q7 -1 22.5 -4t20.5 -4q7 -1 40 -4q32 52 47 81z" />
    <glyph glyph-name="bullet" unicode="&#x2022;" horiz-adv-x="500" 
d="M260 221q0 -33 22.5 -55.5t55.5 -22.5t55.5 22.5t22.5 55.5t-22.5 55.5t-55.5 22.5t-55.5 -22.5t-22.5 -55.5z" />
    <glyph glyph-name="ellipsis" unicode="&#x2026;" horiz-adv-x="579" 
d="M167 51q0 -14 -18.5 -36t-35.5 -22q-23 0 -23 20q0 22 16.5 40t36.5 18q24 0 24 -20zM341 51q0 -14 -18.5 -36t-35.5 -22q-23 0 -23 20q0 22 16.5 40t36.5 18q24 0 24 -20zM521 51q0 -14 -18.5 -36t-35.5 -22q-23 0 -23 20q0 22 16.5 40t36.5 18q24 0 24 -20z" />
    <glyph glyph-name="perthousand" unicode="&#x2030;" horiz-adv-x="809" 
d="M669 185q-12 -1 -52 -2t-60 -3q-10 -1 -7 -7q3 -4 3 -18q0 -51 -44 -103.5t-91 -52.5q-22 0 -36 10t-14 29q0 60 75 117q-74 -40 -173 -110.5t-173 -136.5q-2 0 -2 2q0 10 -12 22q0 2 6 10q149 134 243 232.5t125 144.5t31 68q0 29 -44 29q-23 0 -71 -8t-55 -9
q-11 0 -15 9q-23 -11 -48 -52t-25 -86q0 -28 19 -28q30 0 56.5 41.5t26.5 87.5q0 15 -6 20q0 5 4 5l24 -5q12 -4 12 -27q0 -37 -43 -86t-90 -49q-22 0 -36.5 12.5t-14.5 34.5q0 35 33 78t86 57q-8 18 -8 43q0 3 3 3t4 -3q6 -8 18 -8q5 0 54.5 5t68.5 5q65 0 65 -50
q0 -23 -20.5 -58.5t-99.5 -128t-220 -239.5q219 158 317 205q2 -2 2 -6q-30 -12 -49 -54.5t-19 -76.5q0 -32 24 -32q25 0 49 34t24 92q0 31 -21 40q-4 2 -4 5t4 5q14 6 23 12q0 1 3 1q4 0 7 -3q59 -19 161 -8q11 5 19 10q0 1 3 1q4 0 7 -3q19 -13 92 -13q3 0 0 -5l-57 -6
q-10 -1 -7 -7q3 -5 3 -18q0 -56 -45 -105t-94 -49q-46 0 -46 47q0 37 29.5 79t77.5 60zM703 144q0 34 -16 40q-31 -3 -54 -47t-23 -89q0 -35 20 -35q23 0 48 42t25 89zM516 204q0 1 1 1q-1 0 -1 -1z" />
    <glyph glyph-name="guilsinglleft" unicode="&#x2039;" horiz-adv-x="275" 
d="M299 228q0 -3 -6 -7q-27 -16 -129 -99q-5 -4 -5 -10q0 -17 39 -117l2 -6q0 -3 -3 -3t-17.5 -5.5t-17.5 -5.5t-5 8q-8 33 -16.5 61.5t-12.5 41t-4 13.5q0 4 8 10q59 44 157 124q3 3 5 3q5 0 5 -8z" />
    <glyph glyph-name="guilsinglright" unicode="&#x203a;" horiz-adv-x="275" 
d="M267 114q0 -6 -4 -9q-79 -59 -143 -127q-8 -8 -16 -8t-8 5q0 3 6 8q66 51 122 102q8 6 8 12q0 4 -4 9q-66 95 -66 106q0 5 14 10.5t19 5.5t9 -7q36 -66 61 -101q2 -4 2 -6z" />
    <glyph glyph-name="fraction" unicode="&#x2044;" horiz-adv-x="100" 
d="M370 468q-248 -245 -486 -520q-10 -11 -25 -11q-9 0 -9 5q205 213 491 525q5 6 15 6q14 0 14 -5z" />
    <glyph glyph-name="Euro" unicode="&#x20ac;" horiz-adv-x="487" 
d="M592 382l-38 -40h-4q-10 97 -89 97q-56 0 -108.5 -48t-94.5 -121q58 0 125.5 3.5t73.5 3.5q7 0 7 -4q0 -1 -3 -3.5t-7.5 -5t-7.5 -2.5q-20 0 -102 -0.5t-91 -0.5q-12 -20 -24 -49q58 0 125 3.5t73 3.5q7 0 7 -4q0 -1 -3 -3.5t-7.5 -5t-7.5 -2.5q-20 0 -101 -0.5t-89 -0.5
q-20 -52 -20 -100q0 -42 24.5 -69t63.5 -27q90 0 167 81q5 0 5 -5q0 -8 -4 -14q-34 -31 -84 -52t-102 -21q-143 0 -143 114q0 43 19 92q-13 0 -33.5 -1t-36.5 -2.5t-17 -1.5q-6 0 -6 2q0 4 6.5 7.5t11.5 3.5q60 0 79 1q12 27 25 50q-13 0 -34 -1.5t-36.5 -2.5t-16.5 -1
q-8 0 -8 2q0 1 3 3.5t7.5 5t7.5 2.5q60 0 82 1q49 78 123 127.5t153 49.5q110 0 130 -65z" />
    <glyph glyph-name="afii61289" unicode="&#x2113;" horiz-adv-x="203" 
d="M523 652q0 -22 -25 -71t-66.5 -108t-108 -121t-138.5 -101q-2 -3 -13 -21.5t-17 -29.5t-17.5 -31.5t-18.5 -35.5t-14.5 -32.5t-11 -32t-3.5 -25.5q0 -32 29 -32q77 0 186 131q8 8 8 2l-3 -6q-45 -56 -102 -99t-110 -43q-49 0 -49 43q0 14 9.5 38.5t27 56t32 55.5t34 55.5
t22.5 36.5q88 152 137 228q38 59 81 95q36 30 68 48t45 18q18 0 18 -18zM478 626q0 16 -13 16q-11 0 -27.5 -16.5t-56.5 -69.5q-36 -47 -188 -292q115 64 200 178t85 184z" />
    <glyph glyph-name="trademark" unicode="&#x2122;" horiz-adv-x="500" 
d="M160 427q19 -1 97 -1q54 0 81 2l-7 -15q-17 3 -64 3q-41 -68 -92 -186h-48q45 73 98 185q-38 0 -74 -4zM381 395h-2q-95 -119 -120 -165h-23q88 106 151 192l36 14q-9 -53 -12 -164q50 55 127 154l38 5q-10 -29 -24.5 -99t-18.5 -102h-45q13 40 39 165q-75 -83 -133 -158
l-25 -8q2 9 12 166z" />
    <glyph glyph-name="Omega" unicode="&#x2126;" horiz-adv-x="600" 
d="M337 3l10 21q1 3 10 3q84 9 139 85t55 176q0 148 -129 148q-59 0 -106 -26t-74.5 -68t-42 -90t-14.5 -96q0 -114 61 -133q-2 -5 -13 -21q-2 -3 -10 -3q-4 0 -50 1t-57 1q-30 0 -43 -38q-4 0 -4 5l4 12t5 14.5t5 14t6 14t6.5 11.5t8 9.5t8.5 5.5q7 0 37 -2t41 -2q14 0 3 7
q-20 16 -32 28.5t-25 40t-13 61.5q0 45 18.5 89.5t54 83.5t94.5 63.5t132 24.5q102 0 150.5 -40.5t48.5 -106.5q0 -176 -181 -249q-14 -6 0 -6q55 0 81 1q35 1 54 45q2 5 4.5 4.5t3.5 -4.5q-7 -17 -25 -44t-30 -40q-9 -10 -36 -10q-14 0 -77 3.5t-75 3.5q-3 0 -3 3z" />
    <glyph glyph-name="estimated" unicode="&#x212e;" horiz-adv-x="600" 
d="M157 259h404q0 122 -72 199t-187 77q-116 0 -187 -78.5t-71 -197.5q0 -118 71.5 -197t186.5 -79q78 0 130 31t98 104l-35 21q-38 -63 -84 -91.5t-109 -28.5q-86 0 -145 59v181zM448 295h-291v145q60 60 144 60t147 -60v-145z" />
    <glyph glyph-name="partialdiff" unicode="&#x2202;" horiz-adv-x="400" 
d="M299 215q-56 -6 -98.5 -63t-42.5 -110q0 -42 23 -42q52 0 107.5 89.5t55.5 214.5q0 16 -2.5 34t-9 42t-22 39.5t-37.5 15.5q-30 0 -44 -17t-14 -41q0 -15 3 -20q3 -4 -3 -4q-2 0 -4 1q-27 15 -27 19q0 24 25 46t68 22q55 0 85.5 -42t30.5 -97q0 -113 -75.5 -211
t-143.5 -98t-68 59q0 52 61 107t130 60q14 0 2 -4z" />
    <glyph glyph-name="Delta" unicode="&#x2206;" horiz-adv-x="600" 
d="M442 47h4q14 157 51 331q1 7 -1.5 8t-7.5 -4q-88 -80 -177 -170t-145 -159q-6 -6 5 -6h271zM96 -1l3 11q81 86 200.5 206.5t173.5 168.5q28 26 32 31l62 19q3 2 5 0t2 -8q-20 -55 -45 -204t-27 -223q0 -4 -4 -4q-80 4 -176 4q-174 0 -223 -4q-3 0 -3 3z" />
    <glyph glyph-name="product" unicode="&#x220f;" horiz-adv-x="600" 
d="M277 434q190 -5 353 -5q87 0 111 8q6 2 6 -1q-23 -20 -45 -24l-8 -1q-262 -455 -262 -492q0 -9 16 -9q15 0 37 6q8 0 4 -5l-4 -2q-18 -4 -65 -11t-60 -7q-16 0 -19 8q0 11 12 34q132 220 271 480q-102 6 -221 2q-39 -59 -139.5 -240.5t-144.5 -271.5q-1 -5 -8 -5
q-56 0 -80 -11q-4 0 -4 5q152 251 268 461q24 44 24 54q0 17 -43 20q-4 0 -5 3q1 3 6 4z" />
    <glyph glyph-name="summation" unicode="&#x2211;" horiz-adv-x="600" 
d="M49 -106l26 37q39 36 116 112t105 106q-43 150 -83 256q-2 6 -2 8q31 7 57 22q26 -4 105 -4q29 0 91 2.5t66 2.5q14 0 14 -6q0 -9 -5.5 -45.5t-9.5 -51.5q-1 -4 -3.5 -5.5t-4 0.5t-1.5 6q0 33 -13 55t-36 24q-37 5 -189 5q8 -29 22 -71.5t28.5 -86.5t18.5 -57q3 -9 3 -14
q-138 -134 -212 -216q-12 -12 11 -12q281 0 307 4q29 6 57 61q6 6 6 -4q-8 -15 -41.5 -65t-35.5 -53q-6 -9 -15 -9q-97 5 -277 5q-74 0 -87 -1q-9 -3 -13 -10q-2 -1 -3.5 0.5t-1.5 4.5z" />
    <glyph glyph-name="minus" unicode="&#x2212;" horiz-adv-x="400" 
d="M374 149l-12 -23q-158 6 -227 2l12 24q177 -6 227 -3z" />
    <glyph glyph-name="uni2215" unicode="&#x2215;" horiz-adv-x="100" 
d="M370 468q-248 -245 -486 -520q-10 -11 -25 -11q-9 0 -9 5q205 213 491 525q5 6 15 6q14 0 14 -5z" />
    <glyph glyph-name="uni2219" unicode="&#x2219;" horiz-adv-x="220" 
d="M216 212q0 -14 -18.5 -36t-35.5 -22q-23 0 -23 20q0 22 16.5 40t36.5 18q24 0 24 -20z" />
    <glyph glyph-name="radical" unicode="&#x221a;" horiz-adv-x="500" 
d="M442 387q-59 -49 -131.5 -165t-124.5 -234l-17 -2q-11 82 -20 105l-24 -17l-3 8l46 42l6 -1q7 -48 19 -90q47 109 116 219.5t103 142.5z" />
    <glyph glyph-name="infinity" unicode="&#x221e;" horiz-adv-x="500" 
d="M425 123q0 -40 -26 -67.5t-70 -27.5q-20 0 -37 10q-28 19 -45 51q-29 -25 -52 -41q-33 -23 -67 -23q-29 0 -46 15t-17 40q0 35 26 67.5t71 32.5q23 0 39 -11q26 -18 44 -52q25 23 49 40q30 21 62 21q31 0 50 -16t19 -39zM407 122q0 18 -12 31t-34 13q-18 0 -36 -11
q-27 -16 -68 -57q11 -25 29.5 -41.5t39.5 -16.5q35 0 58 26.5t23 55.5zM235 109q-34 58 -71 58q-38 0 -57.5 -28t-19.5 -61q0 -18 10.5 -29.5t30.5 -11.5t41 15q30 21 66 57z" />
    <glyph glyph-name="integral" unicode="&#x222b;" horiz-adv-x="400" 
d="M490 422q0 -12 -7.5 -19t-17.5 -7q-5 0 -14 11t-24 11q-22 0 -36 -26q-11 -20 -41.5 -94.5t-44.5 -104.5q-33 -68 -78 -144t-74 -107q-36 -36 -69 -36q-9 0 -17 6t-8 15q0 13 8.5 21t18.5 8q9 0 21 -11t16 -11q16 0 26 16q14 22 52 123t63 147q127 232 194 232
q14 0 23 -8t9 -22z" />
    <glyph glyph-name="approxequal" unicode="&#x2248;" horiz-adv-x="400" 
d="M378 167q-30 -34 -75 -34q-19 0 -55 13q-28 12 -47 12q-26 0 -54 -18l-2 18q29 22 66 22q19 0 48 -11q37 -14 55 -14q29 0 56 27zM352 91q-34 -29 -72 -29q-16 0 -60 16q-27 10 -46 10q-29 0 -56 -24l-3 18q28 28 68 28q25 0 48 -9q37 -16 57 -16q35 0 57 22z" />
    <glyph glyph-name="notequal" unicode="&#x2260;" horiz-adv-x="400" 
d="M382 173l-13 -23q-46 2 -86 2q-17 -16 -53 -52q72 -3 121 0l-12 -23q-23 1 -128 3q-33 -32 -71 -74l-28 11q50 45 68 63q-63 0 -80 -1l18 24q28 -2 83 -2l53 53q-86 0 -109 -2l13 24q11 -1 116 -3q54 54 66 67l28 -6q-13 -11 -65 -61q45 -2 79 0z" />
    <glyph glyph-name="lessequal" unicode="&#x2264;" horiz-adv-x="400" 
d="M398 179q-129 -26 -226 -53q92 -34 171 -74l-18 -17q-26 17 -93.5 46.5t-102.5 39.5l7 12q77 23 243 64zM336 25l-12 -23q-141 7 -237 3l15 24q87 -8 234 -4z" />
    <glyph glyph-name="greaterequal" unicode="&#x2265;" horiz-adv-x="400" 
d="M392 142l-4 -14q-5 -1 -54.5 -17.5t-115 -39t-100.5 -36.5l2 25q60 22 230 76q-29 6 -176 57l10 22q113 -49 208 -73zM337 18l-9 -22q-52 5 -105 5q-75 0 -121 -5l13 23q21 1 90 1q82 0 132 -2z" />
    <glyph glyph-name="lozenge" unicode="&#x25ca;" horiz-adv-x="500" 
d="M336 105l-127 -100h-15l-33 102l128 97h19zM313 109l-21 75q-32 -23 -107 -80l23 -78z" />
    <glyph glyph-name="uniF8FF" unicode="&#xf8ff;" horiz-adv-x="312" 
d="M140 1v-1h-140v306h1q6 -64 71 -64q26 0 45 18.5t19 45.5q0 22 -20 37q-17 15 -17 27q0 39 48 39q44 0 44 -64q0 -38 -32 -73l-12.5 -12.5t-12.5 -13t-9 -12t-7 -14.5t-2 -15q0 -15 11.5 -43.5t12.5 -38.5q-22 -2 -38.5 -19.5t-16.5 -41.5q0 -23 15.5 -40t39.5 -21z
M159 0v1q25 4 41.5 21t16.5 40t-15.5 40.5t-37.5 21.5q0 66 69 96q72 31 78 97h1v-317h-153zM131 436v-1q-57 -1 -92.5 -27.5t-37.5 -68.5h-1v97h131zM312 340h-1q-7 95 -130 95v1h131v-96z" />
    <glyph glyph-name="dotlessj" horiz-adv-x="209" 
d="M304 126q0 -46 -65 -106q-63 -59 -290 -247q-9 -7 -50 -60t-57 -65q-2 -2 -6 -2q-5 0 -9 12.5t-4 18.5q0 9 5 16q16 20 54.5 48t63.5 72q26 46 49 94t61 132t56 124q5 13 5 17q0 8 -9 6q-2 0 -16 -3t-19 -4q-3 -1 -4 3q1 4 5 6q26 4 52.5 14.5t43 18t21.5 7.5q8 0 8 -8
q0 -5 -6 -17q-78 -146 -131 -234q-58 -99 -115 -184q14 11 70 55.5t91.5 74t81.5 75.5t72 85q22 32 22 65q0 14 -6 22q-3 6 0.5 6.5t6.5 -2.5q19 -16 19 -40z" />
    <glyph glyph-name="grave.cap" 
d="M165 500q0 -2 -1.5 -2.5t-3.5 1.5q-28 52 -49 93q-3 6 -3 11q0 3 6 12.5t8 9.5q3 0 4 -4q24 -61 39 -121z" />
    <glyph glyph-name="acute.cap" 
d="M199 612l1 -4q0 -2 -3 -5q-14 -11 -163 -111q-6 -4 -7 0q-1 1 1 2q21 18 74 62.5t80 66.5q4 2 5 2q2 0 6.5 -5t5.5 -8z" />
    <glyph glyph-name="circumflex.cap" 
d="M183 524q0 -12 -4 -15l-23 -17q-3 0 -3 7q0 16 -2 46.5t-2 38.5q0 6 -4 6q-2 0 -5 -3q-37 -33 -70 -70l-13 -15q-9 0 -9 8q0 4 11 13q46 40 77 71q21 21 32 28q4 2 5 2q4 0 4 -5q1 -16 3.5 -49t2.5 -46z" />
    <glyph glyph-name="caron.cap" 
d="M69 584q0 12 4 15l23 17q3 0 3 -7q0 -16 2 -46.5t2 -38.5q0 -6 4 -6q2 0 5 3q37 33 70 70l13 15q9 0 9 -8q0 -4 -11 -13q-46 -40 -77 -71q-21 -21 -32 -28q-4 -2 -5 -2q-4 0 -4 5q-1 16 -3.5 49t-2.5 46z" />
    <glyph glyph-name="caron.alt" 
d="M234 466q0 -23 -27.5 -61.5t-85.5 -82.5q-8 -2 -8 5q84 60 84 109q0 24 -17 33q-4 3 -4 5t16 16t21 14q3 0 7.5 -3.5t9 -12.5t4.5 -22z" />
    <glyph glyph-name="tilde.cap" 
d="M233 580q-3 -23 -28 -48t-48 -25q-20 0 -48.5 27.5t-41.5 27.5q-4 0 -8.5 -1t-8.5 -4.5t-6.5 -5t-7 -7t-6 -7t-6.5 -7.5l-4 -7q-5 -7 -8.5 -5t2.5 11q22 28 52 50q17 13 28 13q14 0 42 -28.5t47 -28.5t30 14.5t11 30.5q0 5 4.5 7t4.5 -7z" />
    <glyph glyph-name="dieresis.cap" 
d="M211 553q0 -16 -13.5 -30.5t-29.5 -14.5q-14 0 -14 15q0 17 12 31.5t29 14.5q16 0 16 -16zM109 560q0 -15 -13.5 -30t-28.5 -15t-15 15q0 16 12.5 31t28.5 15t16 -16z" />
    <glyph glyph-name="macron.cap" 
d="M214 545l-10 -21l-144 -2l6 21z" />
    <glyph glyph-name="breve.cap" 
d="M190 567q0 -6 -6 -15q-16 -21 -41 -33t-45 -12q-22 0 -35.5 13.5t-13.5 36.5q0 6 12 13t19 7q4 0 4 -6q0 -44 39 -44q32 0 50 35q6 12 11 12q1 0 3.5 -2.5t2.5 -4.5z" />
    <glyph glyph-name="ring.cap" 
d="M172 565q0 -25 -19.5 -42t-43.5 -17q-18 0 -29.5 10.5t-11.5 26.5q0 26 19 42t43 16q18 0 30 -10t12 -26zM150 562q0 29 -23 29q-18 0 -28.5 -14t-10.5 -32q0 -28 25 -28q17 0 27 13.5t10 31.5z" />
    <glyph glyph-name="hungarumlaut.cap" 
d="M207 580q0 -1 -9 -12q-34 -36 -75 -72q-3 -2 -4 -2q-2 2 1 5q4 7 68 92q3 3 6 3q5 0 9 -4.5t4 -9.5zM134 582q0 -4 -10 -14q-11 -12 -38.5 -38.5t-36.5 -35.5q-2 -2 -3.5 -0.5t0.5 3.5q9 15 21 31t27.5 35t23.5 30q2 3 5 3q4 0 7.5 -5t3.5 -9z" />
    <glyph glyph-name="dotaccent.cap" 
d="M157 551q0 -22 -14 -37.5t-33 -15.5q-9 0 -15 6t-6 14q0 19 14.5 35.5t34.5 16.5q19 0 19 -19z" />
    <glyph glyph-name="commaaccent" 
d="M101 -61q0 -23 -27.5 -61.5t-85.5 -82.5q-8 -2 -8 5q84 60 84 109q0 24 -17 33q-4 3 -4 5t16 16t21 14q3 0 7.5 -3.5t9 -12.5t4.5 -22z" />
    <glyph glyph-name="commaaccent.alt" 
d="M112 358q0 23 27.5 61.5t85.5 82.5q8 2 8 -5q-84 -60 -84 -109q0 -24 17 -33q4 -3 4 -5t-16 -16t-21 -14q-3 0 -7.5 3.5t-9 12.5t-4.5 22z" />
    <glyph glyph-name="a.2" horiz-adv-x="599" 
d="M643 -18q0 -56 -78.5 -117t-140.5 -61q-23 0 -38 29q-3 6 0 5q1 0 3 -1q9 -9 32 -9q58 0 135.5 47.5t77.5 98.5q0 38 -91 38q-47 0 -164.5 -10.5t-141.5 -10.5q-71 0 -72 50q0 21 11 43q-28 -40 -63 -69.5t-55 -29.5q-14 0 -23 10t-9 22q0 51 73 122t142 78q8 13 10 13
q35 0 53 9q5 3 5 -4q-63 -98 -86 -162q-7 -21 -7 -37q0 -37 45 -37q34 0 148.5 28.5t147.5 28.5q86 0 86 -74zM238 209h-4q-44 0 -93 -59t-49 -113q0 -13 9 -13q7 0 21 11t36.5 40.5t45.5 70.5q19 35 34 63z" />
    <glyph glyph-name="b.2" horiz-adv-x="280" 
d="M607 643q-1 -29 -5 -30q-17 20 -50 20q-69 0 -128 -47q-90 -71 -258 -405q-17 -33 -33 -80.5t-16 -65.5q0 -27 18 -27q26 0 50.5 40.5t24.5 106.5q0 20 -5 32q0 6 6 12q21 21 36 31q3 0 4 -2q0 -36 25 -56t53 -20q36 0 67 19q5 3 6.5 -0.5t-3.5 -5.5q-62 -33 -108 -33
q-36 0 -58 28q0 -71 -48 -126t-95 -55q-36 0 -36 42q0 29 19 78t39 84q156 282 303 409q34 29 79 56.5t76 27.5q18 0 27.5 -9t9.5 -24z" />
    <glyph glyph-name="d.2" horiz-adv-x="254" 
d="M126 443q-35 56 -93 114q-11 11 -11 13q0 4 23 4q5 0 11 -3q60 -36 119 -118q67 -111 67 -233q0 -56 -30 -117t-67 -88t-73 -27q-39 0 -39 37q0 47 51 112.5t115 88.5q5 2 5 9q-3 38 -25.5 98.5t-52.5 109.5zM203 220q-45 -23 -77 -82.5t-32 -98.5q0 -24 18 -24
q43 0 69 63t26 130q0 12 -4 12z" />
    <glyph glyph-name="d.3" horiz-adv-x="251" 
d="M657 603q0 -13 -13 -43t-21 -44q-3 -5 -6 -2.5t0 5.5q9 15 9 36q0 103 -152 103q-39 0 -74.5 -4.5t-80 -18.5t-71 -46.5t-26.5 -80.5q0 -43 26.5 -119t26.5 -119q0 -57 -33 -125t-83 -114.5t-93 -46.5q-13 0 -21.5 11t-8.5 24q0 44 47.5 108.5t114.5 85.5q6 3 6 -3
q0 -3 -3 -5q-44 -11 -75.5 -61t-31.5 -95q0 -9 6 -17.5t14 -8.5q34 0 73.5 53t39.5 138q0 45 -25 130.5t-25 129.5q0 24 8.5 48.5t32.5 53t61.5 50t101.5 35.5t145 14q131 0 131 -72z" />
    <glyph glyph-name="e.2" horiz-adv-x="518" 
d="M229 170q0 12 -9.5 23.5t-24.5 11.5t-35 -20.5t-20 -26.5q0 -3 4 -3q53 0 69 1t16 14zM591 189q-41 -26 -232 -35q-154 -6 -219 -12q-7 -1 -12 -8q-25 -38 -25 -90q0 -67 65 -67q31 0 65 17t53 39q6 6 9 2q1 -3 -5 -9q-25 -27 -66.5 -46t-87.5 -19q-40 0 -69.5 17
t-29.5 56q0 41 41 98t107 82q20 8 43 8q21 0 34.5 -9t13.5 -18q0 -5 -5 -8q-26 -16 -26 -26q0 -4 9 -4q195 2 260 25q66 24 99 138q3 10 8 11q27 11 29 11q5 0 5 -9q0 -25 -19.5 -77t-44.5 -67z" />
    <glyph glyph-name="f.2" horiz-adv-x="190" 
d="M-409 -304q0 10 19 71q2 2 6 2q-1 -7 -1 -18q0 -85 103 -85q86 0 150 64t123 178q29 55 74 152t68 139q-7 0 -48.5 -0.5t-46.5 -0.5q-14 0 -14 7q0 3 6 3q72 0 106 1q45 81 73 126t81.5 104.5t113.5 93.5q56 33 99 33q46 0 46 -35q0 -11 -10 -20.5t-24 -9.5q-11 0 -28 15
t-41 15q-56 0 -100.5 -60t-147.5 -263q110 0 133 1q3 -2 1 -5t-6 -4q-90 0 -131 -1q-68 -143 -147 -273q-81 -132 -183.5 -208.5t-188.5 -76.5q-37 0 -61 14t-24 41z" />
    <glyph glyph-name="k.2" horiz-adv-x="274" 
d="M610 643q0 -5 -7 -5q-114 -9 -179 -67q-14 -13 -27.5 -26.5t-27.5 -31l-24 -30t-25 -35.5t-22.5 -34t-24 -39t-22 -37t-24 -41.5t-22.5 -39.5q-7 -11 -33 -56.5l-42 -73.5q40 9 52 14q52 21 52 63q0 2 -0.5 7t-0.5 8q0 5 6 5q3 0 19.5 -0.5t20.5 -0.5q9 0 9 -19
q0 -18 -18 -33.5t-42 -25.5q-42 -17 -100 -29q-12 -3 -5 -12q80 -113 129 -113q21 0 39 15q44 37 75 95q1 3 4 4t4.5 -1t-1.5 -7q-23 -38 -58 -78.5t-68 -58.5q-18 -11 -36 -11q-27 0 -49 24.5t-66 94.5q-15 -23 -42 -77q-6 -10 -13 -10q-1 0 -14 10q-6 4 -13 9.5t-6 8.5
q8 14 58 96q-9 9 -9 12q0 5 20 5q15 23 45.5 71.5t46.5 73.5q128 192 252 319q95 97 158 97q8 0 13 -7q18 -27 18 -33z" />
    <glyph glyph-name="n.2" horiz-adv-x="567" 
d="M645 180q0 -54 -26 -100.5t-66 -77.5t-88.5 -54t-93 -33t-80.5 -10q-165 0 -165 86q0 25 17 57.5t56 90.5q8 12 8 15q0 4 -6 4q-5 0 -19.5 -7t-37 -26t-37.5 -44q-5 -9 -16.5 -31t-12.5 -23q-1 -2 -26 -8.5t-29 -6.5q-5 0 -5 6q0 5 38.5 68.5t66.5 103.5q3 5 25.5 11
t30.5 6q5 0 5 -6q0 -2 -10 -15t-21.5 -28.5t-14.5 -21.5q-2 -3 2 -5q37 27 73.5 46t46.5 19q19 0 19 -9q0 -5 -7 -17q-87 -132 -87 -184q0 -74 106 -74q50 0 104.5 18.5t102.5 51t79 85t31 113.5q0 97 -63 110q-8 2 -5 6q3 2 7 1q43 -8 70.5 -40t27.5 -77z" />
    <glyph glyph-name="o.2" horiz-adv-x="575" 
d="M216 184q-11 3 -15 14q-29 -4 -66 -69t-37 -101q0 -19 11 -19q27 0 67 66.5t40 108.5zM666 175q0 -24 -25.5 -51.5t-47.5 -36.5q-5 0 -6 3t4 5q37 18 37 50q0 47 -101 47q-57 0 -169 -5t-121 -5q-6 0 -10 1q0 -46 -42.5 -119t-100.5 -73q-19 0 -28.5 13t-9.5 30
q0 54 47 108t106 64v4v6.5t2 4t7 5.5q26 17 33 17q3 0 3 -8q0 -21 10 -31t38 -10q74 0 172.5 8.5t116.5 8.5q85 0 85 -36z" />
    <glyph glyph-name="s.2" horiz-adv-x="197" 
d="M177 229q37 44 70 44q10 0 18.5 -7t8.5 -18q-8 -4 -20 -17.5t-15 -21.5q-3 -3 -5 1q0 10 -9 19t-19 9q-16 0 -26 -24.5t-10 -64.5q0 -66 -12.5 -109.5t-49.5 -66.5q-47 -28 -82 -28q-41 0 -60 24q-19 -25 -28.5 -49t-11 -37.5t-1.5 -37.5q0 -18 7 -37q-2 -3 -5 -3
q-11 11 -38 17q0 36 19.5 73t62.5 92q32 39 206 242zM124 156q-66 -75 -124 -145q15 -53 54 -53q20 0 34 15q26 28 26 112q0 48 10 71z" />
    <glyph glyph-name="t.2" horiz-adv-x="690" 
d="M190 200q-80 -135 -80 -175q0 -20 22 -20q23 0 54 12.5t49 27.5q8 4 9.5 1t-4.5 -8q-26 -22 -75 -40t-83 -18q-17 0 -28.5 8.5t-11.5 22.5q0 22 16 54.5t74 134.5q-9 0 -28 -0.5t-27 -0.5q-5 0 -5 3q2 5 7 6q15 1 58 1q50 87 67 103q10 9 86 30q4 0 5 -2q0 -2 -3 -3
q-13 -6 -30 -26q-35 -48 -67 -103q52 0 194.5 -0.5t185.5 -0.5q130 0 192 19.5t62 69.5q0 25 -16 39q10 0 16.5 -12.5t6.5 -30.5q0 -58 -47.5 -88t-137.5 -30q-95 0 -234 13t-227 13z" />
    <glyph glyph-name="y.2" horiz-adv-x="257" 
d="M397 -402q-11 -34 -71 -62.5t-163 -28.5q-10 0 -369 -14q-113 -5 -168 -5q-3 0 -33 0.5t-40 0.5q-2 0 -6 -0.5t-5 -0.5q-4 0 -4 3q0 2 6 11t13.5 18t8.5 11q6 9 52 9q88 0 130.5 7.5t75.5 32.5q45 32 93 99q59 80 87.5 119.5t70.5 106.5t86 147q2 2 1 3q0 2 -5 -1
q-64 -41 -93 -41q-23 0 -23 26q0 12 10.5 35t21 40t28.5 45.5t20 30.5q7 10 12 10q2 0 24 4t24 4q3 0 3 -3t-1 -5q-4 -6 -17 -26.5t-21 -33.5t-18 -31t-15 -31.5t-5 -23.5q0 -11 10 -11q34 0 60 47q67 121 70 126q21 34 28 34q3 0 3 -6q0 -4 9 -15.5t9 -14.5
q0 -4 -5.5 -13.5t-16 -23.5t-19.5 -25t-21.5 -26t-15.5 -19q-47 -55 -65 -87q-20 -35 -115 -205q-74 -132 -141 -194.5t-149 -81.5q-6 -2 0 -2q16 0 85 -3.5t160.5 -7.5t146.5 -6q113 -3 161.5 15.5t69.5 79.5q0 5 3 5t12.5 -9t10.5 -13z" />
    <glyph glyph-name="T_h" horiz-adv-x="906" 
d="M1227 717q0 -44 -71.5 -89.5t-159.5 -66.5q-58 -84 -116 -181q-79 -129 -147 -267q-1 -3 0 -4t4 2q64 69 152 119q8 5 15 5q4 0 9 -4.5t5 -9.5q0 -3 -4 -9.5t-13.5 -19.5t-15.5 -23q-64 -100 -64 -146q0 -23 25 -23q33 0 74 36.5t71 79.5q4 4 6 4t2 -3q0 -4 -2 -6
q-26 -32 -42 -49.5t-43 -41.5t-57 -35t-64 -11q-17 0 -27 9t-10 20q0 16 9 32q17 29 43 79t29 56q1 2 1 5t-3 3q-1 0 -5 -2q-60 -38 -104 -95q-20 -25 -25 -47q-2 -8 -6 -8q-3 0 -8 7q-2 3 -9 11t-11.5 14.5t-4.5 10.5q0 9 18 37q44 72 170 307q37 69 79 131
q-94 -23 -177 -35q-57 -3 -132 -3q-33 0 -113 2.5t-113 2.5q-163 0 -258.5 -99.5t-95.5 -244.5q0 -66 22 -93q0 -4 -7 -4q-64 38 -64 78q0 60 47 144q93 168 254 239q84 37 172 37q60 0 184.5 -11t156.5 -11q70 0 131 11q34 51 46 66q103 123 206 123q41 0 41 -29zM717 480
q-34 -3 -59.5 -28t-52.5 -70q-23 -39 -73.5 -124t-63.5 -107q-17 -28 -31 -47t-31 -32.5t-22 -17t-24 -15.5q-2 -2 -2 -3q0 -2 6 -2q18 0 70.5 -2t77.5 -2q24 0 36 6q8 0 8 -4q0 -2 -4 -3q-8 -2 -28 -9.5t-30 -10.5t-29 -6t-38 -3h-145q-25 0 -40 -6q-4 0 -4 5q9 4 24.5 18
t21.5 14q64 3 84 26q34 36 56 88q92 218 147 279q23 26 64.5 42.5t81.5 21.5q7 0 7 -2q0 -6 -7 -6zM1202 709q0 28 -29 28q-39 0 -82 -47q-40 -44 -88 -118q83 20 141 59.5t58 77.5z" />
    </font>
</defs>
</svg>
